  0
SECTION
  2
HEADER
  9
$ACADVER
  1
AC1003
  9
$INSBASE
 10
0.000000
 20
0.000000
  9
$EXTMIN
 10
0.000000
 20
0.000000
  9
$EXTMAX
 10
1820.000000
 20
1285.000000
  9
$LIMMIN
 10
0.000000
 20
0.000000
  9
$LIMMAX
 10
1820.000000
 20
1285.000000
  9
$VIEWCTR
 10
910.000000
 20
642.500000
  9
$VIEWSIZE
 40
1285.000000
  9
$PEXTMIN
 10
0.000000
 20
0.000000
 30
0.000000
  9
$PEXTMAX
 10
364.000000
 20
257.000000
 30
0.000000
  9
$SNAPMODE
 70
     0
  9
$SNAPUNIT
 10
1.000000
 20
1.000000
  9
$SNAPBASE
 10
0.000000
 20
0.000000
  9
$SNAPANG
 50
0.000000
  9
$SNAPISOPAIR
 70
     0
  9
$SNAPSTYLE
 70
     0
  9
$GRIDMODE
 70
     0
  9
$GRIDUNIT
 10
0.000000
 20
0.000000
  9
$ORTHOMODE
 70
     0
  9
$REGENMODE
 70
     1
  9
$FILLMODE
 70
     1
  9
$QTEXTMODE
 70
     0
  9
$DRAGMODE
 70
     2
  9
$LTSCALE
 40
1.250000
  9
$OSMODE
 70
     0
  9
$ATTMODE
 70
     1
  9
$TEXTSIZE
 40
0.200000
  9
$TRACEWID
 40
0.050000
  9
$TEXTSTYLE
  7
STANDARD
  9
$CLAYER
  8
0
  9
$CELTYPE
  6
BYLAYER
  9
$CECOLOR
 62
   256
  9
$DIMSCALE
 40
1.000000
  9
$DIMASZ
 40
1.000000
  9
$DIMEXO
 40
0.000000
  9
$DIMDLI
 40
0.500000
  9
$DIMRND
 40
0.000000
  9
$DIMDLE
 40
0.000000
  9
$DIMEXE
 40
0.000000
  9
$DIMTP
 40
0.000000
  9
$DIMTM
 40
0.000000
  9
$DIMTXT
 40
0.180000
  9
$DIMCEN
 40
0.000000
  9
$DIMTSZ
 40
0.000000
  9
$DIMTOL
 70
     0
  9
$DIMLIM
 70
     0
  9
$DIMTIH
 70
     1
  9
$DIMTOH
 70
     1
  9
$DIMSE1
 70
     0
  9
$DIMSE2
 70
     0
  9
$DIMTAD
 70
     0
  9
$DIMZIN
 70
     0
  9
$DIMBLK
  1

  9
$DIMASO
 70
     0
  9
$DIMSHO
 70
     0
  9
$DIMPOST
  1

  9
$DIMAPOST
  1

  9
$DIMALT
 70
     0
  9
$DIMALTD
 70
     0
  9
$DIMALTF
 40
25.400000
  9
$DIMLFAC
 40
1.000000
  9
$DIMTOFL
 70
     0
  9
$DIMTVP
 40
0.000000
  9
$DIMTIX
 70
     0
  9
$DIMSOXD
 70
     0
  9
$DIMSAH
 70
     0
  9
$DIMBLKL
  1

  9
$DIMBLKR
  1

  9
$LUNITS
 70
     2
  9
$LUPREC
 70
     2
  9
$AXISMODE
 70
     0
  9
$AXISUNIT
 10
1.000000
 20
1.000000
  9
$SKETCHINC
 40
0.000000
  9
$FILLETRAD
 40
0.000000
  9
$AUNITS
 70
     1
  9
$AUPREC
 70
     2
  9
$MENU
  1
ACAD
  9
$ELEVATION
 40
0.000000
  9
$THICKNESS
 40
0.000000
  9
$VIEWDIR
 10
0.000000
 20
0.000000
 30
1.000000
  9
$LIMCHECK
 70
     1
  9
$BLIPMODE
 70
     1
  9
$CHAMFERA
 40
0.000000
  9
$CHAMFERB
 40
0.000000
  9
$FASTZOOM
 70
     1
  9
$SKPOLY
 70
     0
  9
$TDCREATE
 40
0.000000
  9
$TDUPDATE
 40
0.000000
  9
$TDINDWG
 40
0.000000
  9
$TDUSRTIMER
 40
0.000000
  9
$USRTIMER
 70
     1
  9
$ANGBASE
 50
0.000000
  9
$ANGDIR
 70
     0
  9
$PDMODE
 70
     0
  9
$PDSIZE
 40
0.000000
  9
$PLINEWID
 40
0.000000
  9
$COORDS
 70
     2
  9
$USERI1
 70
     0
  9
$USERI2
 70
     0
  9
$USERI3
 70
     0
  9
$USERI4
 70
     0
  9
$USERI5
 70
     0
  9
$USERR1
 40
0.000000
  9
$USERR2
 40
0.000000
  9
$USERR3
 40
0.000000
  9
$USERR4
 40
0.000000
  9
$USERR5
 40
0.000000
  0
ENDSEC
  0
SECTION
  2
TABLES
  0
TABLE
  2
LTYPE
 70
     5
  0
LTYPE
  2
CONTINUOUS
 70
    64
  3
Solid line
 72
    65
 73
     0
 40
0.0
  0
LTYPE
  2
HIDDEN
 70
    64
  3
------------------------
 72
    65
 73
     2
 40
12.6
 49
8.4
 49
-4.2
  0
LTYPE
  2
DOT
 70
    64
  3
････････････････････････
 72
    65
 73
     2
 40
8.0
 49
6.0
 49
-2.0
  0
LTYPE
  2
DASHDOT
 70
    64
  3
--･--･--･--･--･--･--･--
 72
    65
 73
     4
 40
50.5
 49
30.0
 49
-9.0
 49
2.5
 49
-9.0
  0
LTYPE
  2
DIVIDE
 70
    64
  3
--･･--･･--･･--･･--･･--
 72
    65
 73
     6
 40
58.0
 49
30.0
 49
-9.0
 49
2.5
 49
-5.0
 49
2.5
 49
-9.0
  0
ENDTAB
  0
TABLE
  2
LAYER
 70
1
  0
LAYER
  2
1
 70
64
 62
7
  6
CONTINUOUS
  0
ENDTAB
  0
TABLE
  2
STYLE
 70
     2
  0
STYLE
  2
STANDARD
 70
    64
 40
0.0
 41
1.0
 50
0.0
 71
     0
 42
0.2
  3
TXT
  4

  0
STYLE
  2
KANJI
 70
    64
 40
0.0
 41
1.0
 50
0.0
 71
     0
 42
0.2
  3
TXT
  4
BIGFONT
  0
ENDTAB
  0
TABLE
  2
VIEW
 70
     0
  0
ENDTAB
  0
ENDSEC
  0
SECTION
  2
BLOCKS
  0
BLOCK
  8
1
 62
7
  6
CONTINUOUS
  2
*D1
 70
    65
 10
0.0
 20
0.0
  0
LINE
  8
1
 62
7
  6
CONTINUOUS
 10
383.715278
 20
1053.446181
 11
383.715278
 21
648.446181
  0
LINE
  8
1
 62
7
  6
CONTINUOUS
 10
373.715278
 20
1053.446181
 11
551.725693
 21
1053.446181
  0
LINE
  8
1
 62
7
  6
CONTINUOUS
 10
373.715278
 20
648.446181
 11
551.725693
 21
648.446181
  0
CIRCLE
  8
1
 62
7
  6
CONTINUOUS
 10
383.715278
 20
1053.446181
 40
1.500000
  0
CIRCLE
  8
1
 62
7
  6
CONTINUOUS
 10
383.715278
 20
1053.446181
 40
0.750000
  0
CIRCLE
  8
1
 62
7
  6
CONTINUOUS
 10
383.715278
 20
648.446181
 40
1.500000
  0
CIRCLE
  8
1
 62
7
  6
CONTINUOUS
 10
383.715278
 20
648.446181
 40
0.750000
  0
TEXT
  8
1
 62
7
  6
CONTINUOUS
 10
383.715278
 20
835.946181
 40
20.000000
 41
0.500000
  1
405
  7
KANJI
 50
90.000000
 51
30.000000
  0
ENDBLK
  0
BLOCK
  8
1
 62
7
  6
CONTINUOUS
  2
*D2
 70
    65
 10
0.0
 20
0.0
  0
LINE
  8
1
 62
7
  6
CONTINUOUS
 10
419.409722
 20
1053.446181
 11
419.409722
 21
1028.446181
  0
LINE
  8
1
 62
7
  6
CONTINUOUS
 10
409.409722
 20
1053.446181
 11
551.725693
 21
1053.446181
  0
LINE
  8
1
 62
7
  6
CONTINUOUS
 10
409.409722
 20
1028.446181
 11
551.725693
 21
1028.446181
  0
CIRCLE
  8
1
 62
7
  6
CONTINUOUS
 10
419.409722
 20
1053.446181
 40
1.500000
  0
CIRCLE
  8
1
 62
7
  6
CONTINUOUS
 10
419.409722
 20
1053.446181
 40
0.750000
  0
CIRCLE
  8
1
 62
7
  6
CONTINUOUS
 10
419.409722
 20
1028.446181
 40
1.500000
  0
CIRCLE
  8
1
 62
7
  6
CONTINUOUS
 10
419.409722
 20
1028.446181
 40
0.750000
  0
TEXT
  8
1
 62
7
  6
CONTINUOUS
 10
419.409722
 20
1030.946181
 40
20.000000
 41
0.500000
  1
25
  7
KANJI
 50
90.000000
 51
30.000000
  0
ENDBLK
  0
BLOCK
  8
1
 62
7
  6
CONTINUOUS
  2
*D3
 70
    65
 10
0.0
 20
0.0
  0
LINE
  8
1
 62
7
  6
CONTINUOUS
 10
419.409722
 20
1028.446181
 11
419.409722
 21
673.446181
  0
LINE
  8
1
 62
7
  6
CONTINUOUS
 10
409.409722
 20
673.446181
 11
551.725693
 21
673.446181
  0
CIRCLE
  8
1
 62
7
  6
CONTINUOUS
 10
419.409722
 20
673.446181
 40
1.500000
  0
CIRCLE
  8
1
 62
7
  6
CONTINUOUS
 10
419.409722
 20
673.446181
 40
0.750000
  0
TEXT
  8
1
 62
7
  6
CONTINUOUS
 10
419.409722
 20
835.946181
 40
20.000000
 41
0.500000
  1
355
  7
KANJI
 50
90.000000
 51
30.000000
  0
ENDBLK
  0
BLOCK
  8
1
 62
7
  6
CONTINUOUS
  2
*D4
 70
    65
 10
0.0
 20
0.0
  0
LINE
  8
1
 62
7
  6
CONTINUOUS
 10
419.409722
 20
673.446181
 11
419.409722
 21
648.446181
  0
LINE
  8
1
 62
7
  6
CONTINUOUS
 10
409.409722
 20
648.446181
 11
551.725693
 21
648.446181
  0
CIRCLE
  8
1
 62
7
  6
CONTINUOUS
 10
419.409722
 20
648.446181
 40
1.500000
  0
CIRCLE
  8
1
 62
7
  6
CONTINUOUS
 10
419.409722
 20
648.446181
 40
0.750000
  0
TEXT
  8
1
 62
7
  6
CONTINUOUS
 10
419.409722
 20
650.946181
 40
20.000000
 41
0.500000
  1
25
  7
KANJI
 50
90.000000
 51
30.000000
  0
ENDBLK
  0
BLOCK
  8
1
 62
7
  6
CONTINUOUS
  2
*D5
 70
    65
 10
0.0
 20
0.0
  0
LINE
  8
1
 62
7
  6
CONTINUOUS
 10
561.725693
 20
1200.225694
 11
1066.725693
 21
1200.225694
  0
LINE
  8
1
 62
7
  6
CONTINUOUS
 10
561.725693
 20
1210.225694
 11
561.725693
 21
1063.446181
  0
LINE
  8
1
 62
7
  6
CONTINUOUS
 10
1066.725693
 20
1210.225694
 11
1066.725693
 21
1063.446181
  0
CIRCLE
  8
1
 62
7
  6
CONTINUOUS
 10
561.725693
 20
1200.225694
 40
1.500000
  0
CIRCLE
  8
1
 62
7
  6
CONTINUOUS
 10
561.725693
 20
1200.225694
 40
0.750000
  0
CIRCLE
  8
1
 62
7
  6
CONTINUOUS
 10
1066.725693
 20
1200.225694
 40
1.500000
  0
CIRCLE
  8
1
 62
7
  6
CONTINUOUS
 10
1066.725693
 20
1200.225694
 40
0.750000
  0
TEXT
  8
1
 62
7
  6
CONTINUOUS
 10
799.225693
 20
1200.225694
 40
20.000000
 41
0.500000
  1
505
  7
KANJI
 50
0.000000
 51
30.000000
  0
ENDBLK
  0
BLOCK
  8
1
 62
7
  6
CONTINUOUS
  2
*D6
 70
    65
 10
0.0
 20
0.0
  0
LINE
  8
1
 62
7
  6
CONTINUOUS
 10
561.725693
 20
1160.069444
 11
586.725693
 21
1160.069444
  0
LINE
  8
1
 62
7
  6
CONTINUOUS
 10
561.725693
 20
1170.069444
 11
561.725693
 21
1063.446181
  0
LINE
  8
1
 62
7
  6
CONTINUOUS
 10
586.725693
 20
1170.069444
 11
586.725693
 21
1063.446181
  0
CIRCLE
  8
1
 62
7
  6
CONTINUOUS
 10
561.725693
 20
1160.069444
 40
1.500000
  0
CIRCLE
  8
1
 62
7
  6
CONTINUOUS
 10
561.725693
 20
1160.069444
 40
0.750000
  0
CIRCLE
  8
1
 62
7
  6
CONTINUOUS
 10
586.725693
 20
1160.069444
 40
1.500000
  0
CIRCLE
  8
1
 62
7
  6
CONTINUOUS
 10
586.725693
 20
1160.069444
 40
0.750000
  0
TEXT
  8
1
 62
7
  6
CONTINUOUS
 10
564.225693
 20
1160.069444
 40
20.000000
 41
0.500000
  1
25
  7
KANJI
 50
0.000000
 51
30.000000
  0
ENDBLK
  0
BLOCK
  8
1
 62
7
  6
CONTINUOUS
  2
*D7
 70
    65
 10
0.0
 20
0.0
  0
LINE
  8
1
 62
7
  6
CONTINUOUS
 10
586.725693
 20
1160.069444
 11
1041.725693
 21
1160.069444
  0
LINE
  8
1
 62
7
  6
CONTINUOUS
 10
1041.725693
 20
1170.069444
 11
1041.725693
 21
1063.446181
  0
CIRCLE
  8
1
 62
7
  6
CONTINUOUS
 10
1041.725693
 20
1160.069444
 40
1.500000
  0
CIRCLE
  8
1
 62
7
  6
CONTINUOUS
 10
1041.725693
 20
1160.069444
 40
0.750000
  0
TEXT
  8
1
 62
7
  6
CONTINUOUS
 10
799.225693
 20
1160.069444
 40
20.000000
 41
0.500000
  1
455
  7
KANJI
 50
0.000000
 51
30.000000
  0
ENDBLK
  0
BLOCK
  8
1
 62
7
  6
CONTINUOUS
  2
*D8
 70
    65
 10
0.0
 20
0.0
  0
LINE
  8
1
 62
7
  6
CONTINUOUS
 10
1041.725693
 20
1160.069444
 11
1066.725693
 21
1160.069444
  0
LINE
  8
1
 62
7
  6
CONTINUOUS
 10
1066.725693
 20
1170.069444
 11
1066.725693
 21
1063.446181
  0
CIRCLE
  8
1
 62
7
  6
CONTINUOUS
 10
1066.725693
 20
1160.069444
 40
1.500000
  0
CIRCLE
  8
1
 62
7
  6
CONTINUOUS
 10
1066.725693
 20
1160.069444
 40
0.750000
  0
TEXT
  8
1
 62
7
  6
CONTINUOUS
 10
1044.225693
 20
1160.069444
 40
20.000000
 41
0.500000
  1
25
  7
KANJI
 50
0.000000
 51
30.000000
  0
ENDBLK
  0
BLOCK
  8
1
 62
7
  6
CONTINUOUS
  2
*D9
 70
    65
 10
0.0
 20
0.0
  0
LINE
  8
1
 62
7
  6
CONTINUOUS
 10
452.873264
 20
1028.446181
 11
452.873264
 21
938.446181
  0
LINE
  8
1
 62
7
  6
CONTINUOUS
 10
442.873264
 20
1028.446181
 11
551.725693
 21
1028.446181
  0
LINE
  8
1
 62
7
  6
CONTINUOUS
 10
442.873264
 20
938.446181
 11
551.725693
 21
938.446181
  0
CIRCLE
  8
1
 62
7
  6
CONTINUOUS
 10
452.873264
 20
1028.446181
 40
1.500000
  0
CIRCLE
  8
1
 62
7
  6
CONTINUOUS
 10
452.873264
 20
1028.446181
 40
0.750000
  0
CIRCLE
  8
1
 62
7
  6
CONTINUOUS
 10
452.873264
 20
938.446181
 40
1.500000
  0
CIRCLE
  8
1
 62
7
  6
CONTINUOUS
 10
452.873264
 20
938.446181
 40
0.750000
  0
TEXT
  8
1
 62
7
  6
CONTINUOUS
 10
452.873264
 20
973.446181
 40
20.000000
 41
0.500000
  1
90
  7
KANJI
 50
90.000000
 51
30.000000
  0
ENDBLK
  0
BLOCK
  8
1
 62
7
  6
CONTINUOUS
  2
*D10
 70
    65
 10
0.0
 20
0.0
  0
LINE
  8
1
 62
7
  6
CONTINUOUS
 10
477.832340
 20
472.951389
 11
477.832340
 21
302.951389
  0
LINE
  8
1
 62
7
  6
CONTINUOUS
 10
467.832340
 20
472.951389
 11
551.725693
 21
472.951389
  0
LINE
  8
1
 62
7
  6
CONTINUOUS
 10
467.832340
 20
302.951389
 11
551.725693
 21
302.951389
  0
CIRCLE
  8
1
 62
7
  6
CONTINUOUS
 10
477.832340
 20
472.951389
 40
1.500000
  0
CIRCLE
  8
1
 62
7
  6
CONTINUOUS
 10
477.832340
 20
472.951389
 40
0.750000
  0
CIRCLE
  8
1
 62
7
  6
CONTINUOUS
 10
477.832340
 20
302.951389
 40
1.500000
  0
CIRCLE
  8
1
 62
7
  6
CONTINUOUS
 10
477.832340
 20
302.951389
 40
0.750000
  0
TEXT
  8
1
 62
7
  6
CONTINUOUS
 10
477.832340
 20
372.951389
 40
20.000000
 41
0.500000
  1
170
  7
KANJI
 50
90.000000
 51
30.000000
  0
ENDBLK
  0
BLOCK
  8
1
 62
7
  6
CONTINUOUS
  2
*D11
 70
    65
 10
0.0
 20
0.0
  0
LINE
  8
1
 62
7
  6
CONTINUOUS
 10
490.455115
 20
477.951389
 11
490.455115
 21
455.951389
  0
LINE
  8
1
 62
7
  6
CONTINUOUS
 10
480.455115
 20
472.951389
 11
551.725693
 21
472.951389
  0
LINE
  8
1
 62
7
  6
CONTINUOUS
 10
480.455115
 20
460.951389
 11
551.725693
 21
460.951389
  0
CIRCLE
  8
1
 62
7
  6
CONTINUOUS
 10
490.455115
 20
472.951389
 40
1.500000
  0
CIRCLE
  8
1
 62
7
  6
CONTINUOUS
 10
490.455115
 20
472.951389
 40
0.750000
  0
CIRCLE
  8
1
 62
7
  6
CONTINUOUS
 10
490.455115
 20
460.951389
 40
1.500000
  0
CIRCLE
  8
1
 62
7
  6
CONTINUOUS
 10
490.455115
 20
460.951389
 40
0.750000
  0
TEXT
  8
1
 62
7
  6
CONTINUOUS
 10
490.455115
 20
441.951389
 40
20.000000
 41
0.500000
  1
   12
  7
KANJI
 50
90.000000
 51
30.000000
  0
ENDBLK
  0
BLOCK
  8
1
 62
7
  6
CONTINUOUS
  2
*D12
 70
    65
 10
0.0
 20
0.0
  0
LINE
  8
1
 62
7
  6
CONTINUOUS
 10
756.725693
 20
236.666613
 11
879.225693
 21
236.666613
  0
LINE
  8
1
 62
7
  6
CONTINUOUS
 10
756.725693
 20
226.666613
 11
756.725693
 21
292.951389
  0
LINE
  8
1
 62
7
  6
CONTINUOUS
 10
879.225693
 20
226.666613
 11
879.225693
 21
292.951389
  0
CIRCLE
  8
1
 62
7
  6
CONTINUOUS
 10
756.725693
 20
236.666613
 40
1.500000
  0
CIRCLE
  8
1
 62
7
  6
CONTINUOUS
 10
756.725693
 20
236.666613
 40
0.750000
  0
CIRCLE
  8
1
 62
7
  6
CONTINUOUS
 10
879.225693
 20
236.666613
 40
1.500000
  0
CIRCLE
  8
1
 62
7
  6
CONTINUOUS
 10
879.225693
 20
236.666613
 40
0.750000
  0
TEXT
  8
1
 62
7
  6
CONTINUOUS
 10
802.975693
 20
236.666613
 40
20.000000
 41
0.500000
  1
130
  7
KANJI
 50
0.000000
 51
30.000000
  0
ENDBLK
  0
BLOCK
  8
1
 62
7
  6
CONTINUOUS
  2
*D13
 70
    65
 10
0.0
 20
0.0
  0
LINE
  8
1
 62
7
  6
CONTINUOUS
 10
756.725693
 20
818.741319
 11
871.725693
 21
818.741319
  0
LINE
  8
1
 62
7
  6
CONTINUOUS
 10
756.725693
 20
808.741319
 11
756.725693
 21
928.446181
  0
LINE
  8
1
 62
7
  6
CONTINUOUS
 10
871.725693
 20
808.741319
 11
871.725693
 21
928.446181
  0
CIRCLE
  8
1
 62
7
  6
CONTINUOUS
 10
756.725693
 20
818.741319
 40
1.500000
  0
CIRCLE
  8
1
 62
7
  6
CONTINUOUS
 10
756.725693
 20
818.741319
 40
0.750000
  0
CIRCLE
  8
1
 62
7
  6
CONTINUOUS
 10
871.725693
 20
818.741319
 40
1.500000
  0
CIRCLE
  8
1
 62
7
  6
CONTINUOUS
 10
871.725693
 20
818.741319
 40
0.750000
  0
TEXT
  8
1
 62
7
  6
CONTINUOUS
 10
789.225693
 20
818.741319
 40
20.000000
 41
0.625000
  1
115φ
  7
KANJI
 50
0.000000
 51
30.000000
  0
ENDBLK
  0
BLOCK
  8
1
 62
7
  6
CONTINUOUS
  2
*D14
 70
    65
 10
0.0
 20
0.0
  0
LINE
  8
1
 62
7
  6
CONTINUOUS
 10
1318.463542
 20
1160.069444
 11
1488.463542
 21
1160.069444
  0
LINE
  8
1
 62
7
  6
CONTINUOUS
 10
1318.463542
 20
1170.069444
 11
1318.463542
 21
1063.446181
  0
LINE
  8
1
 62
7
  6
CONTINUOUS
 10
1488.463542
 20
1170.069444
 11
1488.463542
 21
1063.446181
  0
CIRCLE
  8
1
 62
7
  6
CONTINUOUS
 10
1318.463542
 20
1160.069444
 40
1.500000
  0
CIRCLE
  8
1
 62
7
  6
CONTINUOUS
 10
1318.463542
 20
1160.069444
 40
0.750000
  0
CIRCLE
  8
1
 62
7
  6
CONTINUOUS
 10
1488.463542
 20
1160.069444
 40
1.500000
  0
CIRCLE
  8
1
 62
7
  6
CONTINUOUS
 10
1488.463542
 20
1160.069444
 40
0.750000
  0
TEXT
  8
1
 62
7
  6
CONTINUOUS
 10
1388.463542
 20
1160.069444
 40
20.000000
 41
0.500000
  1
170
  7
KANJI
 50
0.000000
 51
30.000000
  0
ENDBLK
  0
BLOCK
  8
1
 62
7
  6
CONTINUOUS
  2
*D15
 70
    65
 10
0.0
 20
0.0
  0
LINE
  8
1
 62
7
  6
CONTINUOUS
 10
1461.828312
 20
880.946181
 11
1461.828312
 21
995.946181
  0
LINE
  8
1
 62
7
  6
CONTINUOUS
 10
1451.828312
 20
880.946181
 11
1468.463542
 21
880.946181
  0
LINE
  8
1
 62
7
  6
CONTINUOUS
 10
1451.828312
 20
995.946181
 11
1468.463542
 21
995.946181
  0
CIRCLE
  8
1
 62
7
  6
CONTINUOUS
 10
1461.828312
 20
880.946181
 40
1.500000
  0
CIRCLE
  8
1
 62
7
  6
CONTINUOUS
 10
1461.828312
 20
880.946181
 40
0.750000
  0
CIRCLE
  8
1
 62
7
  6
CONTINUOUS
 10
1461.828312
 20
995.946181
 40
1.500000
  0
CIRCLE
  8
1
 62
7
  6
CONTINUOUS
 10
1461.828312
 20
995.946181
 40
0.750000
  0
TEXT
  8
1
 62
7
  6
CONTINUOUS
 10
1461.828312
 20
923.446181
 40
20.000000
 41
0.500000
  1
115
  7
KANJI
 50
90.000000
 51
30.000000
  0
ENDBLK
  0
BLOCK
  8
1
 62
7
  6
CONTINUOUS
  2
*D16
 70
    65
 10
0.0
 20
0.0
  0
LINE
  8
1
 62
7
  6
CONTINUOUS
 10
1545.488191
 20
1003.446181
 11
1545.488191
 21
873.446181
  0
LINE
  8
1
 62
7
  6
CONTINUOUS
 10
1555.488191
 20
1003.446181
 11
1498.463542
 21
1003.446181
  0
LINE
  8
1
 62
7
  6
CONTINUOUS
 10
1555.488191
 20
873.446181
 11
1498.463542
 21
873.446181
  0
CIRCLE
  8
1
 62
7
  6
CONTINUOUS
 10
1545.488191
 20
1003.446181
 40
1.500000
  0
CIRCLE
  8
1
 62
7
  6
CONTINUOUS
 10
1545.488191
 20
1003.446181
 40
0.750000
  0
CIRCLE
  8
1
 62
7
  6
CONTINUOUS
 10
1545.488191
 20
873.446181
 40
1.500000
  0
CIRCLE
  8
1
 62
7
  6
CONTINUOUS
 10
1545.488191
 20
873.446181
 40
0.750000
  0
TEXT
  8
1
 62
7
  6
CONTINUOUS
 10
1545.488191
 20
923.446181
 40
20.000000
 41
0.500000
  1
130
  7
KANJI
 50
90.000000
 51
30.000000
  0
ENDBLK
  0
BLOCK
  8
1
 62
7
  6
CONTINUOUS
  2
*D17
 70
    65
 10
0.0
 20
0.0
  0
LINE
  8
1
 62
7
  6
CONTINUOUS
 10
1313.463542
 20
1129.848908
 11
1335.463542
 21
1129.848908
  0
LINE
  8
1
 62
7
  6
CONTINUOUS
 10
1318.463542
 20
1139.848908
 11
1318.463542
 21
1063.446181
  0
LINE
  8
1
 62
7
  6
CONTINUOUS
 10
1330.463542
 20
1139.848908
 11
1330.463542
 21
1063.446181
  0
CIRCLE
  8
1
 62
7
  6
CONTINUOUS
 10
1318.463542
 20
1129.848908
 40
1.500000
  0
CIRCLE
  8
1
 62
7
  6
CONTINUOUS
 10
1318.463542
 20
1129.848908
 40
0.750000
  0
CIRCLE
  8
1
 62
7
  6
CONTINUOUS
 10
1330.463542
 20
1129.848908
 40
1.500000
  0
CIRCLE
  8
1
 62
7
  6
CONTINUOUS
 10
1330.463542
 20
1129.848908
 40
0.750000
  0
TEXT
  8
1
 62
7
  6
CONTINUOUS
 10
1304.463542
 20
1129.848908
 40
20.000000
 41
0.500000
  1
  12
  7
KANJI
 50
0.000000
 51
30.000000
  0
ENDBLK
  0
BLOCK
  8
1
 62
7
  6
CONTINUOUS
  2
*D18
 70
    65
 10
0.0
 20
0.0
  0
LINE
  8
1
 62
7
  6
CONTINUOUS
 10
1368.080267
 20
1019.615073
 11
1369.811127
 21
1037.531750
  0
CIRCLE
  8
1
 62
7
  6
CONTINUOUS
 10
1368.561059
 20
1024.591904
 40
1.500000
  0
CIRCLE
  8
1
 62
7
  6
CONTINUOUS
 10
1368.561059
 20
1024.591904
 40
0.750000
  0
CIRCLE
  8
1
 62
7
  6
CONTINUOUS
 10
1369.330335
 20
1032.554920
 40
1.500000
  0
CIRCLE
  8
1
 62
7
  6
CONTINUOUS
 10
1369.330335
 20
1032.554920
 40
0.750000
  0
TEXT
  8
1
 62
7
  6
CONTINUOUS
 10
1367.022528
 20
1008.666091
 40
20.000000
 41
0.500000
  1
   8
  7
KANJI
 50
84.482000
 51
30.000000
  0
ENDBLK
  0
BLOCK
  8
1
 62
7
  6
CONTINUOUS
  2
*D19
 70
    65
 10
0.0
 20
0.0
  0
LINE
  8
1
 62
7
  6
CONTINUOUS
 10
561.725693
 20
556.695941
 11
1066.725693
 21
556.695941
  0
LINE
  8
1
 62
7
  6
CONTINUOUS
 10
561.725693
 20
566.695941
 11
561.725693
 21
482.951389
  0
LINE
  8
1
 62
7
  6
CONTINUOUS
 10
1066.725693
 20
566.695941
 11
1066.725693
 21
482.951389
  0
CIRCLE
  8
1
 62
7
  6
CONTINUOUS
 10
561.725693
 20
556.695941
 40
1.500000
  0
CIRCLE
  8
1
 62
7
  6
CONTINUOUS
 10
561.725693
 20
556.695941
 40
0.750000
  0
CIRCLE
  8
1
 62
7
  6
CONTINUOUS
 10
1066.725693
 20
556.695941
 40
1.500000
  0
CIRCLE
  8
1
 62
7
  6
CONTINUOUS
 10
1066.725693
 20
556.695941
 40
0.750000
  0
TEXT
  8
1
 62
7
  6
CONTINUOUS
 10
799.225693
 20
556.695941
 40
20.000000
 41
0.500000
  1
505
  7
KANJI
 50
0.000000
 51
30.000000
  0
ENDBLK
  0
ENDSEC
  0
SECTION
  2
ENTITIES
  0
TEXT
  8
1
 62
7
  6
CONTINUOUS
 10
39.900000
 20
144.259375
 40
24.750000
 41
0.800000
  1
取引先：
  7
KANJI
 50
0.000000
 51
0.000000
  0
TEXT
  8
1
 62
7
  6
CONTINUOUS
 10
119.100000
 20
156.634375
 40
12.375000
 41
0.400000
  1

  7
KANJI
 50
0.000000
 51
0.000000
  0
TEXT
  8
1
 62
7
  6
CONTINUOUS
 10
119.100000
 20
144.259375
 40
12.375000
 41
0.400000
  1

  7
KANJI
 50
0.000000
 51
0.000000
  0
TEXT
  8
1
 62
7
  6
CONTINUOUS
 10
39.900000
 20
94.759375
 40
24.750000
 41
0.800000
  1
物件名：
  7
KANJI
 50
0.000000
 51
0.000000
  0
TEXT
  8
1
 62
7
  6
CONTINUOUS
 10
119.100000
 20
107.134375
 40
12.375000
 41
0.400000
  1

  7
KANJI
 50
0.000000
 51
0.000000
  0
TEXT
  8
1
 62
7
  6
CONTINUOUS
 10
119.100000
 20
94.759375
 40
12.375000
 41
0.400000
  1

  7
KANJI
 50
0.000000
 51
0.000000
  0
TEXT
  8
1
 62
7
  6
CONTINUOUS
 10
39.900000
 20
45.259375
 40
24.750000
 41
0.700000
  1
納 期：
  7
KANJI
 50
0.000000
 51
0.000000
  0
TEXT
  8
1
 62
7
  6
CONTINUOUS
 10
109.200000
 20
57.634375
 40
12.375000
 41
0.400000
  1

  7
KANJI
 50
0.000000
 51
0.000000
  0
TEXT
  8
1
 62
7
  6
CONTINUOUS
 10
109.200000
 20
45.259375
 40
12.375000
 41
0.400000
  1

  7
KANJI
 50
0.000000
 51
0.000000
  0
LINE
  8
1
 62
7
  6
CONTINUOUS
 10
30.000000
 20
188.500000
 11
30.000000
 21
40.000000
  0
LINE
  8
1
 62
7
  6
CONTINUOUS
 10
30.000000
 20
188.500000
 11
327.000000
 21
188.500000
  0
LINE
  8
1
 62
7
  6
CONTINUOUS
 10
327.000000
 20
188.500000
 11
327.000000
 21
139.000000
  0
LINE
  8
1
 62
7
  6
CONTINUOUS
 10
327.000000
 20
139.000000
 11
30.000000
 21
139.000000
  0
LINE
  8
1
 62
7
  6
CONTINUOUS
 10
30.000000
 20
139.000000
 11
30.000000
 21
89.500000
  0
LINE
  8
1
 62
7
  6
CONTINUOUS
 10
30.000000
 20
89.500000
 11
327.000000
 21
89.500000
  0
LINE
  8
1
 62
7
  6
CONTINUOUS
 10
327.000000
 20
89.500000
 11
327.000000
 21
139.000000
  0
LINE
  8
1
 62
7
  6
CONTINUOUS
 10
327.000000
 20
139.000000
 11
327.000000
 21
40.000000
  0
LINE
  8
1
 62
7
  6
CONTINUOUS
 10
327.000000
 20
40.000000
 11
30.000000
 21
40.000000
  0
TEXT
  8
1
 62
7
  6
CONTINUOUS
 10
341.850000
 20
144.259375
 40
24.750000
 41
0.800000
  1
　色柄：
  7
KANJI
 50
0.000000
 51
0.000000
  0
TEXT
  8
1
 62
7
  6
CONTINUOUS
 10
421.050000
 20
156.634375
 40
12.375000
 41
0.400000
  1

  7
KANJI
 50
0.000000
 51
0.000000
  0
TEXT
  8
1
 62
7
  6
CONTINUOUS
 10
421.050000
 20
144.259375
 40
12.375000
 41
0.400000
  1

  7
KANJI
 50
0.000000
 51
0.000000
  0
TEXT
  8
1
 62
7
  6
CONTINUOUS
 10
341.850000
 20
94.759375
 40
24.750000
 41
0.800000
  1
　厚み：
  7
KANJI
 50
0.000000
 51
0.000000
  0
TEXT
  8
1
 62
7
  6
CONTINUOUS
 10
421.050000
 20
107.134375
 40
12.375000
 41
0.400000
  1

  7
KANJI
 50
0.000000
 51
0.000000
  0
TEXT
  8
1
 62
7
  6
CONTINUOUS
 10
421.050000
 20
94.759375
 40
12.375000
 41
0.400000
  1

  7
KANJI
 50
0.000000
 51
0.000000
  0
TEXT
  8
1
 62
7
  6
CONTINUOUS
 10
341.850000
 20
45.259375
 40
24.750000
 41
0.800000
  1
付属品：
  7
KANJI
 50
0.000000
 51
0.000000
  0
TEXT
  8
1
 62
7
  6
CONTINUOUS
 10
421.050000
 20
57.634375
 40
12.375000
 41
0.400000
  1

  7
KANJI
 50
0.000000
 51
0.000000
  0
TEXT
  8
1
 62
7
  6
CONTINUOUS
 10
421.050000
 20
45.259375
 40
12.375000
 41
0.400000
  1

  7
KANJI
 50
0.000000
 51
0.000000
  0
LINE
  8
1
 62
7
  6
CONTINUOUS
 10
429.073950
 20
40.000000
 11
429.073950
 21
188.500000
  0
TEXT
  8
1
 62
7
  6
CONTINUOUS
 10
438.973950
 20
164.987500
 40
19.800000
 41
1.000000
  1
単色シリーズ
  7
KANJI
 50
0.000000
 51
0.000000
  0
TEXT
  8
1
 62
7
  6
CONTINUOUS
 10
557.773950
 20
174.887500
 40
9.900000
 41
0.500000
  1

  7
KANJI
 50
0.000000
 51
0.000000
  0
TEXT
  8
1
 62
7
  6
CONTINUOUS
 10
557.773950
 20
164.987500
 40
9.900000
 41
0.500000
  1

  7
KANJI
 50
0.000000
 51
0.000000
  0
LINE
  8
1
 62
7
  6
CONTINUOUS
 10
1615.489950
 20
40.000000
 11
1615.489950
 21
188.500000
  0
TEXT
  8
1
 62
7
  6
CONTINUOUS
 10
1235.923950
 20
94.759375
 40
24.750000
 41
0.800000
  1
埼玉県比企郡川島町表２１－５
  7
KANJI
 50
0.000000
 51
0.000000
  0
TEXT
  8
1
 62
7
  6
CONTINUOUS
 10
1513.123950
 20
107.134375
 40
12.375000
 41
0.400000
  1

  7
KANJI
 50
0.000000
 51
0.000000
  0
TEXT
  8
1
 62
7
  6
CONTINUOUS
 10
1513.123950
 20
94.759375
 40
12.375000
 41
0.400000
  1

  7
KANJI
 50
0.000000
 51
0.000000
  0
TEXT
  8
1
 62
7
  6
CONTINUOUS
 10
1235.923950
 20
70.009375
 40
24.750000
 41
0.647059
  1
  TEL ０４９２－９７－７２７１
  7
KANJI
 50
0.000000
 51
0.000000
  0
TEXT
  8
1
 62
7
  6
CONTINUOUS
 10
1495.798950
 20
82.384375
 40
12.375000
 41
0.388235
  1

  7
KANJI
 50
0.000000
 51
0.000000
  0
TEXT
  8
1
 62
7
  6
CONTINUOUS
 10
1495.798950
 20
70.009375
 40
12.375000
 41
0.388235
  1

  7
KANJI
 50
0.000000
 51
0.000000
  0
TEXT
  8
1
 62
7
  6
CONTINUOUS
 10
1235.923950
 20
45.259375
 40
24.750000
 41
0.647059
  1
  FAX ０４９２－９７－７２７３
  7
KANJI
 50
0.000000
 51
0.000000
  0
TEXT
  8
1
 62
7
  6
CONTINUOUS
 10
1495.798950
 20
57.634375
 40
12.375000
 41
0.388235
  1

  7
KANJI
 50
0.000000
 51
0.000000
  0
TEXT
  8
1
 62
7
  6
CONTINUOUS
 10
1495.798950
 20
45.259375
 40
12.375000
 41
0.388235
  1

  7
KANJI
 50
0.000000
 51
0.000000
  0
TEXT
  8
1
 62
7
  6
CONTINUOUS
 10
1235.923950
 20
117.653125
 40
34.650000
 41
1.285714
  1
㈱三井ＰＣＯ
  7
KANJI
 50
0.000000
 51
0.000000
  0
TEXT
  8
1
 62
7
  6
CONTINUOUS
 10
1468.573950
 20
134.978125
 40
17.325000
 41
0.642857
  1

  7
KANJI
 50
0.000000
 51
0.000000
  0
TEXT
  8
1
 62
7
  6
CONTINUOUS
 10
1468.573950
 20
117.653125
 40
17.325000
 41
0.642857
  1

  7
KANJI
 50
0.000000
 51
0.000000
  0
LINE
  8
1
 62
7
  6
CONTINUOUS
 10
429.073950
 20
188.500000
 11
578.420400
 21
188.500000
  0
LINE
  8
1
 62
7
  6
CONTINUOUS
 10
578.420400
 20
188.500000
 11
722.960400
 21
188.500000
  0
LINE
  8
1
 62
7
  6
CONTINUOUS
 10
722.960400
 20
188.500000
 11
872.851350
 21
188.500000
  0
LINE
  8
1
 62
7
  6
CONTINUOUS
 10
872.851350
 20
40.000000
 11
429.073950
 21
40.000000
  0
LINE
  8
1
 62
7
  6
CONTINUOUS
 10
429.073950
 20
139.000000
 11
872.851350
 21
139.000000
  0
LINE
  8
1
 62
7
  6
CONTINUOUS
 10
872.851350
 20
89.500000
 11
429.073950
 21
89.500000
  0
LINE
  8
1
 62
7
  6
CONTINUOUS
 10
578.420400
 20
188.500000
 11
578.420400
 21
89.500000
  0
LINE
  8
1
 62
7
  6
CONTINUOUS
 10
906.348000
 20
139.000000
 11
872.851350
 21
139.000000
  0
LINE
  8
1
 62
7
  6
CONTINUOUS
 10
872.851350
 20
139.000000
 11
906.348000
 21
139.000000
  0
LINE
  8
1
 62
7
  6
CONTINUOUS
 10
906.348000
 20
89.500000
 11
872.851350
 21
89.500000
  0
LINE
  8
1
 62
7
  6
CONTINUOUS
 10
872.851350
 20
89.500000
 11
906.348000
 21
89.500000
  0
LINE
  8
1
 62
7
  6
CONTINUOUS
 10
578.420400
 20
89.500000
 11
578.420400
 21
40.000000
  0
LINE
  8
1
 62
7
  6
CONTINUOUS
 10
872.851350
 20
188.500000
 11
906.348000
 21
188.500000
  0
LINE
  8
1
 62
7
  6
CONTINUOUS
 10
906.348000
 20
40.000000
 11
872.851350
 21
40.000000
  0
LINE
  8
1
 62
7
  6
CONTINUOUS
 10
1129.098000
 20
188.500000
 11
1129.098000
 21
40.000000
  0
LINE
  8
1
 62
7
  6
CONTINUOUS
 10
1129.098000
 20
40.000000
 11
1615.489950
 21
40.000000
  0
LINE
  8
1
 62
7
  6
CONTINUOUS
 10
1615.489950
 20
188.500000
 11
1129.098000
 21
188.500000
  0
LINE
  8
1
 62
7
  6
CONTINUOUS
 10
906.348000
 20
188.500000
 11
1121.673000
 21
188.500000
  0
LINE
  8
1
 62
7
  6
CONTINUOUS
 10
1121.673000
 20
188.500000
 11
1121.673000
 21
40.000000
  0
LINE
  8
1
 62
7
  6
CONTINUOUS
 10
1121.673000
 20
40.000000
 11
906.348000
 21
40.000000
  0
LINE
  8
1
 62
7
  6
CONTINUOUS
 10
906.348000
 20
139.000000
 11
1121.673000
 21
139.000000
  0
LINE
  8
1
 62
7
  6
CONTINUOUS
 10
1121.673000
 20
89.500000
 11
906.348000
 21
89.500000
  0
TEXT
  8
1
 62
7
  6
CONTINUOUS
 10
931.360845
 20
164.987500
 40
19.800000
 41
1.000000
  1
モンタナシリーズ
  7
KANJI
 50
0.000000
 51
0.000000
  0
TEXT
  8
1
 62
7
  6
CONTINUOUS
 10
1089.760845
 20
174.887500
 40
9.900000
 41
0.500000
  1

  7
KANJI
 50
0.000000
 51
0.000000
  0
TEXT
  8
1
 62
7
  6
CONTINUOUS
 10
1089.760845
 20
164.987500
 40
9.900000
 41
0.500000
  1

  7
KANJI
 50
0.000000
 51
0.000000
  0
TEXT
  8
1
 62
7
  6
CONTINUOUS
 10
755.473485
 20
164.987500
 40
19.800000
 41
1.000000
  1
シエラシリーズ
  7
KANJI
 50
0.000000
 51
0.000000
  0
TEXT
  8
1
 62
7
  6
CONTINUOUS
 10
894.073485
 20
174.887500
 40
9.900000
 41
0.500000
  1

  7
KANJI
 50
0.000000
 51
0.000000
  0
TEXT
  8
1
 62
7
  6
CONTINUOUS
 10
894.073485
 20
164.987500
 40
9.900000
 41
0.500000
  1

  7
KANJI
 50
0.000000
 51
0.000000
  0
LINE
  8
1
 62
7
  6
CONTINUOUS
 10
919.192260
 20
188.500000
 11
919.192260
 21
40.000000
  0
TEXT
  8
1
 62
7
  6
CONTINUOUS
 10
588.320400
 20
161.275000
 40
19.800000
 41
1.000000
  1
ベナーロシリーズ
  7
KANJI
 50
0.000000
 51
0.000000
  0
TEXT
  8
1
 62
7
  6
CONTINUOUS
 10
746.720400
 20
171.175000
 40
9.900000
 41
0.500000
  1

  7
KANJI
 50
0.000000
 51
0.000000
  0
TEXT
  8
1
 62
7
  6
CONTINUOUS
 10
746.720400
 20
161.275000
 40
9.900000
 41
0.500000
  1

  7
KANJI
 50
0.000000
 51
0.000000
  0
LINE
  8
1
 62
7
  6
CONTINUOUS
 10
749.190450
 20
188.500000
 11
749.190450
 21
40.000000
  0
TEXT
  8
1
 62
7
  6
CONTINUOUS
 10
429.073950
 20
48.380350
 40
24.750000
 41
0.800000
  1
シーム剤  本
  7
KANJI
 50
0.000000
 51
0.000000
  0
TEXT
  8
1
 62
7
  6
CONTINUOUS
 10
557.773950
 20
60.755350
 40
12.375000
 41
0.466667
  1

  7
KANJI
 50
0.000000
 51
0.000000
  0
TEXT
  8
1
 62
7
  6
CONTINUOUS
 10
557.773950
 20
48.380350
 40
12.375000
 41
0.466667
  1

  7
KANJI
 50
0.000000
 51
0.000000
  0
TEXT
  8
1
 62
7
  6
CONTINUOUS
 10
924.142260
 20
52.589335
 40
24.750000
 41
1.000000
  1
梱包個数　　梱
  7
KANJI
 50
0.000000
 51
0.000000
  0
TEXT
  8
1
 62
7
  6
CONTINUOUS
 10
1097.392260
 20
64.964335
 40
12.375000
 41
0.500000
  1

  7
KANJI
 50
0.000000
 51
0.000000
  0
TEXT
  8
1
 62
7
  6
CONTINUOUS
 10
1097.392260
 20
52.589335
 40
12.375000
 41
0.500000
  1

  7
KANJI
 50
0.000000
 51
0.000000
  0
TEXT
  8
1
 62
7
  6
CONTINUOUS
 10
735.879900
 20
52.271050
 40
24.750000
 41
0.746667
  1
 断熱テープ   本
  7
KANJI
 50
0.000000
 51
0.000000
  0
TEXT
  8
1
 62
7
  6
CONTINUOUS
 10
900.467400
 20
64.646050
 40
12.375000
 41
0.466667
  1

  7
KANJI
 50
0.000000
 51
0.000000
  0
TEXT
  8
1
 62
7
  6
CONTINUOUS
 10
900.467400
 20
52.271050
 40
12.375000
 41
0.466667
  1

  7
KANJI
 50
0.000000
 51
0.000000
  0
TEXT
  8
1
 62
7
  6
CONTINUOUS
 10
583.370400
 20
47.910595
 40
24.750000
 41
0.656250
  1
瞬間接着剤 　本
  7
KANJI
 50
0.000000
 51
0.000000
  0
TEXT
  8
1
 62
7
  6
CONTINUOUS
 10
713.307900
 20
60.285595
 40
12.375000
 41
0.350000
  1

  7
KANJI
 50
0.000000
 51
0.000000
  0
TEXT
  8
1
 62
7
  6
CONTINUOUS
 10
713.307900
 20
47.910595
 40
12.375000
 41
0.350000
  1

  7
KANJI
 50
0.000000
 51
0.000000
  0
TEXT
  8
1
 62
7
  6
CONTINUOUS
 10
438.973950
 20
97.234375
 40
24.750000
 41
1.041667
  1
   ㎜
  7
KANJI
 50
0.000000
 51
0.000000
  0
TEXT
  8
1
 62
7
  6
CONTINUOUS
 10
525.598950
 20
109.609375
 40
12.375000
 41
0.833333
  1

  7
KANJI
 50
0.000000
 51
0.000000
  0
TEXT
  8
1
 62
7
  6
CONTINUOUS
 10
525.598950
 20
97.234375
 40
12.375000
 41
0.833333
  1

  7
KANJI
 50
0.000000
 51
0.000000
  0
TEXT
  8
1
 62
7
  6
CONTINUOUS
 10
588.320400
 20
97.234375
 40
24.750000
 41
1.041667
  1
   ㎜
  7
KANJI
 50
0.000000
 51
0.000000
  0
TEXT
  8
1
 62
7
  6
CONTINUOUS
 10
674.945400
 20
109.609375
 40
12.375000
 41
0.833333
  1

  7
KANJI
 50
0.000000
 51
0.000000
  0
TEXT
  8
1
 62
7
  6
CONTINUOUS
 10
674.945400
 20
97.234375
 40
12.375000
 41
0.833333
  1

  7
KANJI
 50
0.000000
 51
0.000000
  0
TEXT
  8
1
 62
7
  6
CONTINUOUS
 10
755.473485
 20
97.234375
 40
24.750000
 41
1.041667
  1
   ㎜
  7
KANJI
 50
0.000000
 51
0.000000
  0
TEXT
  8
1
 62
7
  6
CONTINUOUS
 10
842.098485
 20
109.609375
 40
12.375000
 41
0.833333
  1

  7
KANJI
 50
0.000000
 51
0.000000
  0
TEXT
  8
1
 62
7
  6
CONTINUOUS
 10
842.098485
 20
97.234375
 40
12.375000
 41
0.833333
  1

  7
KANJI
 50
0.000000
 51
0.000000
  0
TEXT
  8
1
 62
7
  6
CONTINUOUS
 10
924.142260
 20
97.234375
 40
24.750000
 41
1.050000
  1
    ㎜
  7
KANJI
 50
0.000000
 51
0.000000
  0
TEXT
  8
1
 62
7
  6
CONTINUOUS
 10
1035.517260
 20
109.609375
 40
12.375000
 41
0.875000
  1

  7
KANJI
 50
0.000000
 51
0.000000
  0
TEXT
  8
1
 62
7
  6
CONTINUOUS
 10
1035.517260
 20
97.234375
 40
12.375000
 41
0.875000
  1

  7
KANJI
 50
0.000000
 51
0.000000
  0
TEXT
  8
1
 62
7
  6
CONTINUOUS
 10
1138.998000
 20
159.109375
 40
24.750000
 41
0.800000
  1
デュポンコーリアン認定加工／施工工場　　Ｍｐｃｏ　
  7
KANJI
 50
0.000000
 51
0.000000
  0
TEXT
  8
1
 62
7
  6
CONTINUOUS
 10
1633.998000
 20
171.484375
 40
12.375000
 41
0.400000
  1

  7
KANJI
 50
0.000000
 51
0.000000
  0
TEXT
  8
1
 62
7
  6
CONTINUOUS
 10
1633.998000
 20
159.109375
 40
12.375000
 41
0.400000
  1

  7
KANJI
 50
0.000000
 51
0.000000
  0
LINE
  8
1
 62
7
  6
CONTINUOUS
 10
1622.914950
 20
40.000000
 11
1734.473100
 21
40.000000
  0
TEXT
  8
1
 62
7
  6
CONTINUOUS
 10
1627.864950
 20
95.378125
 40
34.650000
 41
0.714286
  1
図面番号
  7
KANJI
 50
0.000000
 51
0.000000
  0
TEXT
  8
1
 62
7
  6
CONTINUOUS
 10
1726.864950
 20
112.703125
 40
17.325000
 41
0.357143
  1

  7
KANJI
 50
0.000000
 51
0.000000
  0
TEXT
  8
1
 62
7
  6
CONTINUOUS
 10
1726.864950
 20
95.378125
 40
17.325000
 41
0.357143
  1

  7
KANJI
 50
0.000000
 51
0.000000
  0
LINE
  8
1
 62
7
  6
CONTINUOUS
 10
1622.914950
 20
139.000000
 11
1622.914950
 21
40.000000
  0
LINE
  8
1
 62
7
  6
CONTINUOUS
 10
1622.914950
 20
40.000000
 11
1734.473100
 21
40.000000
  0
LINE
  8
1
 62
7
  6
CONTINUOUS
 10
1734.473100
 20
40.000000
 11
1734.473100
 21
139.000000
  0
LINE
  8
1
 62
7
  6
CONTINUOUS
 10
1734.473100
 20
139.000000
 11
1622.914950
 21
139.000000
  0
LINE
  8
1
 62
7
  6
CONTINUOUS
 10
1622.914950
 20
139.000000
 11
1622.914950
 21
188.500000
  0
LINE
  8
1
 62
7
  6
CONTINUOUS
 10
1622.914950
 20
188.500000
 11
1734.473100
 21
188.500000
  0
LINE
  8
1
 62
7
  6
CONTINUOUS
 10
1734.473100
 20
188.500000
 11
1734.473100
 21
139.000000
  0
TEXT
  8
1
 62
7
  6
CONTINUOUS
 10
1627.864950
 20
161.275000
 40
19.800000
 41
0.875000
  1
CAD-NO
  7
KANJI
 50
0.000000
 51
0.000000
  0
TEXT
  8
1
 62
7
  6
CONTINUOUS
 10
1723.152450
 20
171.175000
 40
9.900000
 41
0.875000
  1

  7
KANJI
 50
0.000000
 51
0.000000
  0
TEXT
  8
1
 62
7
  6
CONTINUOUS
 10
1723.152450
 20
161.275000
 40
9.900000
 41
0.875000
  1

  7
KANJI
 50
0.000000
 51
0.000000
  0
TEXT
  8
1
 62
7
  6
CONTINUOUS
 10
54.560220
 20
1131.500000
 40
30.000000
 41
0.833333
  1
100％アクリル製
  7
KANJI
 50
0.000000
 51
0.000000
  0
TEXT
  8
1
 62
7
  6
CONTINUOUS
 10
279.560220
 20
1146.500000
 40
15.000000
 41
0.500000
  1

  7
KANJI
 50
0.000000
 51
0.000000
  0
TEXT
  8
1
 62
7
  6
CONTINUOUS
 10
279.560220
 20
1131.500000
 40
15.000000
 41
0.500000
  1

  7
KANJI
 50
0.000000
 51
0.000000
  0
TEXT
  8
1
 62
7
  6
CONTINUOUS
 10
54.079792
 20
1100.715314
 40
25.000000
 41
1.000000
  1
色：ホワイト　
  7
KANJI
 50
0.000000
 51
0.000000
  0
TEXT
  8
1
 62
7
  6
CONTINUOUS
 10
229.079792
 20
1113.215314
 40
12.500000
 41
0.500000
  1

  7
KANJI
 50
0.000000
 51
0.000000
  0
TEXT
  8
1
 62
7
  6
CONTINUOUS
 10
229.079792
 20
1100.715314
 40
12.500000
 41
0.500000
  1

  7
KANJI
 50
0.000000
 51
0.000000
  0
TEXT
  8
1
 62
7
  6
CONTINUOUS
 10
54.560220
 20
1061.500000
 40
30.000000
 41
0.863636
  1
排水金具115φ：別売
  7
KANJI
 50
0.000000
 51
0.000000
  0
TEXT
  8
1
 62
7
  6
CONTINUOUS
 10
339.560220
 20
1076.500000
 40
15.000000
 41
0.500000
  1

  7
KANJI
 50
0.000000
 51
0.000000
  0
TEXT
  8
1
 62
7
  6
CONTINUOUS
 10
339.560220
 20
1061.500000
 40
15.000000
 41
0.500000
  1

  7
KANJI
 50
0.000000
 51
0.000000
  0
LINE
  8
1
 62
7
  6
CONTINUOUS
 10
586.725693
 20
648.446181
 11
1041.725693
 21
648.446181
  0
ARC
  8
1
 62
7
  6
CONTINUOUS
 10
586.725693
 20
673.446181
 40
25.000000
 50
180.000000
 51
-90.000000
  0
LINE
  8
1
 62
7
  6
CONTINUOUS
 10
561.725693
 20
673.446181
 11
561.725693
 21
1028.446181
  0
ARC
  8
1
 62
7
  6
CONTINUOUS
 10
586.725693
 20
1028.446181
 40
25.000000
 50
90.000000
 51
180.000000
  0
LINE
  8
1
 62
7
  6
CONTINUOUS
 10
1041.725693
 20
1053.446181
 11
586.725693
 21
1053.446181
  0
ARC
  8
1
 62
7
  6
CONTINUOUS
 10
1041.725693
 20
673.446181
 40
25.000000
 50
-90.000000
 51
0.000000
  0
LINE
  8
1
 62
7
  6
CONTINUOUS
 10
1066.725693
 20
1028.446181
 11
1066.725693
 21
673.446181
  0
ARC
  8
1
 62
7
  6
CONTINUOUS
 10
1041.725693
 20
1028.446181
 40
25.000000
 50
0.000000
 51
90.000000
  0
LINE
  8
1
 62
7
  6
CONTINUOUS
 10
592.725693
 20
673.446181
 11
1035.725693
 21
673.446181
  0
ARC
  8
1
 62
7
  6
CONTINUOUS
 10
592.725693
 20
679.446181
 40
6.000000
 50
180.000000
 51
-90.000000
  0
LINE
  8
1
 62
7
  6
CONTINUOUS
 10
586.725693
 20
679.446181
 11
586.725693
 21
1022.446181
  0
ARC
  8
1
 62
7
  6
CONTINUOUS
 10
592.725693
 20
1022.446181
 40
6.000000
 50
90.000000
 51
180.000000
  0
LINE
  8
1
 62
7
  6
CONTINUOUS
 10
1035.725693
 20
1028.446181
 11
592.725693
 21
1028.446181
  0
ARC
  8
1
 62
7
  6
CONTINUOUS
 10
1035.725693
 20
679.446181
 40
6.000000
 50
-90.000000
 51
0.000000
  0
LINE
  8
1
 62
7
  6
CONTINUOUS
 10
1041.725693
 20
1022.446181
 11
1041.725693
 21
679.446181
  0
ARC
  8
1
 62
7
  6
CONTINUOUS
 10
1035.725693
 20
1022.446181
 40
6.000000
 50
0.000000
 51
90.000000
  0
DIMENSION
  8
1
 62
7
  6
CONTINUOUS
  2
*D1
 10
383.715278
 20
1053.446181
 11
383.715278
 21
850.946181
 70
     0
  1
405
 13
551.725693
 23
1053.446181
 14
551.725693
 24
648.446181
 50
-90.000000
  0
DIMENSION
  8
1
 62
7
  6
CONTINUOUS
  2
*D2
 10
419.409722
 20
1053.446181
 11
419.409722
 21
1040.946181
 70
     0
  1
25
 13
551.725693
 23
1053.446181
 14
551.725693
 24
1028.446181
 50
-90.000000
  0
DIMENSION
  8
1
 62
7
  6
CONTINUOUS
  2
*D3
 10
419.409722
 20
1028.446181
 11
419.409722
 21
850.946181
 70
     0
  1
355
 13
419.409722
 23
1028.446181
 14
551.725693
 24
673.446181
 50
-90.000000
  0
DIMENSION
  8
1
 62
7
  6
CONTINUOUS
  2
*D4
 10
419.409722
 20
673.446181
 11
419.409722
 21
660.946181
 70
     0
  1
25
 13
419.409722
 23
673.446181
 14
551.725693
 24
648.446181
 50
-90.000000
  0
DIMENSION
  8
1
 62
7
  6
CONTINUOUS
  2
*D5
 10
561.725693
 20
1200.225694
 11
814.225693
 21
1200.225694
 70
     0
  1
505
 13
561.725693
 23
1063.446181
 14
1066.725693
 24
1063.446181
 50
0.000000
  0
DIMENSION
  8
1
 62
7
  6
CONTINUOUS
  2
*D6
 10
561.725693
 20
1160.069444
 11
574.225693
 21
1160.069444
 70
     0
  1
25
 13
561.725693
 23
1063.446181
 14
586.725693
 24
1063.446181
 50
0.000000
  0
DIMENSION
  8
1
 62
7
  6
CONTINUOUS
  2
*D7
 10
586.725693
 20
1160.069444
 11
814.225693
 21
1160.069444
 70
     0
  1
455
 13
586.725693
 23
1160.069444
 14
1041.725693
 24
1063.446181
 50
0.000000
  0
DIMENSION
  8
1
 62
7
  6
CONTINUOUS
  2
*D8
 10
1041.725693
 20
1160.069444
 11
1054.225693
 21
1160.069444
 70
     0
  1
25
 13
1041.725693
 23
1160.069444
 14
1066.725693
 24
1063.446181
 50
0.000000
  0
DIMENSION
  8
1
 62
7
  6
CONTINUOUS
  2
*D9
 10
452.873264
 20
1028.446181
 11
452.873264
 21
983.446181
 70
     0
  1
90
 13
551.725693
 23
1028.446181
 14
551.725693
 24
938.446181
 50
-90.000000
  0
CIRCLE
  8
1
 62
7
  6
CONTINUOUS
 10
814.225693
 20
938.446181
 40
47.500000
  0
CIRCLE
  8
1
 62
7
  6
CONTINUOUS
 10
814.225693
 20
938.446181
 40
57.500000
  0
LINE
  8
1
 62
7
  6
CONTINUOUS
 10
1066.725693
 20
1053.446181
 11
1102.065972
 21
1110.989583
  0
LINE
  8
1
 62
7
  6
CONTINUOUS
 10
1102.065972
 20
1110.989583
 11
1152.048611
 21
1110.989583
  0
TEXT
  8
1
 62
7
  6
CONTINUOUS
 10
1114.548611
 20
1110.989583
 40
20.000000
 41
0.375000
  1
25R*4
  7
KANJI
 50
0.000000
 51
30.000000
  0
LINE
  8
1
 62
7
  6
CONTINUOUS
 10
1066.725693
 20
1053.446181
 11
1072.424795
 21
1072.616998
  0
LINE
  8
1
 62
7
  6
CONTINUOUS
 10
1066.725693
 20
1053.446181
 11
1081.246669
 21
1067.199044
  0
LINE
  8
1
 62
7
  6
CONTINUOUS
 10
1072.424795
 20
1072.616998
 11
1081.246669
 21
1067.199044
  0
LINE
  8
1
 62
7
  6
CONTINUOUS
 10
1069.253203
 20
1057.561641
 11
1072.102754
 21
1067.147049
  0
LINE
  8
1
 62
7
  6
CONTINUOUS
 10
1069.253203
 20
1057.561641
 11
1076.513691
 21
1064.438073
  0
LINE
  8
1
 62
7
  6
CONTINUOUS
 10
1072.102754
 20
1067.147049
 11
1076.513691
 21
1064.438073
  0
LINE
  8
1
 62
7
  6
CONTINUOUS
 10
595.676691
 20
682.397177
 11
621.478184
 21
708.198671
  0
LINE
  8
1
 62
7
  6
CONTINUOUS
 10
621.478184
 20
708.198671
 11
653.595920
 21
708.198671
  0
TEXT
  8
1
 62
7
  6
CONTINUOUS
 10
623.595920
 20
708.198671
 40
20.000000
 41
0.375000
  1
6R*4
  7
KANJI
 50
0.000000
 51
30.000000
  0
LINE
  8
1
 62
7
  6
CONTINUOUS
 10
595.676691
 20
682.397177
 11
605.676690
 21
699.717685
  0
LINE
  8
1
 62
7
  6
CONTINUOUS
 10
595.676691
 20
682.397177
 11
612.997199
 21
692.397177
  0
LINE
  8
1
 62
7
  6
CONTINUOUS
 10
605.676690
 20
699.717685
 11
612.997199
 21
692.397177
  0
LINE
  8
1
 62
7
  6
CONTINUOUS
 10
599.091754
 20
685.812240
 11
604.091754
 21
694.472495
  0
LINE
  8
1
 62
7
  6
CONTINUOUS
 10
599.091754
 20
685.812240
 11
607.752008
 21
690.812241
  0
LINE
  8
1
 62
7
  6
CONTINUOUS
 10
604.091754
 20
694.472495
 11
607.752008
 21
690.812241
  0
LINE
  8
1
 62
7
  6
CONTINUOUS
 10
564.725693
 20
460.951389
 11
561.725693
 21
472.951389
  0
LINE
  8
1
 62
7
  6
CONTINUOUS
 10
561.725693
 20
472.951389
 11
1066.725693
 21
472.951389
  0
LINE
  8
1
 62
7
  6
CONTINUOUS
 10
1066.725693
 20
472.951389
 11
1063.725693
 21
460.951389
  0
LINE
  8
1
 62
7
  6
CONTINUOUS
 10
1063.725693
 20
460.951389
 11
564.725693
 21
460.951389
  0
LINE
  8
1
 62
7
  6
CONTINUOUS
 10
756.725693
 20
302.951389
 11
871.725693
 21
302.951389
  0
LINE
  8
1
 62
7
  6
CONTINUOUS
 10
578.676773
 20
460.951389
 11
593.036884
 21
331.300094
  0
ARC
  8
1
 62
7
  6
CONTINUOUS
 10
607.945715
 20
332.951389
 40
15.000000
 50
-173.679710
 51
-96.656785
  0
ARC
  8
1
 62
7
  6
CONTINUOUS
 10
607.833623
 20
323.628702
 40
5.808626
 50
-106.263460
 51
-88.143382
  0
LINE
  8
1
 62
7
  6
CONTINUOUS
 10
1049.774614
 20
460.951389
 11
1035.144471
 21
328.862092
  0
ARC
  8
1
 62
7
  6
CONTINUOUS
 10
1020.235640
 20
330.513386
 40
15.000000
 50
-90.614907
 51
-6.320290
  0
DIMENSION
  8
1
 62
7
  6
CONTINUOUS
  2
*D10
 10
477.832340
 20
472.951389
 11
477.832340
 21
387.951389
 70
     0
  1
170
 13
551.725693
 23
472.951389
 14
551.725693
 24
302.951389
 50
-90.000000
  0
DIMENSION
  8
1
 62
7
  6
CONTINUOUS
  2
*D11
 10
490.455115
 20
472.951389
 11
490.455115
 21
466.951389
 70
     0
  1
   12
 13
551.725693
 23
472.951389
 14
551.725693
 24
460.951389
 50
-90.000000
  0
LINE
  8
1
 62
7
  6
CONTINUOUS
 10
871.725693
 20
302.951389
 11
879.225693
 21
302.951389
  0
DIMENSION
  8
1
 62
7
  6
CONTINUOUS
  2
*D12
 10
756.725693
 20
236.666613
 11
817.975693
 21
236.666613
 70
     0
  1
130
 13
756.725693
 23
292.951389
 14
879.225693
 24
292.951389
 50
0.000000
  0
LINE
  8
1
 62
7
  6
CONTINUOUS
 10
814.225693
 20
274.401042
 11
814.225693
 21
339.097222
  0
LINE
  8
1
 62
7
  6
CONTINUOUS
 10
814.225693
 20
995.946181
 11
814.225693
 21
880.946181
  0
LINE
  8
1
 62
7
  6
CONTINUOUS
 10
749.225693
 20
938.446181
 11
879.225693
 21
938.446181
  0
LINE
  8
1
 62
7
  6
CONTINUOUS
 10
814.225693
 20
1003.086589
 11
814.225693
 21
875.287221
  0
DIMENSION
  8
1
 62
7
  6
CONTINUOUS
  2
*D13
 10
756.725693
 20
818.741319
 11
814.225693
 21
818.741319
 70
     0
  1
115φ
 13
756.725693
 23
928.446181
 14
871.725693
 24
928.446181
 50
0.000000
  0
DIMENSION
  8
1
 62
7
  6
CONTINUOUS
  2
*D14
 10
1318.463542
 20
1160.069444
 11
1403.463542
 21
1160.069444
 70
     0
  1
170
 13
1318.463542
 23
1063.446181
 14
1488.463542
 24
1063.446181
 50
0.000000
  0
LINE
  8
1
 62
7
  6
CONTINUOUS
 10
1318.463542
 20
1053.446181
 11
1318.463542
 21
648.446181
  0
LINE
  8
1
 62
7
  6
CONTINUOUS
 10
1318.463542
 20
1053.446181
 11
1330.463542
 21
1050.446181
  0
LINE
  8
1
 62
7
  6
CONTINUOUS
 10
1318.463542
 20
648.446181
 11
1330.463542
 21
651.446181
  0
DIMENSION
  8
1
 62
7
  6
CONTINUOUS
  2
*D15
 10
1461.828312
 20
880.946181
 11
1461.828312
 21
938.446181
 70
     0
  1
115
 13
1468.463542
 23
880.946181
 14
1468.463542
 24
995.946181
 50
90.000000
  0
LINE
  8
1
 62
7
  6
CONTINUOUS
 10
1483.463542
 20
995.946181
 11
1483.463542
 21
985.946181
  0
LINE
  8
1
 62
7
  6
CONTINUOUS
 10
1483.463542
 20
985.946181
 11
1488.463542
 21
985.946181
  0
LINE
  8
1
 62
7
  6
CONTINUOUS
 10
1483.463542
 20
890.946181
 11
1488.463542
 21
890.946181
  0
LINE
  8
1
 62
7
  6
CONTINUOUS
 10
1483.463542
 20
890.946181
 11
1483.463542
 21
880.946181
  0
LINE
  8
1
 62
7
  6
CONTINUOUS
 10
1488.463542
 20
873.446181
 11
1488.463542
 21
890.946181
  0
LINE
  8
1
 62
7
  6
CONTINUOUS
 10
1488.463542
 20
873.446181
 11
1483.463542
 21
873.446181
  0
LINE
  8
1
 62
7
  6
CONTINUOUS
 10
1488.463542
 20
985.946181
 11
1488.463542
 21
1003.446181
  0
LINE
  8
1
 62
7
  6
CONTINUOUS
 10
1488.463542
 20
1003.446181
 11
1483.463542
 21
1003.446181
  0
LINE
  8
1
 62
7
  6
CONTINUOUS
 10
1330.463542
 20
1050.446181
 11
1330.463542
 21
1036.487164
  0
LINE
  8
1
 62
7
  6
CONTINUOUS
 10
1330.463542
 20
1036.487164
 11
1478.463542
 21
1021.487164
  0
LINE
  8
1
 62
7
  6
CONTINUOUS
 10
1330.463542
 20
651.446181
 11
1330.463542
 21
665.405197
  0
LINE
  8
1
 62
7
  6
CONTINUOUS
 10
1468.455186
 20
679.390837
 11
1330.463542
 21
665.405197
  0
ARC
  8
1
 62
7
  6
CONTINUOUS
 10
1467.850178
 20
685.360256
 40
6.000000
 50
-84.212757
 51
-5.759386
  0
LINE
  8
1
 62
7
  6
CONTINUOUS
 10
1318.463542
 20
672.229964
 11
1462.625070
 21
686.840930
  0
ARC
  8
1
 62
7
  6
CONTINUOUS
 10
1462.020061
 20
692.810349
 40
6.000000
 50
-84.212757
 51
-1.457323
  0
LINE
  8
1
 62
7
  6
CONTINUOUS
 10
1473.819890
 20
684.758150
 11
1483.463542
 21
873.446181
  0
LINE
  8
1
 62
7
  6
CONTINUOUS
 10
1466.137589
 20
688.446181
 11
1468.018120
 21
692.657755
  0
LINE
  8
1
 62
7
  6
CONTINUOUS
 10
1468.018120
 20
692.657755
 11
1478.463542
 21
873.446181
  0
LINE
  8
1
 62
7
  6
CONTINUOUS
 10
1478.068550
 20
1021.527197
 11
1478.463542
 21
1021.487164
  0
LINE
  8
1
 62
7
  6
CONTINUOUS
 10
1483.463542
 20
1003.446181
 11
1483.463542
 21
1015.557778
  0
ARC
  8
1
 62
7
  6
CONTINUOUS
 10
1477.463542
 20
1015.557778
 40
6.000000
 50
0.000000
 51
84.212757
  0
LINE
  8
1
 62
7
  6
CONTINUOUS
 10
1318.463542
 20
1029.662397
 11
1474.036347
 21
1013.894883
  0
ARC
  8
1
 62
7
  6
CONTINUOUS
 10
1473.733843
 20
1010.910173
 40
3.000000
 50
6.519802
 51
84.212757
  0
LINE
  8
1
 62
7
  6
CONTINUOUS
 10
1432.731380
 20
938.446181
 11
1519.544146
 21
938.446181
  0
DIMENSION
  8
1
 62
7
  6
CONTINUOUS
  2
*D16
 10
1545.488191
 20
1003.446181
 11
1545.488191
 21
938.446181
 70
     0
  1
130
 13
1498.463542
 23
1003.446181
 14
1498.463542
 24
873.446181
 50
-90.000000
  0
DIMENSION
  8
1
 62
7
  6
CONTINUOUS
  2
*D17
 10
1318.463542
 20
1129.848908
 11
1324.463542
 21
1129.848908
 70
     0
  1
  12
 13
1318.463542
 23
1063.446181
 14
1330.463542
 24
1063.446181
 50
0.000000
  0
DIMENSION
  8
1
 62
7
  6
CONTINUOUS
  2
*D18
 10
1368.561059
 20
1024.591904
 11
1368.945697
 21
1028.573412
 70
     0
  1
   8
 13
1368.561059
 23
1024.591904
 14
1369.330335
 24
1032.554920
 50
84.482000
  0
LINE
  8
1
 62
7
  6
CONTINUOUS
 10
1478.463542
 20
873.446181
 11
1478.463542
 21
879.446181
  0
LINE
  8
1
 62
7
  6
CONTINUOUS
 10
1479.963542
 20
880.946181
 11
1483.463542
 21
880.946181
  0
ARC
  8
1
 62
7
  6
CONTINUOUS
 10
1479.963542
 20
879.446181
 40
1.500000
 50
90.000000
 51
180.000000
  0
LINE
  8
1
 62
7
  6
CONTINUOUS
 10
1478.311578
 20
997.275861
 11
1476.714441
 21
1011.250813
  0
LINE
  8
1
 62
7
  6
CONTINUOUS
 10
1479.801877
 20
995.946181
 11
1483.463542
 21
995.946181
  0
ARC
  8
1
 62
7
  6
CONTINUOUS
 10
1479.801877
 20
997.446181
 40
1.500000
 50
-173.480198
 51
-90.000000
  0
LINE
  8
1
 62
7
  6
CONTINUOUS
 10
1336.067357
 20
665.973151
 11
1336.795120
 21
673.446181
  0
LINE
  8
1
 62
7
  6
CONTINUOUS
 10
1351.433530
 20
667.530534
 11
1352.224409
 21
675.651674
  0
LINE
  8
1
 62
7
  6
CONTINUOUS
 10
1369.166348
 20
669.327779
 11
1369.957227
 21
677.448919
  0
LINE
  8
1
 62
7
  6
CONTINUOUS
 10
1393.911313
 20
671.835714
 11
1394.702192
 21
679.956855
  0
LINE
  8
1
 62
7
  6
CONTINUOUS
 10
1414.648761
 20
673.446181
 11
1415.487963
 21
682.063521
  0
LINE
  8
1
 62
7
  6
CONTINUOUS
 10
1440.423114
 20
676.549748
 11
1441.213993
 21
684.670889
  0
LINE
  8
1
 62
7
  6
CONTINUOUS
 10
1454.530596
 20
677.979561
 11
1455.184917
 21
686.086861
  0
LINE
  8
1
 62
7
  6
CONTINUOUS
 10
1472.653113
 20
772.879791
 11
1478.693154
 21
780.108608
  0
LINE
  8
1
 62
7
  6
CONTINUOUS
 10
1471.455036
 20
752.143589
 11
1478.463542
 21
757.557691
  0
LINE
  8
1
 62
7
  6
CONTINUOUS
 10
1470.544060
 20
736.376485
 11
1476.690042
 21
740.915637
  0
LINE
  8
1
 62
7
  6
CONTINUOUS
 10
1469.566674
 20
719.459978
 11
1476.463542
 21
724.643740
  0
LINE
  8
1
 62
7
  6
CONTINUOUS
 10
1468.356365
 20
698.512070
 11
1474.821895
 21
704.363416
  0
LINE
  8
1
 62
7
  6
CONTINUOUS
 10
1477.694323
 20
860.132617
 11
1483.463542
 21
863.738999
  0
LINE
  8
1
 62
7
  6
CONTINUOUS
 10
1476.847506
 20
845.475972
 11
1482.184593
 21
848.422235
  0
LINE
  8
1
 62
7
  6
CONTINUOUS
 10
1475.845656
 20
828.136053
 11
1481.333019
 21
831.760300
  0
LINE
  8
1
 62
7
  6
CONTINUOUS
 10
1474.410907
 20
803.303540
 11
1480.573745
 21
808.265341
  0
LINE
  8
1
 62
7
  6
CONTINUOUS
 10
1478.463542
 20
1005.990390
 11
1483.463542
 21
1012.939424
  0
LINE
  8
1
 62
7
  6
CONTINUOUS
 10
1473.282991
 20
1013.971236
 11
1474.058411
 21
1021.933630
  0
LINE
  8
1
 62
7
  6
CONTINUOUS
 10
1448.059836
 20
1016.527637
 11
1448.835255
 21
1024.490031
  0
LINE
  8
1
 62
7
  6
CONTINUOUS
 10
1427.680371
 20
1018.593123
 11
1428.455791
 21
1026.555517
  0
LINE
  8
1
 62
7
  6
CONTINUOUS
 10
1342.256141
 20
1027.250985
 11
1343.031560
 21
1035.213378
  0
LINE
  8
1
 62
7
  6
CONTINUOUS
 10
1330.463542
 20
1028.446181
 11
1332.986420
 21
1036.231467
  0
LINE
  8
1
 62
7
  6
CONTINUOUS
 10
1351.822446
 20
1026.281427
 11
1352.597865
 21
1034.243820
  0
LINE
  8
1
 62
7
  6
CONTINUOUS
 10
1379.589473
 20
1023.467201
 11
1381.339331
 21
1031.330834
  0
LINE
  8
1
 62
7
  6
CONTINUOUS
 10
1390.077170
 20
1022.404259
 11
1392.184747
 21
1030.231636
  0
LINE
  8
1
 62
7
  6
CONTINUOUS
 10
1403.419104
 20
1021.052036
 11
1405.558901
 21
1028.446181
  0
LINE
  8
1
 62
7
  6
CONTINUOUS
 10
1415.700601
 20
1019.807289
 11
1418.148642
 21
1027.600160
  0
LINE
  8
1
 62
7
  6
CONTINUOUS
 10
1460.597103
 20
1015.256968
 11
1461.989244
 21
1023.156856
  0
LINE
  8
1
 62
7
  6
CONTINUOUS
 10
1437.391434
 20
1017.608894
 11
1439.141291
 21
1025.472527
  0
LINE
  8
1
 62
7
  6
CONTINUOUS
 10
1318.463542
 20
1036.024649
 11
1330.463542
 21
1044.967665
  0
LINE
  8
1
 62
7
  6
CONTINUOUS
 10
1381.685180
 20
670.596579
 11
1383.186993
 21
678.789773
  0
LINE
  8
1
 62
7
  6
CONTINUOUS
 10
1404.005182
 20
672.858742
 11
1404.571865
 21
680.957159
  0
LINE
  8
1
 62
7
  6
CONTINUOUS
 10
1427.228105
 20
675.212416
 11
1427.930514
 21
683.324590
  0
LINE
  8
1
 62
7
  6
CONTINUOUS
 10
607.833623
 20
317.820076
 11
756.725693
 21
308.633128
  0
LINE
  8
1
 62
7
  6
CONTINUOUS
 10
879.225693
 20
308.633128
 11
1020.235640
 21
315.513386
  0
LINE
  8
1
 62
7
  6
CONTINUOUS
 10
756.725693
 20
308.633128
 11
879.225693
 21
308.633128
  0
LINE
  8
1
 62
7
  6
CONTINUOUS
 10
756.725693
 20
302.951389
 11
756.725693
 21
308.633128
  0
LINE
  8
1
 62
7
  6
CONTINUOUS
 10
879.225693
 20
302.951389
 11
879.225693
 21
308.633128
  0
TEXT
  8
1
 62
7
  6
CONTINUOUS
 10
54.560220
 20
1166.500000
 40
40.000000
 41
0.607143
  1
U-206ﾊﾞｰｼﾝｸ詳細図
  7
KANJI
 50
0.345083
 51
0.000000
  0
TEXT
  8
1
 62
7
  6
CONTINUOUS
 10
394.433597
 20
1188.547386
 40
20.000000
 41
0.500000
  1

  7
KANJI
 50
0.345083
 51
0.000000
  0
TEXT
  8
1
 62
7
  6
CONTINUOUS
 10
394.554053
 20
1168.547749
 40
20.000000
 41
0.500000
  1

  7
KANJI
 50
0.345083
 51
0.000000
  0
DIMENSION
  8
1
 62
7
  6
CONTINUOUS
  2
*D19
 10
561.725693
 20
556.695941
 11
814.225693
 21
556.695941
 70
     0
  1
505
 13
561.725693
 23
482.951389
 14
1066.725693
 24
482.951389
 50
0.000000
  0
ENDSEC
  0
EOF
