  0
SECTION
  2
HEADER
  9
$ACADVER
  1
AC1003
  9
$INSBASE
 10
0.000000
 20
0.000000
  9
$EXTMIN
 10
0.000000
 20
0.000000
  9
$EXTMAX
 10
1820.000000
 20
1285.000000
  9
$LIMMIN
 10
0.000000
 20
0.000000
  9
$LIMMAX
 10
1820.000000
 20
1285.000000
  9
$VIEWCTR
 10
910.000000
 20
642.500000
  9
$VIEWSIZE
 40
1285.000000
  9
$PEXTMIN
 10
0.000000
 20
0.000000
 30
0.000000
  9
$PEXTMAX
 10
364.000000
 20
257.000000
 30
0.000000
  9
$SNAPMODE
 70
     0
  9
$SNAPUNIT
 10
1.000000
 20
1.000000
  9
$SNAPBASE
 10
0.000000
 20
0.000000
  9
$SNAPANG
 50
0.000000
  9
$SNAPISOPAIR
 70
     0
  9
$SNAPSTYLE
 70
     0
  9
$GRIDMODE
 70
     0
  9
$GRIDUNIT
 10
0.000000
 20
0.000000
  9
$ORTHOMODE
 70
     0
  9
$REGENMODE
 70
     1
  9
$FILLMODE
 70
     1
  9
$QTEXTMODE
 70
     0
  9
$DRAGMODE
 70
     2
  9
$LTSCALE
 40
1.250000
  9
$OSMODE
 70
     0
  9
$ATTMODE
 70
     1
  9
$TEXTSIZE
 40
0.200000
  9
$TRACEWID
 40
0.050000
  9
$TEXTSTYLE
  7
STANDARD
  9
$CLAYER
  8
0
  9
$CELTYPE
  6
BYLAYER
  9
$CECOLOR
 62
   256
  9
$DIMSCALE
 40
1.000000
  9
$DIMASZ
 40
1.000000
  9
$DIMEXO
 40
0.000000
  9
$DIMDLI
 40
0.500000
  9
$DIMRND
 40
0.000000
  9
$DIMDLE
 40
0.000000
  9
$DIMEXE
 40
0.000000
  9
$DIMTP
 40
0.000000
  9
$DIMTM
 40
0.000000
  9
$DIMTXT
 40
0.180000
  9
$DIMCEN
 40
0.000000
  9
$DIMTSZ
 40
0.000000
  9
$DIMTOL
 70
     0
  9
$DIMLIM
 70
     0
  9
$DIMTIH
 70
     1
  9
$DIMTOH
 70
     1
  9
$DIMSE1
 70
     0
  9
$DIMSE2
 70
     0
  9
$DIMTAD
 70
     0
  9
$DIMZIN
 70
     0
  9
$DIMBLK
  1

  9
$DIMASO
 70
     0
  9
$DIMSHO
 70
     0
  9
$DIMPOST
  1

  9
$DIMAPOST
  1

  9
$DIMALT
 70
     0
  9
$DIMALTD
 70
     0
  9
$DIMALTF
 40
25.400000
  9
$DIMLFAC
 40
1.000000
  9
$DIMTOFL
 70
     0
  9
$DIMTVP
 40
0.000000
  9
$DIMTIX
 70
     0
  9
$DIMSOXD
 70
     0
  9
$DIMSAH
 70
     0
  9
$DIMBLKL
  1

  9
$DIMBLKR
  1

  9
$LUNITS
 70
     2
  9
$LUPREC
 70
     2
  9
$AXISMODE
 70
     0
  9
$AXISUNIT
 10
1.000000
 20
1.000000
  9
$SKETCHINC
 40
0.000000
  9
$FILLETRAD
 40
0.000000
  9
$AUNITS
 70
     1
  9
$AUPREC
 70
     2
  9
$MENU
  1
ACAD
  9
$ELEVATION
 40
0.000000
  9
$THICKNESS
 40
0.000000
  9
$VIEWDIR
 10
0.000000
 20
0.000000
 30
1.000000
  9
$LIMCHECK
 70
     1
  9
$BLIPMODE
 70
     1
  9
$CHAMFERA
 40
0.000000
  9
$CHAMFERB
 40
0.000000
  9
$FASTZOOM
 70
     1
  9
$SKPOLY
 70
     0
  9
$TDCREATE
 40
0.000000
  9
$TDUPDATE
 40
0.000000
  9
$TDINDWG
 40
0.000000
  9
$TDUSRTIMER
 40
0.000000
  9
$USRTIMER
 70
     1
  9
$ANGBASE
 50
0.000000
  9
$ANGDIR
 70
     0
  9
$PDMODE
 70
     0
  9
$PDSIZE
 40
0.000000
  9
$PLINEWID
 40
0.000000
  9
$COORDS
 70
     2
  9
$USERI1
 70
     0
  9
$USERI2
 70
     0
  9
$USERI3
 70
     0
  9
$USERI4
 70
     0
  9
$USERI5
 70
     0
  9
$USERR1
 40
0.000000
  9
$USERR2
 40
0.000000
  9
$USERR3
 40
0.000000
  9
$USERR4
 40
0.000000
  9
$USERR5
 40
0.000000
  0
ENDSEC
  0
SECTION
  2
TABLES
  0
TABLE
  2
LTYPE
 70
     5
  0
LTYPE
  2
CONTINUOUS
 70
    64
  3
Solid line
 72
    65
 73
     0
 40
0.0
  0
LTYPE
  2
HIDDEN
 70
    64
  3
------------------------
 72
    65
 73
     2
 40
12.6
 49
8.4
 49
-4.2
  0
LTYPE
  2
DOT
 70
    64
  3
････････････････････････
 72
    65
 73
     2
 40
8.0
 49
6.0
 49
-2.0
  0
LTYPE
  2
DASHDOT
 70
    64
  3
--･--･--･--･--･--･--･--
 72
    65
 73
     4
 40
50.5
 49
30.0
 49
-9.0
 49
2.5
 49
-9.0
  0
LTYPE
  2
DIVIDE
 70
    64
  3
--･･--･･--･･--･･--･･--
 72
    65
 73
     6
 40
58.0
 49
30.0
 49
-9.0
 49
2.5
 49
-5.0
 49
2.5
 49
-9.0
  0
ENDTAB
  0
TABLE
  2
LAYER
 70
1
  0
LAYER
  2
1
 70
64
 62
7
  6
CONTINUOUS
  0
ENDTAB
  0
TABLE
  2
STYLE
 70
     2
  0
STYLE
  2
STANDARD
 70
    64
 40
0.0
 41
1.0
 50
0.0
 71
     0
 42
0.2
  3
TXT
  4

  0
STYLE
  2
KANJI
 70
    64
 40
0.0
 41
1.0
 50
0.0
 71
     0
 42
0.2
  3
TXT
  4
BIGFONT
  0
ENDTAB
  0
TABLE
  2
VIEW
 70
     0
  0
ENDTAB
  0
ENDSEC
  0
SECTION
  2
BLOCKS
  0
BLOCK
  8
1
 62
7
  6
CONTINUOUS
  2
*D1
 70
    65
 10
0.0
 20
0.0
  0
LINE
  8
1
 62
7
  6
CONTINUOUS
 10
805.816927
 20
743.197107
 11
1065.816927
 21
743.197107
  0
LINE
  8
1
 62
7
  6
CONTINUOUS
 10
805.816927
 20
733.197107
 11
805.816927
 21
861.027778
  0
LINE
  8
1
 62
7
  6
CONTINUOUS
 10
1065.816927
 20
733.197107
 11
1065.816927
 21
861.027778
  0
CIRCLE
  8
1
 62
7
  6
CONTINUOUS
 10
805.816927
 20
743.197107
 40
1.500000
  0
CIRCLE
  8
1
 62
7
  6
CONTINUOUS
 10
805.816927
 20
743.197107
 40
0.750000
  0
CIRCLE
  8
1
 62
7
  6
CONTINUOUS
 10
1065.816927
 20
743.197107
 40
1.500000
  0
CIRCLE
  8
1
 62
7
  6
CONTINUOUS
 10
1065.816927
 20
743.197107
 40
0.750000
  0
TEXT
  8
1
 62
7
  6
CONTINUOUS
 10
920.816927
 20
743.197107
 40
20.000000
 41
0.500000
  1
260
  7
KANJI
 50
0.000000
 51
30.000000
  0
ENDBLK
  0
BLOCK
  8
1
 62
7
  6
CONTINUOUS
  2
*D2
 70
    65
 10
0.0
 20
0.0
  0
LINE
  8
1
 62
7
  6
CONTINUOUS
 10
748.316927
 20
871.027778
 11
863.316927
 21
871.027778
  0
CIRCLE
  8
1
 62
7
  6
CONTINUOUS
 10
748.316927
 20
871.027778
 40
1.500000
  0
CIRCLE
  8
1
 62
7
  6
CONTINUOUS
 10
748.316927
 20
871.027778
 40
0.750000
  0
CIRCLE
  8
1
 62
7
  6
CONTINUOUS
 10
863.316927
 20
871.027778
 40
1.500000
  0
CIRCLE
  8
1
 62
7
  6
CONTINUOUS
 10
863.316927
 20
871.027778
 40
0.750000
  0
TEXT
  8
1
 62
7
  6
CONTINUOUS
 10
780.816927
 20
871.027778
 40
20.000000
 41
0.625000
  1
φ115
  7
KANJI
 50
-0.000000
 51
30.000000
  0
ENDBLK
  0
BLOCK
  8
1
 62
7
  6
CONTINUOUS
  2
*D3
 70
    65
 10
0.0
 20
0.0
  0
LINE
  8
1
 62
7
  6
CONTINUOUS
 10
1008.316927
 20
871.027778
 11
1123.316927
 21
871.027778
  0
CIRCLE
  8
1
 62
7
  6
CONTINUOUS
 10
1008.316927
 20
871.027778
 40
1.500000
  0
CIRCLE
  8
1
 62
7
  6
CONTINUOUS
 10
1008.316927
 20
871.027778
 40
0.750000
  0
CIRCLE
  8
1
 62
7
  6
CONTINUOUS
 10
1123.316927
 20
871.027778
 40
1.500000
  0
CIRCLE
  8
1
 62
7
  6
CONTINUOUS
 10
1123.316927
 20
871.027778
 40
0.750000
  0
TEXT
  8
1
 62
7
  6
CONTINUOUS
 10
1040.816927
 20
871.027778
 40
20.000000
 41
0.625000
  1
φ115
  7
KANJI
 50
-0.000000
 51
30.000000
  0
ENDBLK
  0
BLOCK
  8
1
 62
7
  6
CONTINUOUS
  2
*D4
 70
    65
 10
0.0
 20
0.0
  0
LINE
  8
1
 62
7
  6
CONTINUOUS
 10
381.484375
 20
635.527778
 11
381.484375
 21
1106.527778
  0
LINE
  8
1
 62
7
  6
CONTINUOUS
 10
371.484375
 20
635.527778
 11
496.316928
 21
635.527778
  0
LINE
  8
1
 62
7
  6
CONTINUOUS
 10
371.484375
 20
1106.527778
 11
496.316928
 21
1106.527778
  0
CIRCLE
  8
1
 62
7
  6
CONTINUOUS
 10
381.484375
 20
635.527778
 40
1.500000
  0
CIRCLE
  8
1
 62
7
  6
CONTINUOUS
 10
381.484375
 20
635.527778
 40
0.750000
  0
CIRCLE
  8
1
 62
7
  6
CONTINUOUS
 10
381.484375
 20
1106.527778
 40
1.500000
  0
CIRCLE
  8
1
 62
7
  6
CONTINUOUS
 10
381.484375
 20
1106.527778
 40
0.750000
  0
TEXT
  8
1
 62
7
  6
CONTINUOUS
 10
381.484375
 20
856.027778
 40
20.000000
 41
0.500000
  1
471
  7
KANJI
 50
90.000000
 51
30.000000
  0
ENDBLK
  0
BLOCK
  8
1
 62
7
  6
CONTINUOUS
  2
*D5
 70
    65
 10
0.0
 20
0.0
  0
LINE
  8
1
 62
7
  6
CONTINUOUS
 10
411.163222
 20
635.527778
 11
411.163222
 21
660.527778
  0
LINE
  8
1
 62
7
  6
CONTINUOUS
 10
401.163222
 20
635.527778
 11
496.316928
 21
635.527778
  0
LINE
  8
1
 62
7
  6
CONTINUOUS
 10
401.163222
 20
660.527778
 11
496.316928
 21
660.527778
  0
CIRCLE
  8
1
 62
7
  6
CONTINUOUS
 10
411.163222
 20
635.527778
 40
1.500000
  0
CIRCLE
  8
1
 62
7
  6
CONTINUOUS
 10
411.163222
 20
635.527778
 40
0.750000
  0
CIRCLE
  8
1
 62
7
  6
CONTINUOUS
 10
411.163222
 20
660.527778
 40
1.500000
  0
CIRCLE
  8
1
 62
7
  6
CONTINUOUS
 10
411.163222
 20
660.527778
 40
0.750000
  0
TEXT
  8
1
 62
7
  6
CONTINUOUS
 10
411.163222
 20
638.027778
 40
20.000000
 41
0.500000
  1
25
  7
KANJI
 50
90.000000
 51
30.000000
  0
ENDBLK
  0
BLOCK
  8
1
 62
7
  6
CONTINUOUS
  2
*D6
 70
    65
 10
0.0
 20
0.0
  0
LINE
  8
1
 62
7
  6
CONTINUOUS
 10
411.163222
 20
660.527778
 11
411.163222
 21
1081.527778
  0
LINE
  8
1
 62
7
  6
CONTINUOUS
 10
401.163222
 20
1081.527778
 11
496.316928
 21
1081.527778
  0
CIRCLE
  8
1
 62
7
  6
CONTINUOUS
 10
411.163222
 20
1081.527778
 40
1.500000
  0
CIRCLE
  8
1
 62
7
  6
CONTINUOUS
 10
411.163222
 20
1081.527778
 40
0.750000
  0
TEXT
  8
1
 62
7
  6
CONTINUOUS
 10
411.163222
 20
856.027778
 40
20.000000
 41
0.500000
  1
421
  7
KANJI
 50
90.000000
 51
30.000000
  0
ENDBLK
  0
BLOCK
  8
1
 62
7
  6
CONTINUOUS
  2
*D7
 70
    65
 10
0.0
 20
0.0
  0
LINE
  8
1
 62
7
  6
CONTINUOUS
 10
411.163222
 20
1081.527778
 11
411.163222
 21
1106.527778
  0
LINE
  8
1
 62
7
  6
CONTINUOUS
 10
401.163222
 20
1106.527778
 11
496.316928
 21
1106.527778
  0
CIRCLE
  8
1
 62
7
  6
CONTINUOUS
 10
411.163222
 20
1106.527778
 40
1.500000
  0
CIRCLE
  8
1
 62
7
  6
CONTINUOUS
 10
411.163222
 20
1106.527778
 40
0.750000
  0
TEXT
  8
1
 62
7
  6
CONTINUOUS
 10
411.163222
 20
1084.027778
 40
20.000000
 41
0.500000
  1
25
  7
KANJI
 50
90.000000
 51
30.000000
  0
ENDBLK
  0
BLOCK
  8
1
 62
7
  6
CONTINUOUS
  2
*D8
 70
    65
 10
0.0
 20
0.0
  0
LINE
  8
1
 62
7
  6
CONTINUOUS
 10
805.816927
 20
234.175736
 11
1065.816927
 21
234.175736
  0
LINE
  8
1
 62
7
  6
CONTINUOUS
 10
805.816927
 20
224.175736
 11
805.816927
 21
237.658643
  0
LINE
  8
1
 62
7
  6
CONTINUOUS
 10
1065.816927
 20
224.175736
 11
1065.816927
 21
238.407693
  0
CIRCLE
  8
1
 62
7
  6
CONTINUOUS
 10
805.816927
 20
234.175736
 40
1.500000
  0
CIRCLE
  8
1
 62
7
  6
CONTINUOUS
 10
805.816927
 20
234.175736
 40
0.750000
  0
CIRCLE
  8
1
 62
7
  6
CONTINUOUS
 10
1065.816927
 20
234.175736
 40
1.500000
  0
CIRCLE
  8
1
 62
7
  6
CONTINUOUS
 10
1065.816927
 20
234.175736
 40
0.750000
  0
TEXT
  8
1
 62
7
  6
CONTINUOUS
 10
920.816927
 20
234.175736
 40
20.000000
 41
0.500000
  1
260
  7
KANJI
 50
0.000000
 51
30.000000
  0
ENDBLK
  0
BLOCK
  8
1
 62
7
  6
CONTINUOUS
  2
*D9
 70
    65
 10
0.0
 20
0.0
  0
LINE
  8
1
 62
7
  6
CONTINUOUS
 10
748.336492
 20
344.286143
 11
863.316927
 21
344.286143
  0
LINE
  8
1
 62
7
  6
CONTINUOUS
 10
748.336492
 20
354.286143
 11
748.336492
 21
316.312716
  0
LINE
  8
1
 62
7
  6
CONTINUOUS
 10
863.316927
 20
354.286143
 11
863.316927
 21
316.312716
  0
CIRCLE
  8
1
 62
7
  6
CONTINUOUS
 10
748.336492
 20
344.286143
 40
1.500000
  0
CIRCLE
  8
1
 62
7
  6
CONTINUOUS
 10
748.336492
 20
344.286143
 40
0.750000
  0
CIRCLE
  8
1
 62
7
  6
CONTINUOUS
 10
863.316927
 20
344.286143
 40
1.500000
  0
CIRCLE
  8
1
 62
7
  6
CONTINUOUS
 10
863.316927
 20
344.286143
 40
0.750000
  0
TEXT
  8
1
 62
7
  6
CONTINUOUS
 10
780.826709
 20
344.286143
 40
20.000000
 41
0.625000
  1
115φ
  7
KANJI
 50
0.000000
 51
30.000000
  0
ENDBLK
  0
BLOCK
  8
1
 62
7
  6
CONTINUOUS
  2
*D10
 70
    65
 10
0.0
 20
0.0
  0
LINE
  8
1
 62
7
  6
CONTINUOUS
 10
1008.336492
 20
343.537092
 11
1123.297361
 21
343.537092
  0
LINE
  8
1
 62
7
  6
CONTINUOUS
 10
1008.336492
 20
353.537092
 11
1008.336492
 21
306.312716
  0
LINE
  8
1
 62
7
  6
CONTINUOUS
 10
1123.297361
 20
353.537092
 11
1123.297361
 21
306.312716
  0
CIRCLE
  8
1
 62
7
  6
CONTINUOUS
 10
1008.336492
 20
343.537092
 40
1.500000
  0
CIRCLE
  8
1
 62
7
  6
CONTINUOUS
 10
1008.336492
 20
343.537092
 40
0.750000
  0
CIRCLE
  8
1
 62
7
  6
CONTINUOUS
 10
1123.297361
 20
343.537092
 40
1.500000
  0
CIRCLE
  8
1
 62
7
  6
CONTINUOUS
 10
1123.297361
 20
343.537092
 40
0.750000
  0
TEXT
  8
1
 62
7
  6
CONTINUOUS
 10
1040.816927
 20
343.537092
 40
20.000000
 41
0.625000
  1
115φ
  7
KANJI
 50
0.000000
 51
30.000000
  0
ENDBLK
  0
BLOCK
  8
1
 62
7
  6
CONTINUOUS
  2
*D11
 70
    65
 10
0.0
 20
0.0
  0
LINE
  8
1
 62
7
  6
CONTINUOUS
 10
480.205387
 20
527.312716
 11
480.205387
 21
306.312716
  0
LINE
  8
1
 62
7
  6
CONTINUOUS
 10
470.205387
 20
527.312716
 11
496.316928
 21
527.312716
  0
LINE
  8
1
 62
7
  6
CONTINUOUS
 10
470.205387
 20
306.312716
 11
496.316928
 21
306.312716
  0
CIRCLE
  8
1
 62
7
  6
CONTINUOUS
 10
480.205387
 20
527.312716
 40
1.500000
  0
CIRCLE
  8
1
 62
7
  6
CONTINUOUS
 10
480.205387
 20
527.312716
 40
0.750000
  0
CIRCLE
  8
1
 62
7
  6
CONTINUOUS
 10
480.205387
 20
306.312716
 40
1.500000
  0
CIRCLE
  8
1
 62
7
  6
CONTINUOUS
 10
480.205387
 20
306.312716
 40
0.750000
  0
TEXT
  8
1
 62
7
  6
CONTINUOUS
 10
480.205387
 20
401.812716
 40
20.000000
 41
0.500000
  1
221
  7
KANJI
 50
90.000000
 51
30.000000
  0
ENDBLK
  0
BLOCK
  8
1
 62
7
  6
CONTINUOUS
  2
*D12
 70
    65
 10
0.0
 20
0.0
  0
LINE
  8
1
 62
7
  6
CONTINUOUS
 10
457.682534
 20
527.312716
 11
457.682534
 21
281.312716
  0
LINE
  8
1
 62
7
  6
CONTINUOUS
 10
447.682534
 20
527.312716
 11
496.316928
 21
527.312716
  0
LINE
  8
1
 62
7
  6
CONTINUOUS
 10
447.682534
 20
281.312716
 11
496.316928
 21
281.312716
  0
CIRCLE
  8
1
 62
7
  6
CONTINUOUS
 10
457.682534
 20
527.312716
 40
1.500000
  0
CIRCLE
  8
1
 62
7
  6
CONTINUOUS
 10
457.682534
 20
527.312716
 40
0.750000
  0
CIRCLE
  8
1
 62
7
  6
CONTINUOUS
 10
457.682534
 20
281.312716
 40
1.500000
  0
CIRCLE
  8
1
 62
7
  6
CONTINUOUS
 10
457.682534
 20
281.312716
 40
0.750000
  0
TEXT
  8
1
 62
7
  6
CONTINUOUS
 10
457.682534
 20
389.312716
 40
20.000000
 41
0.500000
  1
241
  7
KANJI
 50
90.000000
 51
30.000000
  0
ENDBLK
  0
BLOCK
  8
1
 62
7
  6
CONTINUOUS
  2
*D13
 70
    65
 10
0.0
 20
0.0
  0
LINE
  8
1
 62
7
  6
CONTINUOUS
 10
1402.273658
 20
553.645417
 11
1402.273658
 21
510.312716
  0
LINE
  8
1
 62
7
  6
CONTINUOUS
 10
1412.273658
 20
527.312716
 11
1375.316928
 21
527.312716
  0
LINE
  8
1
 62
7
  6
CONTINUOUS
 10
1412.273658
 20
515.312716
 11
1375.316928
 21
515.312716
  0
CIRCLE
  8
1
 62
7
  6
CONTINUOUS
 10
1402.273658
 20
527.312716
 40
1.500000
  0
CIRCLE
  8
1
 62
7
  6
CONTINUOUS
 10
1402.273658
 20
527.312716
 40
0.750000
  0
CIRCLE
  8
1
 62
7
  6
CONTINUOUS
 10
1402.273658
 20
515.312716
 40
1.500000
  0
CIRCLE
  8
1
 62
7
  6
CONTINUOUS
 10
1402.273658
 20
515.312716
 40
0.750000
  0
TEXT
  8
1
 62
7
  6
CONTINUOUS
 10
1402.273658
 20
528.645417
 40
20.000000
 41
0.500000
  1
12
  7
KANJI
 50
90.000000
 51
30.000000
  0
ENDBLK
  0
BLOCK
  8
1
 62
7
  6
CONTINUOUS
  2
*D14
 70
    65
 10
0.0
 20
0.0
  0
LINE
  8
1
 62
7
  6
CONTINUOUS
 10
999.799771
 20
492.312716
 11
999.799771
 21
532.312716
  0
LINE
  8
1
 62
7
  6
CONTINUOUS
 10
1009.799771
 20
497.312716
 11
965.867642
 21
497.312716
  0
LINE
  8
1
 62
7
  6
CONTINUOUS
 10
1009.799771
 20
527.312716
 11
965.867642
 21
527.312716
  0
CIRCLE
  8
1
 62
7
  6
CONTINUOUS
 10
999.799771
 20
497.312716
 40
1.500000
  0
CIRCLE
  8
1
 62
7
  6
CONTINUOUS
 10
999.799771
 20
497.312716
 40
0.750000
  0
CIRCLE
  8
1
 62
7
  6
CONTINUOUS
 10
999.799771
 20
527.312716
 40
1.500000
  0
CIRCLE
  8
1
 62
7
  6
CONTINUOUS
 10
999.799771
 20
527.312716
 40
0.750000
  0
TEXT
  8
1
 62
7
  6
CONTINUOUS
 10
999.799771
 20
502.312716
 40
20.000000
 41
0.500000
  1
30
  7
KANJI
 50
90.000000
 51
30.000000
  0
ENDBLK
  0
BLOCK
  8
1
 62
7
  6
CONTINUOUS
  2
*D15
 70
    65
 10
0.0
 20
0.0
  0
LINE
  8
1
 62
7
  6
CONTINUOUS
 10
506.316928
 20
571.111111
 11
1365.316928
 21
571.111111
  0
LINE
  8
1
 62
7
  6
CONTINUOUS
 10
506.316928
 20
581.111111
 11
506.316928
 21
537.312716
  0
LINE
  8
1
 62
7
  6
CONTINUOUS
 10
1365.316928
 20
581.111111
 11
1365.316928
 21
537.312716
  0
CIRCLE
  8
1
 62
7
  6
CONTINUOUS
 10
506.316928
 20
571.111111
 40
1.500000
  0
CIRCLE
  8
1
 62
7
  6
CONTINUOUS
 10
506.316928
 20
571.111111
 40
0.750000
  0
CIRCLE
  8
1
 62
7
  6
CONTINUOUS
 10
1365.316928
 20
571.111111
 40
1.500000
  0
CIRCLE
  8
1
 62
7
  6
CONTINUOUS
 10
1365.316928
 20
571.111111
 40
0.750000
  0
TEXT
  8
1
 62
7
  6
CONTINUOUS
 10
920.816928
 20
571.111111
 40
20.000000
 41
0.500000
  1
859
  7
KANJI
 50
0.000000
 51
30.000000
  0
ENDBLK
  0
BLOCK
  8
1
 62
7
  6
CONTINUOUS
  2
*D16
 70
    65
 10
0.0
 20
0.0
  0
LINE
  8
1
 62
7
  6
CONTINUOUS
 10
1665.304975
 20
928.527778
 11
1665.304975
 21
823.527778
  0
LINE
  8
1
 62
7
  6
CONTINUOUS
 10
1655.304975
 20
928.527778
 11
1683.670935
 21
928.527778
  0
LINE
  8
1
 62
7
  6
CONTINUOUS
 10
1655.304975
 20
823.527778
 11
1683.670935
 21
823.527778
  0
CIRCLE
  8
1
 62
7
  6
CONTINUOUS
 10
1665.304975
 20
928.527778
 40
1.500000
  0
CIRCLE
  8
1
 62
7
  6
CONTINUOUS
 10
1665.304975
 20
928.527778
 40
0.750000
  0
CIRCLE
  8
1
 62
7
  6
CONTINUOUS
 10
1665.304975
 20
823.527778
 40
1.500000
  0
CIRCLE
  8
1
 62
7
  6
CONTINUOUS
 10
1665.304975
 20
823.527778
 40
0.750000
  0
TEXT
  8
1
 62
7
  6
CONTINUOUS
 10
1665.304975
 20
851.027778
 40
20.000000
 41
0.625000
  1
115φ
  7
KANJI
 50
90.000000
 51
30.000000
  0
ENDBLK
  0
BLOCK
  8
1
 62
7
  6
CONTINUOUS
  2
*D17
 70
    65
 10
0.0
 20
0.0
  0
LINE
  8
1
 62
7
  6
CONTINUOUS
 10
1433.061719
 20
1106.527778
 11
1433.061719
 21
635.527778
  0
LINE
  8
1
 62
7
  6
CONTINUOUS
 10
1423.061719
 20
1106.527778
 11
1462.670935
 21
1106.527778
  0
LINE
  8
1
 62
7
  6
CONTINUOUS
 10
1423.061719
 20
635.527778
 11
1462.670935
 21
635.527778
  0
CIRCLE
  8
1
 62
7
  6
CONTINUOUS
 10
1433.061719
 20
1106.527778
 40
1.500000
  0
CIRCLE
  8
1
 62
7
  6
CONTINUOUS
 10
1433.061719
 20
1106.527778
 40
0.750000
  0
CIRCLE
  8
1
 62
7
  6
CONTINUOUS
 10
1433.061719
 20
635.527778
 40
1.500000
  0
CIRCLE
  8
1
 62
7
  6
CONTINUOUS
 10
1433.061719
 20
635.527778
 40
0.750000
  0
TEXT
  8
1
 62
7
  6
CONTINUOUS
 10
1433.061719
 20
856.027778
 40
20.000000
 41
0.500000
  1
471
  7
KANJI
 50
90.000000
 51
30.000000
  0
ENDBLK
  0
BLOCK
  8
1
 62
7
  6
CONTINUOUS
  2
*D18
 70
    65
 10
0.0
 20
0.0
  0
LINE
  8
1
 62
7
  6
CONTINUOUS
 10
1467.670935
 20
938.527778
 11
1507.670935
 21
938.527778
  0
LINE
  8
1
 62
7
  6
CONTINUOUS
 10
1472.670935
 20
948.527778
 11
1472.670935
 21
881.027778
  0
LINE
  8
1
 62
7
  6
CONTINUOUS
 10
1502.670935
 20
948.527778
 11
1502.670935
 21
881.027778
  0
CIRCLE
  8
1
 62
7
  6
CONTINUOUS
 10
1472.670935
 20
938.527778
 40
1.500000
  0
CIRCLE
  8
1
 62
7
  6
CONTINUOUS
 10
1472.670935
 20
938.527778
 40
0.750000
  0
CIRCLE
  8
1
 62
7
  6
CONTINUOUS
 10
1502.670935
 20
938.527778
 40
1.500000
  0
CIRCLE
  8
1
 62
7
  6
CONTINUOUS
 10
1502.670935
 20
938.527778
 40
0.750000
  0
TEXT
  8
1
 62
7
  6
CONTINUOUS
 10
1477.670935
 20
938.527778
 40
20.000000
 41
0.500000
  1
30
  7
KANJI
 50
0.000000
 51
30.000000
  0
ENDBLK
  0
BLOCK
  8
1
 62
7
  6
CONTINUOUS
  2
*D19
 70
    65
 10
0.0
 20
0.0
  0
LINE
  8
1
 62
7
  6
CONTINUOUS
 10
1472.670935
 20
1165.614628
 11
1693.670935
 21
1165.614628
  0
LINE
  8
1
 62
7
  6
CONTINUOUS
 10
1472.670935
 20
1175.614628
 11
1472.670935
 21
1116.527778
  0
LINE
  8
1
 62
7
  6
CONTINUOUS
 10
1693.670935
 20
1175.614628
 11
1693.670935
 21
1116.527778
  0
CIRCLE
  8
1
 62
7
  6
CONTINUOUS
 10
1472.670935
 20
1165.614628
 40
1.500000
  0
CIRCLE
  8
1
 62
7
  6
CONTINUOUS
 10
1472.670935
 20
1165.614628
 40
0.750000
  0
CIRCLE
  8
1
 62
7
  6
CONTINUOUS
 10
1693.670935
 20
1165.614628
 40
1.500000
  0
CIRCLE
  8
1
 62
7
  6
CONTINUOUS
 10
1693.670935
 20
1165.614628
 40
0.750000
  0
TEXT
  8
1
 62
7
  6
CONTINUOUS
 10
1568.170935
 20
1165.614628
 40
20.000000
 41
0.500000
  1
221
  7
KANJI
 50
0.000000
 51
30.000000
  0
ENDBLK
  0
BLOCK
  8
1
 62
7
  6
CONTINUOUS
  2
*D20
 70
    65
 10
0.0
 20
0.0
  0
LINE
  8
1
 62
7
  6
CONTINUOUS
 10
1472.670935
 20
1191.273573
 11
1718.670935
 21
1191.273573
  0
LINE
  8
1
 62
7
  6
CONTINUOUS
 10
1472.670935
 20
1201.273573
 11
1472.670935
 21
1116.527778
  0
LINE
  8
1
 62
7
  6
CONTINUOUS
 10
1718.670935
 20
1201.273573
 11
1718.670935
 21
1116.527778
  0
CIRCLE
  8
1
 62
7
  6
CONTINUOUS
 10
1472.670935
 20
1191.273573
 40
1.500000
  0
CIRCLE
  8
1
 62
7
  6
CONTINUOUS
 10
1472.670935
 20
1191.273573
 40
0.750000
  0
CIRCLE
  8
1
 62
7
  6
CONTINUOUS
 10
1718.670935
 20
1191.273573
 40
1.500000
  0
CIRCLE
  8
1
 62
7
  6
CONTINUOUS
 10
1718.670935
 20
1191.273573
 40
0.750000
  0
TEXT
  8
1
 62
7
  6
CONTINUOUS
 10
1580.670935
 20
1191.273573
 40
20.000000
 41
0.500000
  1
241
  7
KANJI
 50
0.000000
 51
30.000000
  0
ENDBLK
  0
BLOCK
  8
1
 62
7
  6
CONTINUOUS
  2
*D21
 70
    65
 10
0.0
 20
0.0
  0
LINE
  8
1
 62
7
  6
CONTINUOUS
 10
531.316928
 20
1160.917615
 11
916.316928
 21
1160.917615
  0
LINE
  8
1
 62
7
  6
CONTINUOUS
 10
531.316928
 20
1170.917615
 11
531.316928
 21
1116.527778
  0
LINE
  8
1
 62
7
  6
CONTINUOUS
 10
916.316928
 20
1170.917615
 11
916.316928
 21
1116.527778
  0
CIRCLE
  8
1
 62
7
  6
CONTINUOUS
 10
531.316928
 20
1160.917615
 40
1.500000
  0
CIRCLE
  8
1
 62
7
  6
CONTINUOUS
 10
531.316928
 20
1160.917615
 40
0.750000
  0
CIRCLE
  8
1
 62
7
  6
CONTINUOUS
 10
916.316928
 20
1160.917615
 40
1.500000
  0
CIRCLE
  8
1
 62
7
  6
CONTINUOUS
 10
916.316928
 20
1160.917615
 40
0.750000
  0
TEXT
  8
1
 62
7
  6
CONTINUOUS
 10
708.816928
 20
1160.917615
 40
20.000000
 41
0.500000
  1
385
  7
KANJI
 50
0.000000
 51
30.000000
  0
ENDBLK
  0
BLOCK
  8
1
 62
7
  6
CONTINUOUS
  2
*D22
 70
    65
 10
0.0
 20
0.0
  0
LINE
  8
1
 62
7
  6
CONTINUOUS
 10
916.316928
 20
1160.917615
 11
955.316928
 21
1160.917615
  0
LINE
  8
1
 62
7
  6
CONTINUOUS
 10
955.316928
 20
1170.917615
 11
955.316928
 21
1116.527778
  0
CIRCLE
  8
1
 62
7
  6
CONTINUOUS
 10
955.316928
 20
1160.917615
 40
1.500000
  0
CIRCLE
  8
1
 62
7
  6
CONTINUOUS
 10
955.316928
 20
1160.917615
 40
0.750000
  0
TEXT
  8
1
 62
7
  6
CONTINUOUS
 10
925.816928
 20
1160.917615
 40
20.000000
 41
0.500000
  1
39
  7
KANJI
 50
0.000000
 51
30.000000
  0
ENDBLK
  0
BLOCK
  8
1
 62
7
  6
CONTINUOUS
  2
*D23
 70
    65
 10
0.0
 20
0.0
  0
LINE
  8
1
 62
7
  6
CONTINUOUS
 10
955.316928
 20
1160.917615
 11
1340.316928
 21
1160.917615
  0
LINE
  8
1
 62
7
  6
CONTINUOUS
 10
1340.316928
 20
1170.917615
 11
1340.316928
 21
1116.527778
  0
CIRCLE
  8
1
 62
7
  6
CONTINUOUS
 10
1340.316928
 20
1160.917615
 40
1.500000
  0
CIRCLE
  8
1
 62
7
  6
CONTINUOUS
 10
1340.316928
 20
1160.917615
 40
0.750000
  0
TEXT
  8
1
 62
7
  6
CONTINUOUS
 10
1132.816928
 20
1160.917615
 40
20.000000
 41
0.500000
  1
385
  7
KANJI
 50
0.000000
 51
30.000000
  0
ENDBLK
  0
BLOCK
  8
1
 62
7
  6
CONTINUOUS
  2
*D24
 70
    65
 10
0.0
 20
0.0
  0
LINE
  8
1
 62
7
  6
CONTINUOUS
 10
506.316928
 20
1181.637214
 11
531.316928
 21
1181.637214
  0
LINE
  8
1
 62
7
  6
CONTINUOUS
 10
506.316928
 20
1191.637214
 11
506.316928
 21
1116.527778
  0
LINE
  8
1
 62
7
  6
CONTINUOUS
 10
531.316928
 20
1191.637214
 11
531.316928
 21
1116.527778
  0
CIRCLE
  8
1
 62
7
  6
CONTINUOUS
 10
506.316928
 20
1181.637214
 40
1.500000
  0
CIRCLE
  8
1
 62
7
  6
CONTINUOUS
 10
506.316928
 20
1181.637214
 40
0.750000
  0
CIRCLE
  8
1
 62
7
  6
CONTINUOUS
 10
531.316928
 20
1181.637214
 40
1.500000
  0
CIRCLE
  8
1
 62
7
  6
CONTINUOUS
 10
531.316928
 20
1181.637214
 40
0.750000
  0
TEXT
  8
1
 62
7
  6
CONTINUOUS
 10
508.816928
 20
1181.637214
 40
20.000000
 41
0.500000
  1
25
  7
KANJI
 50
0.000000
 51
30.000000
  0
ENDBLK
  0
BLOCK
  8
1
 62
7
  6
CONTINUOUS
  2
*D25
 70
    65
 10
0.0
 20
0.0
  0
LINE
  8
1
 62
7
  6
CONTINUOUS
 10
531.316928
 20
1181.637214
 11
1340.316928
 21
1181.637214
  0
LINE
  8
1
 62
7
  6
CONTINUOUS
 10
1340.316928
 20
1191.637214
 11
1340.316928
 21
1116.527778
  0
CIRCLE
  8
1
 62
7
  6
CONTINUOUS
 10
1340.316928
 20
1181.637214
 40
1.500000
  0
CIRCLE
  8
1
 62
7
  6
CONTINUOUS
 10
1340.316928
 20
1181.637214
 40
0.750000
  0
TEXT
  8
1
 62
7
  6
CONTINUOUS
 10
920.816928
 20
1181.637214
 40
20.000000
 41
0.500000
  1
809
  7
KANJI
 50
0.000000
 51
30.000000
  0
ENDBLK
  0
BLOCK
  8
1
 62
7
  6
CONTINUOUS
  2
*D26
 70
    65
 10
0.0
 20
0.0
  0
LINE
  8
1
 62
7
  6
CONTINUOUS
 10
1340.316928
 20
1181.637214
 11
1365.316928
 21
1181.637214
  0
LINE
  8
1
 62
7
  6
CONTINUOUS
 10
1365.316928
 20
1191.637214
 11
1365.316928
 21
1116.527778
  0
CIRCLE
  8
1
 62
7
  6
CONTINUOUS
 10
1365.316928
 20
1181.637214
 40
1.500000
  0
CIRCLE
  8
1
 62
7
  6
CONTINUOUS
 10
1365.316928
 20
1181.637214
 40
0.750000
  0
TEXT
  8
1
 62
7
  6
CONTINUOUS
 10
1342.816928
 20
1181.637214
 40
20.000000
 41
0.500000
  1
25
  7
KANJI
 50
0.000000
 51
30.000000
  0
ENDBLK
  0
BLOCK
  8
1
 62
7
  6
CONTINUOUS
  2
*D27
 70
    65
 10
0.0
 20
0.0
  0
LINE
  8
1
 62
7
  6
CONTINUOUS
 10
506.316928
 20
1203.981879
 11
1365.316928
 21
1203.981879
  0
LINE
  8
1
 62
7
  6
CONTINUOUS
 10
506.316928
 20
1213.981879
 11
506.316928
 21
1116.527778
  0
LINE
  8
1
 62
7
  6
CONTINUOUS
 10
1365.316928
 20
1213.981879
 11
1365.316928
 21
1116.527778
  0
CIRCLE
  8
1
 62
7
  6
CONTINUOUS
 10
506.316928
 20
1203.981879
 40
1.500000
  0
CIRCLE
  8
1
 62
7
  6
CONTINUOUS
 10
506.316928
 20
1203.981879
 40
0.750000
  0
CIRCLE
  8
1
 62
7
  6
CONTINUOUS
 10
1365.316928
 20
1203.981879
 40
1.500000
  0
CIRCLE
  8
1
 62
7
  6
CONTINUOUS
 10
1365.316928
 20
1203.981879
 40
0.750000
  0
TEXT
  8
1
 62
7
  6
CONTINUOUS
 10
920.816928
 20
1203.981879
 40
20.000000
 41
0.500000
  1
859
  7
KANJI
 50
0.000000
 51
30.000000
  0
ENDBLK
  0
ENDSEC
  0
SECTION
  2
ENTITIES
  0
TEXT
  8
1
 62
7
  6
CONTINUOUS
 10
39.900000
 20
144.259375
 40
24.750000
 41
0.800000
  1
取引先：
  7
KANJI
 50
0.000000
 51
0.000000
  0
TEXT
  8
1
 62
7
  6
CONTINUOUS
 10
119.100000
 20
156.634375
 40
12.375000
 41
0.400000
  1

  7
KANJI
 50
0.000000
 51
0.000000
  0
TEXT
  8
1
 62
7
  6
CONTINUOUS
 10
119.100000
 20
144.259375
 40
12.375000
 41
0.400000
  1

  7
KANJI
 50
0.000000
 51
0.000000
  0
TEXT
  8
1
 62
7
  6
CONTINUOUS
 10
39.900000
 20
94.759375
 40
24.750000
 41
0.800000
  1
物件名：
  7
KANJI
 50
0.000000
 51
0.000000
  0
TEXT
  8
1
 62
7
  6
CONTINUOUS
 10
119.100000
 20
107.134375
 40
12.375000
 41
0.400000
  1

  7
KANJI
 50
0.000000
 51
0.000000
  0
TEXT
  8
1
 62
7
  6
CONTINUOUS
 10
119.100000
 20
94.759375
 40
12.375000
 41
0.400000
  1

  7
KANJI
 50
0.000000
 51
0.000000
  0
TEXT
  8
1
 62
7
  6
CONTINUOUS
 10
39.900000
 20
45.259375
 40
24.750000
 41
0.700000
  1
納 期：
  7
KANJI
 50
0.000000
 51
0.000000
  0
TEXT
  8
1
 62
7
  6
CONTINUOUS
 10
109.200000
 20
57.634375
 40
12.375000
 41
0.400000
  1

  7
KANJI
 50
0.000000
 51
0.000000
  0
TEXT
  8
1
 62
7
  6
CONTINUOUS
 10
109.200000
 20
45.259375
 40
12.375000
 41
0.400000
  1

  7
KANJI
 50
0.000000
 51
0.000000
  0
LINE
  8
1
 62
7
  6
CONTINUOUS
 10
30.000000
 20
188.500000
 11
30.000000
 21
40.000000
  0
LINE
  8
1
 62
7
  6
CONTINUOUS
 10
30.000000
 20
188.500000
 11
327.000000
 21
188.500000
  0
LINE
  8
1
 62
7
  6
CONTINUOUS
 10
327.000000
 20
188.500000
 11
327.000000
 21
139.000000
  0
LINE
  8
1
 62
7
  6
CONTINUOUS
 10
327.000000
 20
139.000000
 11
30.000000
 21
139.000000
  0
LINE
  8
1
 62
7
  6
CONTINUOUS
 10
30.000000
 20
139.000000
 11
30.000000
 21
89.500000
  0
LINE
  8
1
 62
7
  6
CONTINUOUS
 10
30.000000
 20
89.500000
 11
327.000000
 21
89.500000
  0
LINE
  8
1
 62
7
  6
CONTINUOUS
 10
327.000000
 20
89.500000
 11
327.000000
 21
139.000000
  0
LINE
  8
1
 62
7
  6
CONTINUOUS
 10
327.000000
 20
139.000000
 11
327.000000
 21
40.000000
  0
LINE
  8
1
 62
7
  6
CONTINUOUS
 10
327.000000
 20
40.000000
 11
30.000000
 21
40.000000
  0
TEXT
  8
1
 62
7
  6
CONTINUOUS
 10
341.850000
 20
144.259375
 40
24.750000
 41
0.800000
  1
　色柄：
  7
KANJI
 50
0.000000
 51
0.000000
  0
TEXT
  8
1
 62
7
  6
CONTINUOUS
 10
421.050000
 20
156.634375
 40
12.375000
 41
0.400000
  1

  7
KANJI
 50
0.000000
 51
0.000000
  0
TEXT
  8
1
 62
7
  6
CONTINUOUS
 10
421.050000
 20
144.259375
 40
12.375000
 41
0.400000
  1

  7
KANJI
 50
0.000000
 51
0.000000
  0
TEXT
  8
1
 62
7
  6
CONTINUOUS
 10
341.850000
 20
94.759375
 40
24.750000
 41
0.800000
  1
　厚み：
  7
KANJI
 50
0.000000
 51
0.000000
  0
TEXT
  8
1
 62
7
  6
CONTINUOUS
 10
421.050000
 20
107.134375
 40
12.375000
 41
0.400000
  1

  7
KANJI
 50
0.000000
 51
0.000000
  0
TEXT
  8
1
 62
7
  6
CONTINUOUS
 10
421.050000
 20
94.759375
 40
12.375000
 41
0.400000
  1

  7
KANJI
 50
0.000000
 51
0.000000
  0
TEXT
  8
1
 62
7
  6
CONTINUOUS
 10
341.850000
 20
45.259375
 40
24.750000
 41
0.800000
  1
付属品：
  7
KANJI
 50
0.000000
 51
0.000000
  0
TEXT
  8
1
 62
7
  6
CONTINUOUS
 10
421.050000
 20
57.634375
 40
12.375000
 41
0.400000
  1

  7
KANJI
 50
0.000000
 51
0.000000
  0
TEXT
  8
1
 62
7
  6
CONTINUOUS
 10
421.050000
 20
45.259375
 40
12.375000
 41
0.400000
  1

  7
KANJI
 50
0.000000
 51
0.000000
  0
LINE
  8
1
 62
7
  6
CONTINUOUS
 10
429.073950
 20
40.000000
 11
429.073950
 21
188.500000
  0
TEXT
  8
1
 62
7
  6
CONTINUOUS
 10
438.973950
 20
164.987500
 40
19.800000
 41
1.000000
  1
単色シリーズ
  7
KANJI
 50
0.000000
 51
0.000000
  0
TEXT
  8
1
 62
7
  6
CONTINUOUS
 10
557.773950
 20
174.887500
 40
9.900000
 41
0.500000
  1

  7
KANJI
 50
0.000000
 51
0.000000
  0
TEXT
  8
1
 62
7
  6
CONTINUOUS
 10
557.773950
 20
164.987500
 40
9.900000
 41
0.500000
  1

  7
KANJI
 50
0.000000
 51
0.000000
  0
LINE
  8
1
 62
7
  6
CONTINUOUS
 10
1615.489950
 20
40.000000
 11
1615.489950
 21
188.500000
  0
TEXT
  8
1
 62
7
  6
CONTINUOUS
 10
1235.923950
 20
94.759375
 40
24.750000
 41
0.800000
  1
埼玉県比企郡川島町表２１－５
  7
KANJI
 50
0.000000
 51
0.000000
  0
TEXT
  8
1
 62
7
  6
CONTINUOUS
 10
1513.123950
 20
107.134375
 40
12.375000
 41
0.400000
  1

  7
KANJI
 50
0.000000
 51
0.000000
  0
TEXT
  8
1
 62
7
  6
CONTINUOUS
 10
1513.123950
 20
94.759375
 40
12.375000
 41
0.400000
  1

  7
KANJI
 50
0.000000
 51
0.000000
  0
TEXT
  8
1
 62
7
  6
CONTINUOUS
 10
1235.923950
 20
70.009375
 40
24.750000
 41
0.647059
  1
  TEL ０４９２－９７－７２７１
  7
KANJI
 50
0.000000
 51
0.000000
  0
TEXT
  8
1
 62
7
  6
CONTINUOUS
 10
1495.798950
 20
82.384375
 40
12.375000
 41
0.388235
  1

  7
KANJI
 50
0.000000
 51
0.000000
  0
TEXT
  8
1
 62
7
  6
CONTINUOUS
 10
1495.798950
 20
70.009375
 40
12.375000
 41
0.388235
  1

  7
KANJI
 50
0.000000
 51
0.000000
  0
TEXT
  8
1
 62
7
  6
CONTINUOUS
 10
1235.923950
 20
45.259375
 40
24.750000
 41
0.647059
  1
  FAX ０４９２－９７－７２７３
  7
KANJI
 50
0.000000
 51
0.000000
  0
TEXT
  8
1
 62
7
  6
CONTINUOUS
 10
1495.798950
 20
57.634375
 40
12.375000
 41
0.388235
  1

  7
KANJI
 50
0.000000
 51
0.000000
  0
TEXT
  8
1
 62
7
  6
CONTINUOUS
 10
1495.798950
 20
45.259375
 40
12.375000
 41
0.388235
  1

  7
KANJI
 50
0.000000
 51
0.000000
  0
TEXT
  8
1
 62
7
  6
CONTINUOUS
 10
1235.923950
 20
117.653125
 40
34.650000
 41
1.285714
  1
㈱三井ＰＣＯ
  7
KANJI
 50
0.000000
 51
0.000000
  0
TEXT
  8
1
 62
7
  6
CONTINUOUS
 10
1468.573950
 20
134.978125
 40
17.325000
 41
0.642857
  1

  7
KANJI
 50
0.000000
 51
0.000000
  0
TEXT
  8
1
 62
7
  6
CONTINUOUS
 10
1468.573950
 20
117.653125
 40
17.325000
 41
0.642857
  1

  7
KANJI
 50
0.000000
 51
0.000000
  0
LINE
  8
1
 62
7
  6
CONTINUOUS
 10
429.073950
 20
188.500000
 11
578.420400
 21
188.500000
  0
LINE
  8
1
 62
7
  6
CONTINUOUS
 10
578.420400
 20
188.500000
 11
722.960400
 21
188.500000
  0
LINE
  8
1
 62
7
  6
CONTINUOUS
 10
722.960400
 20
188.500000
 11
872.851350
 21
188.500000
  0
LINE
  8
1
 62
7
  6
CONTINUOUS
 10
872.851350
 20
40.000000
 11
429.073950
 21
40.000000
  0
LINE
  8
1
 62
7
  6
CONTINUOUS
 10
429.073950
 20
139.000000
 11
872.851350
 21
139.000000
  0
LINE
  8
1
 62
7
  6
CONTINUOUS
 10
872.851350
 20
89.500000
 11
429.073950
 21
89.500000
  0
LINE
  8
1
 62
7
  6
CONTINUOUS
 10
578.420400
 20
188.500000
 11
578.420400
 21
89.500000
  0
LINE
  8
1
 62
7
  6
CONTINUOUS
 10
906.348000
 20
139.000000
 11
872.851350
 21
139.000000
  0
LINE
  8
1
 62
7
  6
CONTINUOUS
 10
872.851350
 20
139.000000
 11
906.348000
 21
139.000000
  0
LINE
  8
1
 62
7
  6
CONTINUOUS
 10
906.348000
 20
89.500000
 11
872.851350
 21
89.500000
  0
LINE
  8
1
 62
7
  6
CONTINUOUS
 10
872.851350
 20
89.500000
 11
906.348000
 21
89.500000
  0
LINE
  8
1
 62
7
  6
CONTINUOUS
 10
578.420400
 20
89.500000
 11
578.420400
 21
40.000000
  0
LINE
  8
1
 62
7
  6
CONTINUOUS
 10
872.851350
 20
188.500000
 11
906.348000
 21
188.500000
  0
LINE
  8
1
 62
7
  6
CONTINUOUS
 10
906.348000
 20
40.000000
 11
872.851350
 21
40.000000
  0
LINE
  8
1
 62
7
  6
CONTINUOUS
 10
1129.098000
 20
188.500000
 11
1129.098000
 21
40.000000
  0
LINE
  8
1
 62
7
  6
CONTINUOUS
 10
1129.098000
 20
40.000000
 11
1615.489950
 21
40.000000
  0
LINE
  8
1
 62
7
  6
CONTINUOUS
 10
1615.489950
 20
188.500000
 11
1129.098000
 21
188.500000
  0
LINE
  8
1
 62
7
  6
CONTINUOUS
 10
906.348000
 20
188.500000
 11
1121.673000
 21
188.500000
  0
LINE
  8
1
 62
7
  6
CONTINUOUS
 10
1121.673000
 20
188.500000
 11
1121.673000
 21
40.000000
  0
LINE
  8
1
 62
7
  6
CONTINUOUS
 10
1121.673000
 20
40.000000
 11
906.348000
 21
40.000000
  0
LINE
  8
1
 62
7
  6
CONTINUOUS
 10
906.348000
 20
139.000000
 11
1121.673000
 21
139.000000
  0
LINE
  8
1
 62
7
  6
CONTINUOUS
 10
1121.673000
 20
89.500000
 11
906.348000
 21
89.500000
  0
TEXT
  8
1
 62
7
  6
CONTINUOUS
 10
931.360845
 20
164.987500
 40
19.800000
 41
1.000000
  1
モンタナシリーズ
  7
KANJI
 50
0.000000
 51
0.000000
  0
TEXT
  8
1
 62
7
  6
CONTINUOUS
 10
1089.760845
 20
174.887500
 40
9.900000
 41
0.500000
  1

  7
KANJI
 50
0.000000
 51
0.000000
  0
TEXT
  8
1
 62
7
  6
CONTINUOUS
 10
1089.760845
 20
164.987500
 40
9.900000
 41
0.500000
  1

  7
KANJI
 50
0.000000
 51
0.000000
  0
TEXT
  8
1
 62
7
  6
CONTINUOUS
 10
755.473485
 20
164.987500
 40
19.800000
 41
1.000000
  1
シエラシリーズ
  7
KANJI
 50
0.000000
 51
0.000000
  0
TEXT
  8
1
 62
7
  6
CONTINUOUS
 10
894.073485
 20
174.887500
 40
9.900000
 41
0.500000
  1

  7
KANJI
 50
0.000000
 51
0.000000
  0
TEXT
  8
1
 62
7
  6
CONTINUOUS
 10
894.073485
 20
164.987500
 40
9.900000
 41
0.500000
  1

  7
KANJI
 50
0.000000
 51
0.000000
  0
LINE
  8
1
 62
7
  6
CONTINUOUS
 10
919.192260
 20
188.500000
 11
919.192260
 21
40.000000
  0
TEXT
  8
1
 62
7
  6
CONTINUOUS
 10
588.320400
 20
161.275000
 40
19.800000
 41
1.000000
  1
ベナーロシリーズ
  7
KANJI
 50
0.000000
 51
0.000000
  0
TEXT
  8
1
 62
7
  6
CONTINUOUS
 10
746.720400
 20
171.175000
 40
9.900000
 41
0.500000
  1

  7
KANJI
 50
0.000000
 51
0.000000
  0
TEXT
  8
1
 62
7
  6
CONTINUOUS
 10
746.720400
 20
161.275000
 40
9.900000
 41
0.500000
  1

  7
KANJI
 50
0.000000
 51
0.000000
  0
LINE
  8
1
 62
7
  6
CONTINUOUS
 10
749.190450
 20
188.500000
 11
749.190450
 21
40.000000
  0
TEXT
  8
1
 62
7
  6
CONTINUOUS
 10
429.073950
 20
48.380350
 40
24.750000
 41
0.800000
  1
シーム剤  本
  7
KANJI
 50
0.000000
 51
0.000000
  0
TEXT
  8
1
 62
7
  6
CONTINUOUS
 10
557.773950
 20
60.755350
 40
12.375000
 41
0.466667
  1

  7
KANJI
 50
0.000000
 51
0.000000
  0
TEXT
  8
1
 62
7
  6
CONTINUOUS
 10
557.773950
 20
48.380350
 40
12.375000
 41
0.466667
  1

  7
KANJI
 50
0.000000
 51
0.000000
  0
TEXT
  8
1
 62
7
  6
CONTINUOUS
 10
924.142260
 20
52.589335
 40
24.750000
 41
1.000000
  1
梱包個数　　梱
  7
KANJI
 50
0.000000
 51
0.000000
  0
TEXT
  8
1
 62
7
  6
CONTINUOUS
 10
1097.392260
 20
64.964335
 40
12.375000
 41
0.500000
  1

  7
KANJI
 50
0.000000
 51
0.000000
  0
TEXT
  8
1
 62
7
  6
CONTINUOUS
 10
1097.392260
 20
52.589335
 40
12.375000
 41
0.500000
  1

  7
KANJI
 50
0.000000
 51
0.000000
  0
TEXT
  8
1
 62
7
  6
CONTINUOUS
 10
735.879900
 20
52.271050
 40
24.750000
 41
0.746667
  1
 断熱テープ   本
  7
KANJI
 50
0.000000
 51
0.000000
  0
TEXT
  8
1
 62
7
  6
CONTINUOUS
 10
900.467400
 20
64.646050
 40
12.375000
 41
0.466667
  1

  7
KANJI
 50
0.000000
 51
0.000000
  0
TEXT
  8
1
 62
7
  6
CONTINUOUS
 10
900.467400
 20
52.271050
 40
12.375000
 41
0.466667
  1

  7
KANJI
 50
0.000000
 51
0.000000
  0
TEXT
  8
1
 62
7
  6
CONTINUOUS
 10
583.370400
 20
47.910595
 40
24.750000
 41
0.656250
  1
瞬間接着剤 　本
  7
KANJI
 50
0.000000
 51
0.000000
  0
TEXT
  8
1
 62
7
  6
CONTINUOUS
 10
713.307900
 20
60.285595
 40
12.375000
 41
0.350000
  1

  7
KANJI
 50
0.000000
 51
0.000000
  0
TEXT
  8
1
 62
7
  6
CONTINUOUS
 10
713.307900
 20
47.910595
 40
12.375000
 41
0.350000
  1

  7
KANJI
 50
0.000000
 51
0.000000
  0
TEXT
  8
1
 62
7
  6
CONTINUOUS
 10
438.973950
 20
97.234375
 40
24.750000
 41
1.041667
  1
   ㎜
  7
KANJI
 50
0.000000
 51
0.000000
  0
TEXT
  8
1
 62
7
  6
CONTINUOUS
 10
525.598950
 20
109.609375
 40
12.375000
 41
0.833333
  1

  7
KANJI
 50
0.000000
 51
0.000000
  0
TEXT
  8
1
 62
7
  6
CONTINUOUS
 10
525.598950
 20
97.234375
 40
12.375000
 41
0.833333
  1

  7
KANJI
 50
0.000000
 51
0.000000
  0
TEXT
  8
1
 62
7
  6
CONTINUOUS
 10
588.320400
 20
97.234375
 40
24.750000
 41
1.041667
  1
   ㎜
  7
KANJI
 50
0.000000
 51
0.000000
  0
TEXT
  8
1
 62
7
  6
CONTINUOUS
 10
674.945400
 20
109.609375
 40
12.375000
 41
0.833333
  1

  7
KANJI
 50
0.000000
 51
0.000000
  0
TEXT
  8
1
 62
7
  6
CONTINUOUS
 10
674.945400
 20
97.234375
 40
12.375000
 41
0.833333
  1

  7
KANJI
 50
0.000000
 51
0.000000
  0
TEXT
  8
1
 62
7
  6
CONTINUOUS
 10
755.473485
 20
97.234375
 40
24.750000
 41
1.041667
  1
   ㎜
  7
KANJI
 50
0.000000
 51
0.000000
  0
TEXT
  8
1
 62
7
  6
CONTINUOUS
 10
842.098485
 20
109.609375
 40
12.375000
 41
0.833333
  1

  7
KANJI
 50
0.000000
 51
0.000000
  0
TEXT
  8
1
 62
7
  6
CONTINUOUS
 10
842.098485
 20
97.234375
 40
12.375000
 41
0.833333
  1

  7
KANJI
 50
0.000000
 51
0.000000
  0
TEXT
  8
1
 62
7
  6
CONTINUOUS
 10
924.142260
 20
97.234375
 40
24.750000
 41
1.050000
  1
    ㎜
  7
KANJI
 50
0.000000
 51
0.000000
  0
TEXT
  8
1
 62
7
  6
CONTINUOUS
 10
1035.517260
 20
109.609375
 40
12.375000
 41
0.875000
  1

  7
KANJI
 50
0.000000
 51
0.000000
  0
TEXT
  8
1
 62
7
  6
CONTINUOUS
 10
1035.517260
 20
97.234375
 40
12.375000
 41
0.875000
  1

  7
KANJI
 50
0.000000
 51
0.000000
  0
TEXT
  8
1
 62
7
  6
CONTINUOUS
 10
1138.998000
 20
159.109375
 40
24.750000
 41
0.800000
  1
デュポンコーリアン認定加工／施工工場　　Ｍｐｃｏ　
  7
KANJI
 50
0.000000
 51
0.000000
  0
TEXT
  8
1
 62
7
  6
CONTINUOUS
 10
1633.998000
 20
171.484375
 40
12.375000
 41
0.400000
  1

  7
KANJI
 50
0.000000
 51
0.000000
  0
TEXT
  8
1
 62
7
  6
CONTINUOUS
 10
1633.998000
 20
159.109375
 40
12.375000
 41
0.400000
  1

  7
KANJI
 50
0.000000
 51
0.000000
  0
LINE
  8
1
 62
7
  6
CONTINUOUS
 10
1622.914950
 20
40.000000
 11
1734.473100
 21
40.000000
  0
TEXT
  8
1
 62
7
  6
CONTINUOUS
 10
1627.864950
 20
95.378125
 40
34.650000
 41
0.714286
  1
図面番号
  7
KANJI
 50
0.000000
 51
0.000000
  0
TEXT
  8
1
 62
7
  6
CONTINUOUS
 10
1726.864950
 20
112.703125
 40
17.325000
 41
0.357143
  1

  7
KANJI
 50
0.000000
 51
0.000000
  0
TEXT
  8
1
 62
7
  6
CONTINUOUS
 10
1726.864950
 20
95.378125
 40
17.325000
 41
0.357143
  1

  7
KANJI
 50
0.000000
 51
0.000000
  0
LINE
  8
1
 62
7
  6
CONTINUOUS
 10
1622.914950
 20
139.000000
 11
1622.914950
 21
40.000000
  0
LINE
  8
1
 62
7
  6
CONTINUOUS
 10
1622.914950
 20
40.000000
 11
1734.473100
 21
40.000000
  0
LINE
  8
1
 62
7
  6
CONTINUOUS
 10
1734.473100
 20
40.000000
 11
1734.473100
 21
139.000000
  0
LINE
  8
1
 62
7
  6
CONTINUOUS
 10
1734.473100
 20
139.000000
 11
1622.914950
 21
139.000000
  0
LINE
  8
1
 62
7
  6
CONTINUOUS
 10
1622.914950
 20
139.000000
 11
1622.914950
 21
188.500000
  0
LINE
  8
1
 62
7
  6
CONTINUOUS
 10
1622.914950
 20
188.500000
 11
1734.473100
 21
188.500000
  0
LINE
  8
1
 62
7
  6
CONTINUOUS
 10
1734.473100
 20
188.500000
 11
1734.473100
 21
139.000000
  0
TEXT
  8
1
 62
7
  6
CONTINUOUS
 10
1627.864950
 20
161.275000
 40
19.800000
 41
0.875000
  1
CAD-NO
  7
KANJI
 50
0.000000
 51
0.000000
  0
TEXT
  8
1
 62
7
  6
CONTINUOUS
 10
1723.152450
 20
171.175000
 40
9.900000
 41
0.875000
  1

  7
KANJI
 50
0.000000
 51
0.000000
  0
TEXT
  8
1
 62
7
  6
CONTINUOUS
 10
1723.152450
 20
161.275000
 40
9.900000
 41
0.875000
  1

  7
KANJI
 50
0.000000
 51
0.000000
  0
LINE
  8
1
 62
7
  6
DASHDOT
 10
1763.270963
 20
871.027778
 11
1741.850535
 21
871.027778
  0
ARC
  8
1
 62
7
  6
CONTINUOUS
 10
569.883319
 20
1056.527778
 40
25.000000
 50
89.999994
 51
171.634334
  0
ARC
  8
1
 62
7
  6
CONTINUOUS
 10
569.883319
 20
1056.527778
 40
50.000000
 50
89.999997
 51
171.634334
  0
ARC
  8
1
 62
7
  6
CONTINUOUS
 10
569.883319
 20
685.527778
 40
25.000000
 50
-171.634334
 51
-89.999994
  0
ARC
  8
1
 62
7
  6
CONTINUOUS
 10
569.883319
 20
685.527778
 40
50.000000
 50
-171.634334
 51
-89.999997
  0
ARC
  8
1
 62
7
  6
CONTINUOUS
 10
1301.750537
 20
1056.527778
 40
25.000000
 50
8.365666
 51
89.999994
  0
ARC
  8
1
 62
7
  6
CONTINUOUS
 10
1301.750537
 20
1056.527778
 40
50.000000
 50
8.365666
 51
89.999997
  0
ARC
  8
1
 62
7
  6
CONTINUOUS
 10
1301.750537
 20
685.527778
 40
50.000000
 50
-89.999997
 51
-8.365666
  0
ARC
  8
1
 62
7
  6
CONTINUOUS
 10
1301.750537
 20
685.527778
 40
25.000000
 50
-89.999994
 51
-8.365666
  0
LINE
  8
1
 62
7
  6
CONTINUOUS
 10
569.883309
 20
1106.527778
 11
1301.750539
 21
1106.527778
  0
LINE
  8
1
 62
7
  6
CONTINUOUS
 10
1301.750539
 20
1081.527778
 11
569.883312
 21
1081.527778
  0
LINE
  8
1
 62
7
  6
CONTINUOUS
 10
569.883319
 20
660.527778
 11
1301.750539
 21
660.527778
  0
LINE
  8
1
 62
7
  6
CONTINUOUS
 10
1301.750540
 20
635.527778
 11
569.883319
 21
635.527778
  0
ARC
  8
1
 62
7
  6
CONTINUOUS
 10
1831.316928
 20
871.027778
 40
1325.000000
 50
171.634334
 51
-171.634334
  0
ARC
  8
1
 62
7
  6
CONTINUOUS
 10
1831.316928
 20
871.027778
 40
1300.000000
 50
171.634334
 51
-171.634334
  0
ARC
  8
1
 62
7
  6
CONTINUOUS
 10
40.316928
 20
871.027778
 40
1300.000000
 50
-8.365666
 51
8.365675
  0
ARC
  8
1
 62
7
  6
CONTINUOUS
 10
112.023657
 20
870.078984
 40
1253.293630
 50
-9.195737
 51
9.360131
  0
ARC
  8
1
 62
7
  6
CONTINUOUS
 10
569.883319
 20
1056.527778
 40
12.500000
 50
89.999987
 51
171.634334
  0
ARC
  8
1
 62
7
  6
CONTINUOUS
 10
569.883319
 20
685.527778
 40
12.500000
 50
-171.634334
 51
-89.999987
  0
ARC
  8
1
 62
7
  6
CONTINUOUS
 10
1301.750537
 20
685.527778
 40
12.500000
 50
-89.999987
 51
-8.365666
  0
ARC
  8
1
 62
7
  6
CONTINUOUS
 10
1301.750537
 20
1056.527778
 40
12.500000
 50
8.365666
 51
89.999987
  0
ARC
  8
1
 62
7
  6
CONTINUOUS
 10
1831.316927
 20
871.027778
 40
1287.499999
 50
171.634334
 51
-171.153581
  0
ARC
  8
1
 62
7
  6
CONTINUOUS
 10
40.316924
 20
871.027778
 40
1287.500004
 50
-8.365675
 51
8.365673
  0
LINE
  8
1
 62
7
  6
CONTINUOUS
 10
569.883314
 20
1069.027778
 11
896.316928
 21
1069.027778
  0
ARC
  8
1
 62
7
  6
CONTINUOUS
 10
896.316928
 20
1049.027778
 40
20.000000
 50
0.000000
 51
90.000000
  0
LINE
  8
1
 62
7
  6
CONTINUOUS
 10
975.316928
 20
1069.027778
 11
1312.500975
 21
1069.027778
  0
ARC
  8
1
 62
7
  6
CONTINUOUS
 10
975.316928
 20
1049.027778
 40
20.000000
 50
90.000000
 51
180.000000
  0
LINE
  8
1
 62
7
  6
CONTINUOUS
 10
975.316928
 20
673.027778
 11
1312.500975
 21
673.027778
  0
LINE
  8
1
 62
7
  6
CONTINUOUS
 10
955.316928
 20
1049.027778
 11
955.316928
 21
693.027778
  0
ARC
  8
1
 62
7
  6
CONTINUOUS
 10
975.316928
 20
693.027778
 40
20.000000
 50
180.000000
 51
-90.000000
  0
LINE
  8
1
 62
7
  6
CONTINUOUS
 10
916.316928
 20
1049.027778
 11
916.316928
 21
693.027778
  0
LINE
  8
1
 62
7
  6
CONTINUOUS
 10
896.316928
 20
673.027778
 11
569.883319
 21
673.027778
  0
ARC
  8
1
 62
7
  6
CONTINUOUS
 10
896.316928
 20
693.027778
 40
20.000000
 50
-90.000000
 51
0.000000
  0
CIRCLE
  8
1
 62
7
  6
CONTINUOUS
 10
805.816927
 20
871.027778
 40
57.500000
  0
CIRCLE
  8
1
 62
7
  6
CONTINUOUS
 10
1065.816927
 20
871.027778
 40
57.500000
  0
CIRCLE
  8
1
 62
7
  6
CONTINUOUS
 10
805.816927
 20
871.027778
 40
47.500000
  0
CIRCLE
  8
1
 62
7
  6
CONTINUOUS
 10
1065.816927
 20
871.027778
 40
47.500000
  0
DIMENSION
  8
1
 62
7
  6
CONTINUOUS
  2
*D1
 10
805.816927
 20
743.197107
 11
935.816927
 21
743.197107
 70
     0
  1
260
 13
805.816927
 23
861.027778
 14
1065.816927
 24
861.027778
 50
0.000000
  0
DIMENSION
  8
1
 62
7
  6
CONTINUOUS
  2
*D2
 10
748.316927
 20
871.027778
 11
805.816927
 21
871.027778
 70
     3
  1
φ115
 13
748.316927
 23
871.027778
 14
863.316927
 24
871.027778
 15
863.316927
 25
871.027778
  0
DIMENSION
  8
1
 62
7
  6
CONTINUOUS
  2
*D3
 10
1008.316927
 20
871.027778
 11
1065.816927
 21
871.027778
 70
     3
  1
φ115
 13
1008.316927
 23
871.027778
 14
1123.316927
 24
871.027778
 15
1123.316927
 25
871.027778
  0
DIMENSION
  8
1
 62
7
  6
CONTINUOUS
  2
*D4
 10
381.484375
 20
635.527778
 11
381.484375
 21
871.027778
 70
     0
  1
471
 13
496.316928
 23
635.527778
 14
496.316928
 24
1106.527778
 50
90.000000
  0
DIMENSION
  8
1
 62
7
  6
CONTINUOUS
  2
*D5
 10
411.163222
 20
635.527778
 11
411.163222
 21
648.027778
 70
     0
  1
25
 13
496.316928
 23
635.527778
 14
496.316928
 24
660.527778
 50
90.000000
  0
DIMENSION
  8
1
 62
7
  6
CONTINUOUS
  2
*D6
 10
411.163222
 20
660.527778
 11
411.163222
 21
871.027778
 70
     0
  1
421
 13
411.163222
 23
660.527778
 14
496.316928
 24
1081.527778
 50
90.000000
  0
DIMENSION
  8
1
 62
7
  6
CONTINUOUS
  2
*D7
 10
411.163222
 20
1081.527778
 11
411.163222
 21
1094.027778
 70
     0
  1
25
 13
411.163222
 23
1081.527778
 14
496.316928
 24
1106.527778
 50
90.000000
  0
LINE
  8
1
 62
7
  6
CONTINUOUS
 10
531.316928
 20
906.954636
 11
583.053212
 21
951.449348
  0
LINE
  8
1
 62
7
  6
CONTINUOUS
 10
583.053212
 20
951.449348
 11
620.553212
 21
951.449348
  0
TEXT
  8
1
 62
7
  6
CONTINUOUS
 10
583.053212
 20
951.449348
 40
20.000000
 41
0.375000
  1
1300R
  7
KANJI
 50
0.000000
 51
30.000000
  0
LINE
  8
1
 62
7
  6
CONTINUOUS
 10
531.316928
 20
906.954636
 11
542.588461
 21
923.475912
  0
LINE
  8
1
 62
7
  6
CONTINUOUS
 10
531.316928
 20
906.954636
 11
549.338999
 21
915.626714
  0
LINE
  8
1
 62
7
  6
CONTINUOUS
 10
542.588461
 20
923.475912
 11
549.338999
 21
915.626714
  0
LINE
  8
1
 62
7
  6
CONTINUOUS
 10
534.978628
 20
910.103806
 11
540.614395
 21
918.364443
  0
LINE
  8
1
 62
7
  6
CONTINUOUS
 10
534.978628
 20
910.103806
 11
543.989664
 21
914.439845
  0
LINE
  8
1
 62
7
  6
CONTINUOUS
 10
540.614395
 20
918.364443
 11
543.989664
 21
914.439845
  0
LINE
  8
1
 62
7
  6
CONTINUOUS
 10
506.677314
 20
840.126403
 11
576.870119
 21
898.363802
  0
LINE
  8
1
 62
7
  6
CONTINUOUS
 10
576.870119
 20
898.363802
 11
614.370119
 21
898.363802
  0
TEXT
  8
1
 62
7
  6
CONTINUOUS
 10
576.870119
 20
898.363802
 40
20.000000
 41
0.375000
  1
1325R
  7
KANJI
 50
0.000000
 51
30.000000
  0
LINE
  8
1
 62
7
  6
CONTINUOUS
 10
506.677314
 20
840.126403
 11
518.239670
 21
856.445470
  0
LINE
  8
1
 62
7
  6
CONTINUOUS
 10
506.677314
 20
840.126403
 11
524.850141
 21
848.477952
  0
LINE
  8
1
 62
7
  6
CONTINUOUS
 10
518.239670
 20
856.445470
 11
524.850141
 21
848.477952
  0
LINE
  8
1
 62
7
  6
CONTINUOUS
 10
510.394212
 20
843.210230
 11
516.175390
 21
851.369764
  0
LINE
  8
1
 62
7
  6
CONTINUOUS
 10
510.394212
 20
843.210230
 11
519.480626
 21
847.386005
  0
LINE
  8
1
 62
7
  6
CONTINUOUS
 10
516.175390
 20
851.369764
 11
519.480626
 21
847.386005
  0
LINE
  8
1
 62
7
  6
CONTINUOUS
 10
1327.526698
 20
898.363802
 11
1279.269502
 21
951.449348
  0
LINE
  8
1
 62
7
  6
CONTINUOUS
 10
1279.269502
 20
951.449348
 11
1241.769502
 21
951.449348
  0
TEXT
  8
1
 62
7
  6
CONTINUOUS
 10
1241.769502
 20
951.449348
 40
20.000000
 41
0.375000
  1
1300R
  7
KANJI
 50
0.000000
 51
30.000000
  0
LINE
  8
1
 62
7
  6
CONTINUOUS
 10
1327.526698
 20
898.363802
 11
1310.701712
 21
909.176751
  0
LINE
  8
1
 62
7
  6
CONTINUOUS
 10
1327.526698
 20
898.363802
 11
1318.362307
 21
916.140584
  0
LINE
  8
1
 62
7
  6
CONTINUOUS
 10
1310.701712
 20
909.176751
 11
1318.362307
 21
916.140584
  0
LINE
  8
1
 62
7
  6
CONTINUOUS
 10
1324.278026
 20
901.937519
 11
1315.865533
 21
907.343993
  0
LINE
  8
1
 62
7
  6
CONTINUOUS
 10
1324.278026
 20
901.937519
 11
1319.695830
 21
910.825909
  0
LINE
  8
1
 62
7
  6
CONTINUOUS
 10
1315.865533
 20
907.343993
 11
1319.695830
 21
910.825909
  0
LINE
  8
1
 62
7
  6
CONTINUOUS
 10
506.316928
 20
527.312716
 11
531.316928
 21
527.312716
  0
LINE
  8
1
 62
7
  6
CONTINUOUS
 10
1365.316928
 20
527.312716
 11
1340.316928
 21
527.312716
  0
LINE
  8
1
 62
7
  6
CONTINUOUS
 10
758.316927
 20
291.312716
 11
758.316927
 21
286.312716
  0
LINE
  8
1
 62
7
  6
CONTINUOUS
 10
853.316927
 20
291.312716
 11
853.316927
 21
286.312716
  0
LINE
  8
1
 62
7
  6
CONTINUOUS
 10
1114.166927
 20
291.312716
 11
1123.297361
 21
291.312716
  0
LINE
  8
1
 62
7
  6
CONTINUOUS
 10
1123.297361
 20
296.312716
 11
1123.297361
 21
291.312716
  0
LINE
  8
1
 62
7
  6
CONTINUOUS
 10
1018.316927
 20
291.312716
 11
1018.316927
 21
286.312716
  0
LINE
  8
1
 62
7
  6
CONTINUOUS
 10
1114.166927
 20
291.312716
 11
1114.166927
 21
286.312716
  0
LINE
  8
1
 62
7
  6
CONTINUOUS
 10
758.316927
 20
286.312716
 11
758.316927
 21
281.312716
  0
LINE
  8
1
 62
7
  6
CONTINUOUS
 10
758.316927
 20
281.312716
 11
738.336492
 21
281.312716
  0
LINE
  8
1
 62
7
  6
CONTINUOUS
 10
1114.166927
 20
286.312716
 11
1114.166927
 21
281.312716
  0
LINE
  8
1
 62
7
  6
CONTINUOUS
 10
1114.166927
 20
281.312716
 11
1133.297361
 21
281.312716
  0
LINE
  8
1
 62
7
  6
CONTINUOUS
 10
1133.297361
 20
281.312716
 11
1133.297361
 21
286.312716
  0
LINE
  8
1
 62
7
  6
CONTINUOUS
 10
531.316928
 20
527.312716
 11
543.068800
 21
324.254311
  0
LINE
  8
1
 62
7
  6
CONTINUOUS
 10
562.057270
 20
305.433797
 11
748.336492
 21
296.312716
  0
ARC
  8
1
 62
7
  6
CONTINUOUS
 10
563.035389
 20
325.409865
 40
20.000000
 50
-176.687739
 51
-92.803224
  0
ARC
  8
1
 62
7
  6
CONTINUOUS
 10
563.061726
 20
324.954791
 40
30.000000
 50
-176.687739
 51
-92.810947
  0
LINE
  8
1
 62
7
  6
CONTINUOUS
 10
1123.297361
 20
296.312716
 11
1309.576585
 21
305.433797
  0
LINE
  8
1
 62
7
  6
CONTINUOUS
 10
1340.316928
 20
527.312716
 11
1328.565056
 21
324.254311
  0
ARC
  8
1
 62
7
  6
CONTINUOUS
 10
1308.598466
 20
325.409865
 40
20.000000
 50
-87.196776
 51
-3.312261
  0
LINE
  8
1
 62
7
  6
CONTINUOUS
 10
1133.297361
 20
286.312716
 11
1310.043347
 21
294.990887
  0
ARC
  8
1
 62
7
  6
CONTINUOUS
 10
1308.572129
 20
324.954791
 40
30.000000
 50
-87.189053
 51
-3.312261
  0
LINE
  8
1
 62
7
  6
CONTINUOUS
 10
853.316927
 20
286.312716
 11
853.316927
 21
281.312716
  0
LINE
  8
1
 62
7
  6
CONTINUOUS
 10
853.316927
 20
281.312716
 11
873.316927
 21
281.312716
  0
LINE
  8
1
 62
7
  6
CONTINUOUS
 10
998.336492
 20
281.312716
 11
1018.316927
 21
281.312716
  0
LINE
  8
1
 62
7
  6
CONTINUOUS
 10
1018.316927
 20
281.312716
 11
1018.316927
 21
286.312716
  0
LINE
  8
1
 62
7
  6
CONTINUOUS
 10
863.316927
 20
296.312716
 11
893.695691
 21
299.477171
  0
ARC
  8
1
 62
7
  6
CONTINUOUS
 10
891.623569
 20
319.369539
 40
20.000000
 50
-84.053137
 51
-1.370451
  0
ARC
  8
1
 62
7
  6
CONTINUOUS
 10
889.596825
 20
318.275558
 40
30.000000
 50
-83.748474
 51
-1.370451
  0
LINE
  8
1
 62
7
  6
CONTINUOUS
 10
980.549072
 20
299.206060
 11
1008.336492
 21
296.312716
  0
ARC
  8
1
 62
7
  6
CONTINUOUS
 10
982.620359
 20
319.098515
 40
20.000000
 50
-177.746957
 51
-95.944458
  0
ARC
  8
1
 62
7
  6
CONTINUOUS
 10
984.366479
 20
318.138346
 40
30.000000
 50
-177.928996
 51
-96.629525
  0
LINE
  8
1
 62
7
  6
CONTINUOUS
 10
506.316928
 20
527.312716
 11
509.316928
 21
515.312716
  0
LINE
  8
1
 62
7
  6
CONTINUOUS
 10
1365.316928
 20
527.312716
 11
1362.316928
 21
515.312716
  0
LINE
  8
1
 62
7
  6
CONTINUOUS
 10
1349.475577
 20
512.486049
 11
1338.522013
 21
323.221461
  0
LINE
  8
1
 62
7
  6
CONTINUOUS
 10
1362.316928
 20
515.312716
 11
1352.470566
 21
515.312716
  0
ARC
  8
1
 62
7
  6
CONTINUOUS
 10
1352.470566
 20
512.312716
 40
3.000000
 50
90.000000
 51
176.687739
  0
LINE
  8
1
 62
7
  6
CONTINUOUS
 10
509.316928
 20
515.312716
 11
519.163290
 21
515.312716
  0
LINE
  8
1
 62
7
  6
CONTINUOUS
 10
522.158278
 20
512.486049
 11
533.111842
 21
323.221461
  0
ARC
  8
1
 62
7
  6
CONTINUOUS
 10
519.163290
 20
512.312716
 40
3.000000
 50
3.312261
 51
90.000000
  0
LINE
  8
1
 62
7
  6
CONTINUOUS
 10
531.316928
 20
527.312716
 11
1340.316928
 21
527.312716
  0
LINE
  8
1
 62
7
  6
DASHDOT
 10
805.816927
 20
322.563682
 11
805.816927
 21
247.658643
  0
LINE
  8
1
 62
7
  6
DASHDOT
 10
1065.816927
 20
328.556085
 11
1065.816927
 21
248.407693
  0
DIMENSION
  8
1
 62
7
  6
CONTINUOUS
  2
*D8
 10
805.816927
 20
234.175736
 11
935.816927
 21
234.175736
 70
     0
  1
260
 13
805.816927
 23
237.658643
 14
1065.816927
 24
238.407693
 50
0.000000
  0
DIMENSION
  8
1
 62
7
  6
CONTINUOUS
  2
*D9
 10
748.336492
 20
344.286143
 11
805.826709
 21
344.286143
 70
     0
  1
115φ
 13
748.336492
 23
316.312716
 14
863.316927
 24
316.312716
 50
0.000000
  0
DIMENSION
  8
1
 62
7
  6
CONTINUOUS
  2
*D10
 10
1008.336492
 20
343.537092
 11
1065.816927
 21
343.537092
 70
     0
  1
115φ
 13
1008.336492
 23
306.312716
 14
1123.297361
 24
306.312716
 50
0.000000
  0
DIMENSION
  8
1
 62
7
  6
CONTINUOUS
  2
*D11
 10
480.205387
 20
527.312716
 11
480.205387
 21
416.812716
 70
     0
  1
221
 13
496.316928
 23
527.312716
 14
496.316928
 24
306.312716
 50
-90.000000
  0
DIMENSION
  8
1
 62
7
  6
CONTINUOUS
  2
*D12
 10
457.682534
 20
527.312716
 11
457.682534
 21
404.312716
 70
     0
  1
241
 13
496.316928
 23
527.312716
 14
496.316928
 24
281.312716
 50
-90.000000
  0
DIMENSION
  8
1
 62
7
  6
CONTINUOUS
  2
*D13
 10
1402.273658
 20
527.312716
 11
1402.273658
 21
538.645417
 70
     0
  1
12
 13
1375.316928
 23
527.312716
 14
1375.316928
 24
515.312716
 50
-90.000000
  0
LINE
  8
1
 62
7
  6
CONTINUOUS
 10
911.617848
 20
318.891207
 11
915.536036
 21
482.671465
  0
ARC
  8
1
 62
7
  6
DASHDOT
 10
930.531746
 20
482.312716
 40
15.000000
 50
90.000000
 51
178.629549
  0
LINE
  8
1
 62
7
  6
DASHDOT
 10
930.531746
 20
497.312716
 11
941.424088
 21
497.312716
  0
LINE
  8
1
 62
7
  6
DASHDOT
 10
956.413377
 20
482.879476
 11
962.635820
 21
318.312257
  0
ARC
  8
1
 62
7
  6
DASHDOT
 10
941.424088
 20
482.312716
 40
15.000000
 50
2.165376
 51
90.000000
  0
LINE
  8
1
 62
7
  6
CONTINUOUS
 10
919.588244
 20
317.558060
 11
923.533748
 21
482.480133
  0
ARC
  8
1
 62
7
  6
DASHDOT
 10
930.531746
 20
482.312716
 40
7.000000
 50
90.000000
 51
178.629549
  0
LINE
  8
1
 62
7
  6
DASHDOT
 10
941.405490
 20
489.312716
 11
930.531746
 21
489.312716
  0
LINE
  8
1
 62
7
  6
CONTINUOUS
 10
948.400918
 20
482.565682
 11
954.386075
 21
317.054207
  0
ARC
  8
1
 62
7
  6
DASHDOT
 10
941.405490
 20
482.312716
 40
7.000000
 50
2.071004
 51
90.000000
  0
DIMENSION
  8
1
 62
7
  6
CONTINUOUS
  2
*D14
 10
999.799771
 20
497.312716
 11
999.799771
 21
512.312716
 70
     0
  1
30
 13
965.867642
 23
497.312716
 14
965.867642
 24
527.312716
 50
90.000000
  0
LINE
  8
1
 62
7
  6
CONTINUOUS
 10
861.316927
 20
291.312716
 11
853.316927
 21
291.312716
  0
LINE
  8
1
 62
7
  6
CONTINUOUS
 10
863.316927
 20
296.312716
 11
863.316927
 21
293.312716
  0
ARC
  8
1
 62
7
  6
CONTINUOUS
 10
861.316927
 20
293.312716
 40
2.000000
 50
-90.000000
 51
0.000000
  0
LINE
  8
1
 62
7
  6
CONTINUOUS
 10
875.099140
 20
286.507948
 11
892.863626
 21
288.453955
  0
LINE
  8
1
 62
7
  6
CONTINUOUS
 10
873.316927
 20
281.312716
 11
873.316927
 21
284.519842
  0
ARC
  8
1
 62
7
  6
CONTINUOUS
 10
875.316927
 20
284.519842
 40
2.000000
 50
96.251526
 51
180.000000
  0
LINE
  8
1
 62
7
  6
CONTINUOUS
 10
1008.336492
 20
296.312716
 11
1008.336492
 21
293.312716
  0
LINE
  8
1
 62
7
  6
CONTINUOUS
 10
1018.316927
 20
291.312716
 11
1010.336492
 21
291.312716
  0
ARC
  8
1
 62
7
  6
CONTINUOUS
 10
1010.336492
 20
293.312716
 40
2.000000
 50
180.000000
 51
-90.000000
  0
LINE
  8
1
 62
7
  6
CONTINUOUS
 10
998.336492
 20
284.531705
 11
998.336492
 21
281.312716
  0
LINE
  8
1
 62
7
  6
CONTINUOUS
 10
980.903008
 20
288.338944
 11
996.567390
 21
286.518332
  0
ARC
  8
1
 62
7
  6
CONTINUOUS
 10
996.336492
 20
284.531705
 40
2.000000
 50
-0.000000
 51
83.370475
  0
LINE
  8
1
 62
7
  6
CONTINUOUS
 10
750.336492
 20
291.312716
 11
758.316927
 21
291.312716
  0
LINE
  8
1
 62
7
  6
CONTINUOUS
 10
748.336492
 20
296.312716
 11
748.336492
 21
293.312716
  0
ARC
  8
1
 62
7
  6
CONTINUOUS
 10
750.336492
 20
293.312716
 40
2.000000
 50
180.000000
 51
-90.000000
  0
LINE
  8
1
 62
7
  6
CONTINUOUS
 10
561.590508
 20
294.990887
 11
736.434573
 21
286.406100
  0
LINE
  8
1
 62
7
  6
CONTINUOUS
 10
738.336492
 20
284.408506
 11
738.336492
 21
281.312716
  0
ARC
  8
1
 62
7
  6
CONTINUOUS
 10
736.336492
 20
284.408506
 40
2.000000
 50
0.000000
 51
87.189053
  0
DIMENSION
  8
1
 62
7
  6
CONTINUOUS
  2
*D15
 10
506.316928
 20
571.111111
 11
935.816928
 21
571.111111
 70
     0
  1
859
 13
506.316928
 23
537.312716
 14
1365.316928
 24
537.312716
 50
0.000000
  0
LINE
  8
1
 62
7
  6
CONTINUOUS
 10
1472.670935
 20
1106.527778
 11
1472.670935
 21
1081.527778
  0
LINE
  8
1
 62
7
  6
CONTINUOUS
 10
1472.670935
 20
635.527778
 11
1472.670935
 21
660.527778
  0
LINE
  8
1
 62
7
  6
CONTINUOUS
 10
1718.670935
 20
823.527778
 11
1708.670935
 21
823.527778
  0
LINE
  8
1
 62
7
  6
CONTINUOUS
 10
1718.670935
 20
918.527778
 11
1708.670935
 21
918.527778
  0
LINE
  8
1
 62
7
  6
CONTINUOUS
 10
1472.670935
 20
1081.527778
 11
1676.100240
 21
1070.021595
  0
LINE
  8
1
 62
7
  6
CONTINUOUS
 10
1694.920357
 20
1051.473406
 11
1703.670935
 21
928.527778
  0
ARC
  8
1
 62
7
  6
CONTINUOUS
 10
1674.970823
 20
1050.053510
 40
20.000000
 50
4.071126
 51
86.762738
  0
ARC
  8
1
 62
7
  6
CONTINUOUS
 10
1675.628156
 20
1050.016331
 40
30.000000
 50
4.087061
 51
86.762738
  0
LINE
  8
1
 62
7
  6
CONTINUOUS
 10
1694.920357
 20
690.582149
 11
1703.670935
 21
813.527778
  0
LINE
  8
1
 62
7
  6
CONTINUOUS
 10
1472.670935
 20
660.527778
 11
1676.100240
 21
672.033960
  0
ARC
  8
1
 62
7
  6
CONTINUOUS
 10
1674.970823
 20
692.002045
 40
20.000000
 50
-86.762738
 51
-4.071126
  0
ARC
  8
1
 62
7
  6
CONTINUOUS
 10
1675.628156
 20
692.039225
 40
30.000000
 50
-86.762738
 51
-4.087061
  0
LINE
  8
1
 62
7
  6
CONTINUOUS
 10
1472.670935
 20
660.527778
 11
1472.670935
 21
1081.527778
  0
LINE
  8
1
 62
7
  6
CONTINUOUS
 10
1472.670935
 20
1106.527778
 11
1484.670935
 21
1103.527778
  0
LINE
  8
1
 62
7
  6
CONTINUOUS
 10
1484.670935
 20
1103.527778
 11
1484.670935
 21
1093.700139
  0
LINE
  8
1
 62
7
  6
CONTINUOUS
 10
1677.322281
 20
1079.968459
 11
1487.501523
 21
1090.704927
  0
ARC
  8
1
 62
7
  6
CONTINUOUS
 10
1487.670935
 20
1093.700139
 40
3.000000
 50
180.000000
 51
-93.237262
  0
LINE
  8
1
 62
7
  6
CONTINUOUS
 10
1677.322281
 20
662.087097
 11
1487.501523
 21
651.350629
  0
ARC
  8
1
 62
7
  6
CONTINUOUS
 10
1487.670935
 20
648.355416
 40
3.000000
 50
93.237262
 51
180.000000
  0
LINE
  8
1
 62
7
  6
CONTINUOUS
 10
1484.670935
 20
648.355416
 11
1484.670935
 21
638.527778
  0
LINE
  8
1
 62
7
  6
CONTINUOUS
 10
1472.670935
 20
635.527778
 11
1484.670935
 21
638.527778
  0
DIMENSION
  8
1
 62
7
  6
CONTINUOUS
  2
*D16
 10
1665.304975
 20
928.527778
 11
1665.304975
 21
876.027778
 70
     0
  1
115φ
 13
1683.670935
 23
928.527778
 14
1683.670935
 24
823.527778
 50
-90.000000
  0
LINE
  8
1
 62
7
  6
DASHDOT
 10
1682.161590
 20
871.027778
 11
1713.670935
 21
871.027778
  0
LINE
  8
1
 62
7
  6
CONTINUOUS
 10
1713.538213
 20
940.385233
 11
1705.551863
 21
1052.154497
  0
LINE
  8
1
 62
7
  6
CONTINUOUS
 10
1706.670935
 20
928.527778
 11
1703.670935
 21
928.527778
  0
LINE
  8
1
 62
7
  6
CONTINUOUS
 10
1708.670935
 20
918.527778
 11
1708.670935
 21
926.527778
  0
ARC
  8
1
 62
7
  6
DASHDOT
 10
1706.670935
 20
926.527778
 40
2.000000
 50
0.000000
 51
90.000000
  0
LINE
  8
1
 62
7
  6
CONTINUOUS
 10
1706.670935
 20
813.527778
 11
1703.670935
 21
813.527778
  0
LINE
  8
1
 62
7
  6
CONTINUOUS
 10
1708.670935
 20
823.527778
 11
1708.670935
 21
815.527778
  0
ARC
  8
1
 62
7
  6
DASHDOT
 10
1706.670935
 20
815.527778
 40
2.000000
 50
-90.000000
 51
0.000000
  0
LINE
  8
1
 62
7
  6
CONTINUOUS
 10
1705.551863
 20
689.901059
 11
1713.538213
 21
801.670322
  0
DIMENSION
  8
1
 62
7
  6
CONTINUOUS
  2
*D17
 10
1433.061719
 20
1106.527778
 11
1433.061719
 21
871.027778
 70
     0
  1
471
 13
1462.670935
 23
1106.527778
 14
1462.670935
 24
635.527778
 50
-90.000000
  0
LINE
  8
1
 62
7
  6
DOT
 10
1502.670935
 20
662.224610
 11
1502.670935
 21
1079.830945
  0
DIMENSION
  8
1
 62
7
  6
CONTINUOUS
  2
*D18
 10
1472.670935
 20
938.527778
 11
1487.670935
 21
938.527778
 70
     0
  1
30
 13
1472.670935
 23
881.027778
 14
1502.670935
 24
881.027778
 50
0.000000
  0
DIMENSION
  8
1
 62
7
  6
CONTINUOUS
  2
*D19
 10
1472.670935
 20
1165.614628
 11
1583.170935
 21
1165.614628
 70
     0
  1
221
 13
1472.670935
 23
1116.527778
 14
1693.670935
 24
1116.527778
 50
0.000000
  0
DIMENSION
  8
1
 62
7
  6
CONTINUOUS
  2
*D20
 10
1472.670935
 20
1191.273573
 11
1595.670935
 21
1191.273573
 70
     0
  1
241
 13
1472.670935
 23
1116.527778
 14
1718.670935
 24
1116.527778
 50
0.000000
  0
DIMENSION
  8
1
 62
7
  6
CONTINUOUS
  2
*D21
 10
531.316928
 20
1160.917615
 11
723.816928
 21
1160.917615
 70
     0
  1
385
 13
531.316928
 23
1116.527778
 14
916.316928
 24
1116.527778
 50
0.000000
  0
DIMENSION
  8
1
 62
7
  6
CONTINUOUS
  2
*D22
 10
916.316928
 20
1160.917615
 11
935.816928
 21
1160.917615
 70
     0
  1
39
 13
916.316928
 23
1160.917615
 14
955.316928
 24
1116.527778
 50
0.000000
  0
DIMENSION
  8
1
 62
7
  6
CONTINUOUS
  2
*D23
 10
955.316928
 20
1160.917615
 11
1147.816928
 21
1160.917615
 70
     0
  1
385
 13
955.316928
 23
1160.917615
 14
1340.316928
 24
1116.527778
 50
0.000000
  0
DIMENSION
  8
1
 62
7
  6
CONTINUOUS
  2
*D24
 10
506.316928
 20
1181.637214
 11
518.816928
 21
1181.637214
 70
     0
  1
25
 13
506.316928
 23
1116.527778
 14
531.316928
 24
1116.527778
 50
0.000000
  0
DIMENSION
  8
1
 62
7
  6
CONTINUOUS
  2
*D25
 10
531.316928
 20
1181.637214
 11
935.816928
 21
1181.637214
 70
     0
  1
809
 13
531.316928
 23
1181.637214
 14
1340.316928
 24
1116.527778
 50
0.000000
  0
DIMENSION
  8
1
 62
7
  6
CONTINUOUS
  2
*D26
 10
1340.316928
 20
1181.637214
 11
1352.816928
 21
1181.637214
 70
     0
  1
25
 13
1340.316928
 23
1181.637214
 14
1365.316928
 24
1116.527778
 50
0.000000
  0
DIMENSION
  8
1
 62
7
  6
CONTINUOUS
  2
*D27
 10
506.316928
 20
1203.981879
 11
935.816928
 21
1203.981879
 70
     0
  1
859
 13
506.316928
 23
1116.527778
 14
1365.316928
 24
1116.527778
 50
0.000000
  0
ARC
  8
1
 62
7
  6
DASHDOT
 10
1715.533127
 20
940.527778
 40
2.000000
 50
-175.912939
 51
-90.000000
  0
LINE
  8
1
 62
7
  6
CONTINUOUS
 10
1716.670935
 20
938.527778
 11
1715.533127
 21
938.527778
  0
LINE
  8
1
 62
7
  6
CONTINUOUS
 10
1718.670935
 20
936.527778
 11
1718.670935
 21
918.527778
  0
ARC
  8
1
 62
7
  6
DASHDOT
 10
1716.670935
 20
936.527778
 40
2.000000
 50
0.000000
 51
90.000000
  0
LINE
  8
1
 62
7
  6
CONTINUOUS
 10
1718.670935
 20
823.527778
 11
1713.670935
 21
823.527778
  0
ARC
  8
1
 62
7
  6
DASHDOT
 10
1715.533127
 20
801.527778
 40
2.000000
 50
90.000000
 51
175.912939
  0
LINE
  8
1
 62
7
  6
CONTINUOUS
 10
1715.533127
 20
803.527778
 11
1716.670935
 21
803.527778
  0
LINE
  8
1
 62
7
  6
CONTINUOUS
 10
1718.670935
 20
805.527778
 11
1718.670935
 21
823.527778
  0
ARC
  8
1
 62
7
  6
DASHDOT
 10
1716.670935
 20
805.527778
 40
2.000000
 50
-90.000000
 51
0.000000
  0
TEXT
  8
1
 62
7
  6
CONTINUOUS
 10
54.560220
 20
1095.782412
 40
30.000000
 41
0.833333
  1
100％アクリル製
  7
KANJI
 50
0.000000
 51
0.000000
  0
TEXT
  8
1
 62
7
  6
CONTINUOUS
 10
279.560220
 20
1110.782412
 40
15.000000
 41
0.500000
  1

  7
KANJI
 50
0.000000
 51
0.000000
  0
TEXT
  8
1
 62
7
  6
CONTINUOUS
 10
279.560220
 20
1095.782412
 40
15.000000
 41
0.500000
  1

  7
KANJI
 50
0.000000
 51
0.000000
  0
TEXT
  8
1
 62
7
  6
CONTINUOUS
 10
54.560220
 20
1025.782412
 40
30.000000
 41
1.000000
  1
専用排水金具は別売
  7
KANJI
 50
0.000000
 51
0.000000
  0
TEXT
  8
1
 62
7
  6
CONTINUOUS
 10
324.560220
 20
1040.782412
 40
15.000000
 41
0.500000
  1

  7
KANJI
 50
0.000000
 51
0.000000
  0
TEXT
  8
1
 62
7
  6
CONTINUOUS
 10
324.560220
 20
1025.782412
 40
15.000000
 41
0.500000
  1

  7
KANJI
 50
0.000000
 51
0.000000
  0
TEXT
  8
1
 62
7
  6
CONTINUOUS
 10
54.560220
 20
1060.782412
 40
30.000000
 41
0.750000
  1
色：白　only
  7
KANJI
 50
0.000000
 51
0.000000
  0
TEXT
  8
1
 62
7
  6
CONTINUOUS
 10
234.560220
 20
1075.782412
 40
15.000000
 41
0.500000
  1

  7
KANJI
 50
0.000000
 51
0.000000
  0
TEXT
  8
1
 62
7
  6
CONTINUOUS
 10
234.560220
 20
1060.782412
 40
15.000000
 41
0.500000
  1

  7
KANJI
 50
0.000000
 51
0.000000
  0
TEXT
  8
1
 62
7
  6
CONTINUOUS
 10
54.560220
 20
1143.654649
 40
40.000000
 41
0.588235
  1
U-203 ﾀﾞﾌﾞﾙｼﾝｸ詳細図
  7
KANJI
 50
0.000000
 51
0.000000
  0
TEXT
  8
1
 62
7
  6
CONTINUOUS
 10
454.560220
 20
1163.654649
 40
20.000000
 41
0.500000
  1

  7
KANJI
 50
0.000000
 51
0.000000
  0
TEXT
  8
1
 62
7
  6
CONTINUOUS
 10
454.560220
 20
1143.654649
 40
20.000000
 41
0.500000
  1

  7
KANJI
 50
0.000000
 51
0.000000
  0
LINE
  8
1
 62
7
  6
CONTINUOUS
 10
553.102087
 20
666.996985
 11
606.799583
 21
720.694481
  0
LINE
  8
1
 62
7
  6
CONTINUOUS
 10
606.799583
 20
720.694481
 11
644.299583
 21
720.694481
  0
TEXT
  8
1
 62
7
  6
CONTINUOUS
 10
606.799583
 20
720.694481
 40
20.000000
 41
0.375000
  1
25R*4
  7
KANJI
 50
0.000000
 51
30.000000
  0
LINE
  8
1
 62
7
  6
CONTINUOUS
 10
553.102087
 20
666.996985
 11
563.102087
 21
684.317493
  0
LINE
  8
1
 62
7
  6
CONTINUOUS
 10
553.102087
 20
666.996985
 11
570.422595
 21
676.996985
  0
LINE
  8
1
 62
7
  6
CONTINUOUS
 10
563.102087
 20
684.317493
 11
570.422595
 21
676.996985
  0
LINE
  8
1
 62
7
  6
CONTINUOUS
 10
556.517151
 20
670.412049
 11
561.517151
 21
679.072303
  0
LINE
  8
1
 62
7
  6
CONTINUOUS
 10
556.517151
 20
670.412049
 11
565.177405
 21
675.412049
  0
LINE
  8
1
 62
7
  6
CONTINUOUS
 10
561.517151
 20
679.072303
 11
565.177405
 21
675.412049
  0
LINE
  8
1
 62
7
  6
CONTINUOUS
 10
535.413584
 20
649.308482
 11
497.795392
 21
611.690290
  0
LINE
  8
1
 62
7
  6
CONTINUOUS
 10
497.795392
 20
611.690290
 11
460.295392
 21
611.690290
  0
TEXT
  8
1
 62
7
  6
CONTINUOUS
 10
460.295392
 20
611.690290
 40
20.000000
 41
0.375000
  1
50R*4
  7
KANJI
 50
0.000000
 51
30.000000
  0
LINE
  8
1
 62
7
  6
CONTINUOUS
 10
535.413584
 20
649.308482
 11
525.413584
 21
631.987974
  0
LINE
  8
1
 62
7
  6
CONTINUOUS
 10
535.413584
 20
649.308482
 11
518.093076
 21
639.308482
  0
LINE
  8
1
 62
7
  6
CONTINUOUS
 10
525.413584
 20
631.987974
 11
518.093076
 21
639.308482
  0
LINE
  8
1
 62
7
  6
CONTINUOUS
 10
531.998520
 20
645.893418
 11
526.998520
 21
637.233164
  0
LINE
  8
1
 62
7
  6
CONTINUOUS
 10
531.998520
 20
645.893418
 11
523.338266
 21
640.893418
  0
LINE
  8
1
 62
7
  6
CONTINUOUS
 10
526.998520
 20
637.233164
 11
523.338266
 21
640.893418
  0
ENDSEC
  0
EOF
