  0
SECTION
  2
HEADER
  9
$ACADVER
  1
AC1003
  9
$INSBASE
 10
0.000000
 20
0.000000
  9
$EXTMIN
 10
0.000000
 20
0.000000
  9
$EXTMAX
 10
1820.000000
 20
1285.000000
  9
$LIMMIN
 10
0.000000
 20
0.000000
  9
$LIMMAX
 10
1820.000000
 20
1285.000000
  9
$VIEWCTR
 10
910.000000
 20
642.500000
  9
$VIEWSIZE
 40
1285.000000
  9
$PEXTMIN
 10
0.000000
 20
0.000000
 30
0.000000
  9
$PEXTMAX
 10
364.000000
 20
257.000000
 30
0.000000
  9
$SNAPMODE
 70
     0
  9
$SNAPUNIT
 10
1.000000
 20
1.000000
  9
$SNAPBASE
 10
0.000000
 20
0.000000
  9
$SNAPANG
 50
0.000000
  9
$SNAPISOPAIR
 70
     0
  9
$SNAPSTYLE
 70
     0
  9
$GRIDMODE
 70
     0
  9
$GRIDUNIT
 10
0.000000
 20
0.000000
  9
$ORTHOMODE
 70
     0
  9
$REGENMODE
 70
     1
  9
$FILLMODE
 70
     1
  9
$QTEXTMODE
 70
     0
  9
$DRAGMODE
 70
     2
  9
$LTSCALE
 40
1.250000
  9
$OSMODE
 70
     0
  9
$ATTMODE
 70
     1
  9
$TEXTSIZE
 40
0.200000
  9
$TRACEWID
 40
0.050000
  9
$TEXTSTYLE
  7
STANDARD
  9
$CLAYER
  8
0
  9
$CELTYPE
  6
BYLAYER
  9
$CECOLOR
 62
   256
  9
$DIMSCALE
 40
1.000000
  9
$DIMASZ
 40
1.000000
  9
$DIMEXO
 40
0.000000
  9
$DIMDLI
 40
0.500000
  9
$DIMRND
 40
0.000000
  9
$DIMDLE
 40
0.000000
  9
$DIMEXE
 40
0.000000
  9
$DIMTP
 40
0.000000
  9
$DIMTM
 40
0.000000
  9
$DIMTXT
 40
0.180000
  9
$DIMCEN
 40
0.000000
  9
$DIMTSZ
 40
0.000000
  9
$DIMTOL
 70
     0
  9
$DIMLIM
 70
     0
  9
$DIMTIH
 70
     1
  9
$DIMTOH
 70
     1
  9
$DIMSE1
 70
     0
  9
$DIMSE2
 70
     0
  9
$DIMTAD
 70
     0
  9
$DIMZIN
 70
     0
  9
$DIMBLK
  1

  9
$DIMASO
 70
     0
  9
$DIMSHO
 70
     0
  9
$DIMPOST
  1

  9
$DIMAPOST
  1

  9
$DIMALT
 70
     0
  9
$DIMALTD
 70
     0
  9
$DIMALTF
 40
25.400000
  9
$DIMLFAC
 40
1.000000
  9
$DIMTOFL
 70
     0
  9
$DIMTVP
 40
0.000000
  9
$DIMTIX
 70
     0
  9
$DIMSOXD
 70
     0
  9
$DIMSAH
 70
     0
  9
$DIMBLKL
  1

  9
$DIMBLKR
  1

  9
$LUNITS
 70
     2
  9
$LUPREC
 70
     2
  9
$AXISMODE
 70
     0
  9
$AXISUNIT
 10
1.000000
 20
1.000000
  9
$SKETCHINC
 40
0.000000
  9
$FILLETRAD
 40
0.000000
  9
$AUNITS
 70
     1
  9
$AUPREC
 70
     2
  9
$MENU
  1
ACAD
  9
$ELEVATION
 40
0.000000
  9
$THICKNESS
 40
0.000000
  9
$VIEWDIR
 10
0.000000
 20
0.000000
 30
1.000000
  9
$LIMCHECK
 70
     1
  9
$BLIPMODE
 70
     1
  9
$CHAMFERA
 40
0.000000
  9
$CHAMFERB
 40
0.000000
  9
$FASTZOOM
 70
     1
  9
$SKPOLY
 70
     0
  9
$TDCREATE
 40
0.000000
  9
$TDUPDATE
 40
0.000000
  9
$TDINDWG
 40
0.000000
  9
$TDUSRTIMER
 40
0.000000
  9
$USRTIMER
 70
     1
  9
$ANGBASE
 50
0.000000
  9
$ANGDIR
 70
     0
  9
$PDMODE
 70
     0
  9
$PDSIZE
 40
0.000000
  9
$PLINEWID
 40
0.000000
  9
$COORDS
 70
     2
  9
$USERI1
 70
     0
  9
$USERI2
 70
     0
  9
$USERI3
 70
     0
  9
$USERI4
 70
     0
  9
$USERI5
 70
     0
  9
$USERR1
 40
0.000000
  9
$USERR2
 40
0.000000
  9
$USERR3
 40
0.000000
  9
$USERR4
 40
0.000000
  9
$USERR5
 40
0.000000
  0
ENDSEC
  0
SECTION
  2
TABLES
  0
TABLE
  2
LTYPE
 70
     5
  0
LTYPE
  2
CONTINUOUS
 70
    64
  3
Solid line
 72
    65
 73
     0
 40
0.0
  0
LTYPE
  2
HIDDEN
 70
    64
  3
------------------------
 72
    65
 73
     2
 40
12.6
 49
8.4
 49
-4.2
  0
LTYPE
  2
DOT
 70
    64
  3
････････････････････････
 72
    65
 73
     2
 40
8.0
 49
6.0
 49
-2.0
  0
LTYPE
  2
DASHDOT
 70
    64
  3
--･--･--･--･--･--･--･--
 72
    65
 73
     4
 40
50.5
 49
30.0
 49
-9.0
 49
2.5
 49
-9.0
  0
LTYPE
  2
DIVIDE
 70
    64
  3
--･･--･･--･･--･･--･･--
 72
    65
 73
     6
 40
58.0
 49
30.0
 49
-9.0
 49
2.5
 49
-5.0
 49
2.5
 49
-9.0
  0
ENDTAB
  0
TABLE
  2
LAYER
 70
1
  0
LAYER
  2
1
 70
64
 62
7
  6
CONTINUOUS
  0
ENDTAB
  0
TABLE
  2
STYLE
 70
     2
  0
STYLE
  2
STANDARD
 70
    64
 40
0.0
 41
1.0
 50
0.0
 71
     0
 42
0.2
  3
TXT
  4

  0
STYLE
  2
KANJI
 70
    64
 40
0.0
 41
1.0
 50
0.0
 71
     0
 42
0.2
  3
TXT
  4
BIGFONT
  0
ENDTAB
  0
TABLE
  2
VIEW
 70
     0
  0
ENDTAB
  0
ENDSEC
  0
SECTION
  2
BLOCKS
  0
BLOCK
  8
1
 62
7
  6
CONTINUOUS
  2
*D1
 70
    65
 10
0.0
 20
0.0
  0
LINE
  8
1
 62
7
  6
CONTINUOUS
 10
1402.273658
 20
553.645417
 11
1402.273658
 21
510.312716
  0
LINE
  8
1
 62
7
  6
CONTINUOUS
 10
1412.273658
 20
527.312716
 11
1375.316928
 21
527.312716
  0
LINE
  8
1
 62
7
  6
CONTINUOUS
 10
1412.273658
 20
515.312716
 11
1375.316928
 21
515.312716
  0
CIRCLE
  8
1
 62
7
  6
CONTINUOUS
 10
1402.273658
 20
527.312716
 40
1.500000
  0
CIRCLE
  8
1
 62
7
  6
CONTINUOUS
 10
1402.273658
 20
527.312716
 40
0.750000
  0
CIRCLE
  8
1
 62
7
  6
CONTINUOUS
 10
1402.273658
 20
515.312716
 40
1.500000
  0
CIRCLE
  8
1
 62
7
  6
CONTINUOUS
 10
1402.273658
 20
515.312716
 40
0.750000
  0
TEXT
  8
1
 62
7
  6
CONTINUOUS
 10
1402.273658
 20
528.645417
 40
20.000000
 41
0.500000
  1
12
  7
KANJI
 50
90.000000
 51
30.000000
  0
ENDBLK
  0
BLOCK
  8
1
 62
7
  6
CONTINUOUS
  2
*D2
 70
    65
 10
0.0
 20
0.0
  0
LINE
  8
1
 62
7
  6
CONTINUOUS
 10
1665.304975
 20
928.527778
 11
1665.304975
 21
823.527778
  0
LINE
  8
1
 62
7
  6
CONTINUOUS
 10
1655.304975
 20
928.527778
 11
1683.670935
 21
928.527778
  0
LINE
  8
1
 62
7
  6
CONTINUOUS
 10
1655.304975
 20
823.527778
 11
1683.670935
 21
823.527778
  0
CIRCLE
  8
1
 62
7
  6
CONTINUOUS
 10
1665.304975
 20
928.527778
 40
1.500000
  0
CIRCLE
  8
1
 62
7
  6
CONTINUOUS
 10
1665.304975
 20
928.527778
 40
0.750000
  0
CIRCLE
  8
1
 62
7
  6
CONTINUOUS
 10
1665.304975
 20
823.527778
 40
1.500000
  0
CIRCLE
  8
1
 62
7
  6
CONTINUOUS
 10
1665.304975
 20
823.527778
 40
0.750000
  0
TEXT
  8
1
 62
7
  6
CONTINUOUS
 10
1665.304975
 20
851.027778
 40
20.000000
 41
0.625000
  1
115φ
  7
KANJI
 50
90.000000
 51
30.000000
  0
ENDBLK
  0
BLOCK
  8
1
 62
7
  6
CONTINUOUS
  2
*D3
 70
    65
 10
0.0
 20
0.0
  0
LINE
  8
1
 62
7
  6
CONTINUOUS
 10
1467.670935
 20
938.527778
 11
1507.670935
 21
938.527778
  0
LINE
  8
1
 62
7
  6
CONTINUOUS
 10
1472.670935
 20
948.527778
 11
1472.670935
 21
881.027778
  0
LINE
  8
1
 62
7
  6
CONTINUOUS
 10
1502.670935
 20
948.527778
 11
1502.670935
 21
881.027778
  0
CIRCLE
  8
1
 62
7
  6
CONTINUOUS
 10
1472.670935
 20
938.527778
 40
1.500000
  0
CIRCLE
  8
1
 62
7
  6
CONTINUOUS
 10
1472.670935
 20
938.527778
 40
0.750000
  0
CIRCLE
  8
1
 62
7
  6
CONTINUOUS
 10
1502.670935
 20
938.527778
 40
1.500000
  0
CIRCLE
  8
1
 62
7
  6
CONTINUOUS
 10
1502.670935
 20
938.527778
 40
0.750000
  0
TEXT
  8
1
 62
7
  6
CONTINUOUS
 10
1477.670935
 20
938.527778
 40
20.000000
 41
0.500000
  1
30
  7
KANJI
 50
0.000000
 51
30.000000
  0
ENDBLK
  0
BLOCK
  8
1
 62
7
  6
CONTINUOUS
  2
*D4
 70
    65
 10
0.0
 20
0.0
  0
LINE
  8
1
 62
7
  6
CONTINUOUS
 10
383.957612
 20
1106.527778
 11
383.957612
 21
643.527778
  0
LINE
  8
1
 62
7
  6
CONTINUOUS
 10
373.957612
 20
1106.527778
 11
400.507494
 21
1106.527778
  0
LINE
  8
1
 62
7
  6
CONTINUOUS
 10
373.957612
 20
643.527778
 11
400.507494
 21
643.527778
  0
CIRCLE
  8
1
 62
7
  6
CONTINUOUS
 10
383.957612
 20
1106.527778
 40
1.500000
  0
CIRCLE
  8
1
 62
7
  6
CONTINUOUS
 10
383.957612
 20
1106.527778
 40
0.750000
  0
CIRCLE
  8
1
 62
7
  6
CONTINUOUS
 10
383.957612
 20
643.527778
 40
1.500000
  0
CIRCLE
  8
1
 62
7
  6
CONTINUOUS
 10
383.957612
 20
643.527778
 40
0.750000
  0
TEXT
  8
1
 62
7
  6
CONTINUOUS
 10
383.957612
 20
860.027778
 40
20.000000
 41
0.500000
  1
463
  7
KANJI
 50
90.000000
 51
30.000000
  0
ENDBLK
  0
BLOCK
  8
1
 62
7
  6
CONTINUOUS
  2
*D5
 70
    65
 10
0.0
 20
0.0
  0
LINE
  8
1
 62
7
  6
CONTINUOUS
 10
410.507494
 20
1106.527778
 11
410.507494
 21
1081.527778
  0
LINE
  8
1
 62
7
  6
CONTINUOUS
 10
400.507494
 20
1106.527778
 11
472.723171
 21
1106.527778
  0
LINE
  8
1
 62
7
  6
CONTINUOUS
 10
400.507494
 20
1081.527778
 11
472.723171
 21
1081.527778
  0
CIRCLE
  8
1
 62
7
  6
CONTINUOUS
 10
410.507494
 20
1106.527778
 40
1.500000
  0
CIRCLE
  8
1
 62
7
  6
CONTINUOUS
 10
410.507494
 20
1106.527778
 40
0.750000
  0
CIRCLE
  8
1
 62
7
  6
CONTINUOUS
 10
410.507494
 20
1081.527778
 40
1.500000
  0
CIRCLE
  8
1
 62
7
  6
CONTINUOUS
 10
410.507494
 20
1081.527778
 40
0.750000
  0
TEXT
  8
1
 62
7
  6
CONTINUOUS
 10
410.507494
 20
1084.027778
 40
20.000000
 41
0.500000
  1
25
  7
KANJI
 50
90.000000
 51
30.000000
  0
ENDBLK
  0
BLOCK
  8
1
 62
7
  6
CONTINUOUS
  2
*D6
 70
    65
 10
0.0
 20
0.0
  0
LINE
  8
1
 62
7
  6
CONTINUOUS
 10
410.507494
 20
1081.527778
 11
410.507494
 21
668.527778
  0
LINE
  8
1
 62
7
  6
CONTINUOUS
 10
400.507494
 20
668.527778
 11
472.723171
 21
668.527778
  0
CIRCLE
  8
1
 62
7
  6
CONTINUOUS
 10
410.507494
 20
668.527778
 40
1.500000
  0
CIRCLE
  8
1
 62
7
  6
CONTINUOUS
 10
410.507494
 20
668.527778
 40
0.750000
  0
TEXT
  8
1
 62
7
  6
CONTINUOUS
 10
410.507494
 20
860.027778
 40
20.000000
 41
0.500000
  1
413
  7
KANJI
 50
90.000000
 51
30.000000
  0
ENDBLK
  0
BLOCK
  8
1
 62
7
  6
CONTINUOUS
  2
*D7
 70
    65
 10
0.0
 20
0.0
  0
LINE
  8
1
 62
7
  6
CONTINUOUS
 10
410.507494
 20
668.527778
 11
410.507494
 21
643.527778
  0
LINE
  8
1
 62
7
  6
CONTINUOUS
 10
400.507494
 20
643.527778
 11
472.723171
 21
643.527778
  0
CIRCLE
  8
1
 62
7
  6
CONTINUOUS
 10
410.507494
 20
643.527778
 40
1.500000
  0
CIRCLE
  8
1
 62
7
  6
CONTINUOUS
 10
410.507494
 20
643.527778
 40
0.750000
  0
TEXT
  8
1
 62
7
  6
CONTINUOUS
 10
410.507494
 20
646.027778
 40
20.000000
 41
0.500000
  1
25
  7
KANJI
 50
90.000000
 51
30.000000
  0
ENDBLK
  0
BLOCK
  8
1
 62
7
  6
CONTINUOUS
  2
*D8
 70
    65
 10
0.0
 20
0.0
  0
LINE
  8
1
 62
7
  6
CONTINUOUS
 10
633.003528
 20
875.027778
 11
748.003528
 21
875.027778
  0
CIRCLE
  8
1
 62
7
  6
CONTINUOUS
 10
633.003528
 20
875.027778
 40
1.500000
  0
CIRCLE
  8
1
 62
7
  6
CONTINUOUS
 10
633.003528
 20
875.027778
 40
0.750000
  0
CIRCLE
  8
1
 62
7
  6
CONTINUOUS
 10
748.003528
 20
875.027778
 40
1.500000
  0
CIRCLE
  8
1
 62
7
  6
CONTINUOUS
 10
748.003528
 20
875.027778
 40
0.750000
  0
TEXT
  8
1
 62
7
  6
CONTINUOUS
 10
665.503528
 20
875.027778
 40
20.000000
 41
0.625000
  1
φ115
  7
KANJI
 50
-0.000000
 51
30.000000
  0
ENDBLK
  0
BLOCK
  8
1
 62
7
  6
CONTINUOUS
  2
*D9
 70
    65
 10
0.0
 20
0.0
  0
LINE
  8
1
 62
7
  6
CONTINUOUS
 10
543.316926
 20
769.903793
 11
688.316926
 21
769.903793
  0
LINE
  8
1
 62
7
  6
CONTINUOUS
 10
543.316926
 20
759.903793
 11
543.316926
 21
865.027808
  0
LINE
  8
1
 62
7
  6
CONTINUOUS
 10
688.316926
 20
759.903793
 11
688.316926
 21
865.027778
  0
CIRCLE
  8
1
 62
7
  6
CONTINUOUS
 10
543.316926
 20
769.903793
 40
1.500000
  0
CIRCLE
  8
1
 62
7
  6
CONTINUOUS
 10
543.316926
 20
769.903793
 40
0.750000
  0
CIRCLE
  8
1
 62
7
  6
CONTINUOUS
 10
688.316926
 20
769.903793
 40
1.500000
  0
CIRCLE
  8
1
 62
7
  6
CONTINUOUS
 10
688.316926
 20
769.903793
 40
0.750000
  0
TEXT
  8
1
 62
7
  6
CONTINUOUS
 10
600.816926
 20
769.903793
 40
20.000000
 41
0.500000
  1
145
  7
KANJI
 50
0.000000
 51
30.000000
  0
ENDBLK
  0
BLOCK
  8
1
 62
7
  6
CONTINUOUS
  2
*D10
 70
    65
 10
0.0
 20
0.0
  0
LINE
  8
1
 62
7
  6
CONTINUOUS
 10
927.348990
 20
875.027778
 11
1042.348990
 21
875.027778
  0
CIRCLE
  8
1
 62
7
  6
CONTINUOUS
 10
927.348990
 20
875.027778
 40
1.500000
  0
CIRCLE
  8
1
 62
7
  6
CONTINUOUS
 10
927.348990
 20
875.027778
 40
0.750000
  0
CIRCLE
  8
1
 62
7
  6
CONTINUOUS
 10
1042.348990
 20
875.027778
 40
1.500000
  0
CIRCLE
  8
1
 62
7
  6
CONTINUOUS
 10
1042.348990
 20
875.027778
 40
0.750000
  0
TEXT
  8
1
 62
7
  6
CONTINUOUS
 10
959.848990
 20
875.027778
 40
20.000000
 41
0.625000
  1
φ115
  7
KANJI
 50
-0.000000
 51
30.000000
  0
ENDBLK
  0
BLOCK
  8
1
 62
7
  6
CONTINUOUS
  2
*D11
 70
    65
 10
0.0
 20
0.0
  0
LINE
  8
1
 62
7
  6
CONTINUOUS
 10
518.316926
 20
1218.072917
 11
1353.316926
 21
1218.072917
  0
LINE
  8
1
 62
7
  6
CONTINUOUS
 10
518.316926
 20
1228.072917
 11
518.316926
 21
1116.527778
  0
LINE
  8
1
 62
7
  6
CONTINUOUS
 10
1353.316926
 20
1228.072917
 11
1353.316926
 21
1116.527778
  0
CIRCLE
  8
1
 62
7
  6
CONTINUOUS
 10
518.316926
 20
1218.072917
 40
1.500000
  0
CIRCLE
  8
1
 62
7
  6
CONTINUOUS
 10
518.316926
 20
1218.072917
 40
0.750000
  0
CIRCLE
  8
1
 62
7
  6
CONTINUOUS
 10
1353.316926
 20
1218.072917
 40
1.500000
  0
CIRCLE
  8
1
 62
7
  6
CONTINUOUS
 10
1353.316926
 20
1218.072917
 40
0.750000
  0
TEXT
  8
1
 62
7
  6
CONTINUOUS
 10
920.816926
 20
1218.072917
 40
20.000000
 41
0.500000
  1
835
  7
KANJI
 50
0.000000
 51
30.000000
  0
ENDBLK
  0
BLOCK
  8
1
 62
7
  6
CONTINUOUS
  2
*D12
 70
    65
 10
0.0
 20
0.0
  0
LINE
  8
1
 62
7
  6
CONTINUOUS
 10
518.316926
 20
1184.609375
 11
543.316926
 21
1184.609375
  0
LINE
  8
1
 62
7
  6
CONTINUOUS
 10
518.316926
 20
1194.609375
 11
518.316926
 21
1116.527778
  0
LINE
  8
1
 62
7
  6
CONTINUOUS
 10
543.316926
 20
1194.609375
 11
543.316926
 21
1116.527778
  0
CIRCLE
  8
1
 62
7
  6
CONTINUOUS
 10
518.316926
 20
1184.609375
 40
1.500000
  0
CIRCLE
  8
1
 62
7
  6
CONTINUOUS
 10
518.316926
 20
1184.609375
 40
0.750000
  0
CIRCLE
  8
1
 62
7
  6
CONTINUOUS
 10
543.316926
 20
1184.609375
 40
1.500000
  0
CIRCLE
  8
1
 62
7
  6
CONTINUOUS
 10
543.316926
 20
1184.609375
 40
0.750000
  0
TEXT
  8
1
 62
7
  6
CONTINUOUS
 10
520.816926
 20
1184.609375
 40
20.000000
 41
0.500000
  1
25
  7
KANJI
 50
0.000000
 51
30.000000
  0
ENDBLK
  0
BLOCK
  8
1
 62
7
  6
CONTINUOUS
  2
*D13
 70
    65
 10
0.0
 20
0.0
  0
LINE
  8
1
 62
7
  6
CONTINUOUS
 10
543.316926
 20
1184.609375
 11
1328.316926
 21
1184.609375
  0
LINE
  8
1
 62
7
  6
CONTINUOUS
 10
1328.316926
 20
1194.609375
 11
1328.316926
 21
1116.527778
  0
CIRCLE
  8
1
 62
7
  6
CONTINUOUS
 10
1328.316926
 20
1184.609375
 40
1.500000
  0
CIRCLE
  8
1
 62
7
  6
CONTINUOUS
 10
1328.316926
 20
1184.609375
 40
0.750000
  0
TEXT
  8
1
 62
7
  6
CONTINUOUS
 10
920.816926
 20
1184.609375
 40
20.000000
 41
0.500000
  1
785
  7
KANJI
 50
0.000000
 51
30.000000
  0
ENDBLK
  0
BLOCK
  8
1
 62
7
  6
CONTINUOUS
  2
*D14
 70
    65
 10
0.0
 20
0.0
  0
LINE
  8
1
 62
7
  6
CONTINUOUS
 10
1328.316926
 20
1184.609375
 11
1353.316926
 21
1184.609375
  0
LINE
  8
1
 62
7
  6
CONTINUOUS
 10
1353.316926
 20
1194.609375
 11
1353.316926
 21
1116.527778
  0
CIRCLE
  8
1
 62
7
  6
CONTINUOUS
 10
1353.316926
 20
1184.609375
 40
1.500000
  0
CIRCLE
  8
1
 62
7
  6
CONTINUOUS
 10
1353.316926
 20
1184.609375
 40
0.750000
  0
TEXT
  8
1
 62
7
  6
CONTINUOUS
 10
1330.816926
 20
1184.609375
 40
20.000000
 41
0.500000
  1
25
  7
KANJI
 50
0.000000
 51
30.000000
  0
ENDBLK
  0
BLOCK
  8
1
 62
7
  6
CONTINUOUS
  2
*D15
 70
    65
 10
0.0
 20
0.0
  0
LINE
  8
1
 62
7
  6
CONTINUOUS
 10
688.316926
 20
769.661458
 11
988.316926
 21
769.661458
  0
LINE
  8
1
 62
7
  6
CONTINUOUS
 10
688.316926
 20
759.661458
 11
688.316926
 21
865.027778
  0
LINE
  8
1
 62
7
  6
CONTINUOUS
 10
988.316926
 20
759.661458
 11
988.316926
 21
865.027778
  0
CIRCLE
  8
1
 62
7
  6
CONTINUOUS
 10
688.316926
 20
769.661458
 40
1.500000
  0
CIRCLE
  8
1
 62
7
  6
CONTINUOUS
 10
688.316926
 20
769.661458
 40
0.750000
  0
CIRCLE
  8
1
 62
7
  6
CONTINUOUS
 10
988.316926
 20
769.661458
 40
1.500000
  0
CIRCLE
  8
1
 62
7
  6
CONTINUOUS
 10
988.316926
 20
769.661458
 40
0.750000
  0
TEXT
  8
1
 62
7
  6
CONTINUOUS
 10
823.316926
 20
769.661458
 40
20.000000
 41
0.500000
  1
300
  7
KANJI
 50
0.000000
 51
30.000000
  0
ENDBLK
  0
BLOCK
  8
1
 62
7
  6
CONTINUOUS
  2
*D16
 70
    65
 10
0.0
 20
0.0
  0
LINE
  8
1
 62
7
  6
CONTINUOUS
 10
543.316926
 20
1151.145833
 11
818.316926
 21
1151.145833
  0
LINE
  8
1
 62
7
  6
CONTINUOUS
 10
543.316926
 20
1161.145833
 11
543.316926
 21
1116.527778
  0
LINE
  8
1
 62
7
  6
CONTINUOUS
 10
818.316926
 20
1161.145833
 11
818.316926
 21
1116.527778
  0
CIRCLE
  8
1
 62
7
  6
CONTINUOUS
 10
543.316926
 20
1151.145833
 40
1.500000
  0
CIRCLE
  8
1
 62
7
  6
CONTINUOUS
 10
543.316926
 20
1151.145833
 40
0.750000
  0
CIRCLE
  8
1
 62
7
  6
CONTINUOUS
 10
818.316926
 20
1151.145833
 40
1.500000
  0
CIRCLE
  8
1
 62
7
  6
CONTINUOUS
 10
818.316926
 20
1151.145833
 40
0.750000
  0
TEXT
  8
1
 62
7
  6
CONTINUOUS
 10
665.816926
 20
1151.145833
 40
20.000000
 41
0.500000
  1
275
  7
KANJI
 50
0.000000
 51
30.000000
  0
ENDBLK
  0
BLOCK
  8
1
 62
7
  6
CONTINUOUS
  2
*D17
 70
    65
 10
0.0
 20
0.0
  0
LINE
  8
1
 62
7
  6
CONTINUOUS
 10
818.316926
 20
1151.145833
 11
853.316926
 21
1151.145833
  0
LINE
  8
1
 62
7
  6
CONTINUOUS
 10
853.316926
 20
1161.145833
 11
853.316926
 21
1116.527778
  0
CIRCLE
  8
1
 62
7
  6
CONTINUOUS
 10
853.316926
 20
1151.145833
 40
1.500000
  0
CIRCLE
  8
1
 62
7
  6
CONTINUOUS
 10
853.316926
 20
1151.145833
 40
0.750000
  0
TEXT
  8
1
 62
7
  6
CONTINUOUS
 10
825.816926
 20
1151.145833
 40
20.000000
 41
0.500000
  1
35
  7
KANJI
 50
0.000000
 51
30.000000
  0
ENDBLK
  0
BLOCK
  8
1
 62
7
  6
CONTINUOUS
  2
*D18
 70
    65
 10
0.0
 20
0.0
  0
LINE
  8
1
 62
7
  6
CONTINUOUS
 10
853.316926
 20
1151.145833
 11
1328.316926
 21
1151.145833
  0
LINE
  8
1
 62
7
  6
CONTINUOUS
 10
1328.316926
 20
1161.145833
 11
1328.316926
 21
1116.527778
  0
CIRCLE
  8
1
 62
7
  6
CONTINUOUS
 10
1328.316926
 20
1151.145833
 40
1.500000
  0
CIRCLE
  8
1
 62
7
  6
CONTINUOUS
 10
1328.316926
 20
1151.145833
 40
0.750000
  0
TEXT
  8
1
 62
7
  6
CONTINUOUS
 10
1075.816926
 20
1151.145833
 40
20.000000
 41
0.500000
  1
475
  7
KANJI
 50
0.000000
 51
30.000000
  0
ENDBLK
  0
BLOCK
  8
1
 62
7
  6
CONTINUOUS
  2
*D19
 70
    65
 10
0.0
 20
0.0
  0
LINE
  8
1
 62
7
  6
CONTINUOUS
 10
899.799770
 20
492.312716
 11
899.799770
 21
532.312716
  0
LINE
  8
1
 62
7
  6
CONTINUOUS
 10
909.799770
 20
497.312716
 11
865.867641
 21
497.312716
  0
LINE
  8
1
 62
7
  6
CONTINUOUS
 10
909.799770
 20
527.312716
 11
865.867641
 21
527.312716
  0
CIRCLE
  8
1
 62
7
  6
CONTINUOUS
 10
899.799770
 20
497.312716
 40
1.500000
  0
CIRCLE
  8
1
 62
7
  6
CONTINUOUS
 10
899.799770
 20
497.312716
 40
0.750000
  0
CIRCLE
  8
1
 62
7
  6
CONTINUOUS
 10
899.799770
 20
527.312716
 40
1.500000
  0
CIRCLE
  8
1
 62
7
  6
CONTINUOUS
 10
899.799770
 20
527.312716
 40
0.750000
  0
TEXT
  8
1
 62
7
  6
CONTINUOUS
 10
899.799770
 20
502.312716
 40
20.000000
 41
0.500000
  1
30
  7
KANJI
 50
90.000000
 51
30.000000
  0
ENDBLK
  0
BLOCK
  8
1
 62
7
  6
CONTINUOUS
  2
*D20
 70
    65
 10
0.0
 20
0.0
  0
LINE
  8
1
 62
7
  6
CONTINUOUS
 10
930.836491
 20
343.537092
 11
1045.797360
 21
343.537092
  0
LINE
  8
1
 62
7
  6
CONTINUOUS
 10
930.836491
 20
353.537092
 11
930.836491
 21
306.312716
  0
LINE
  8
1
 62
7
  6
CONTINUOUS
 10
1045.797360
 20
353.537092
 11
1045.797360
 21
306.312716
  0
CIRCLE
  8
1
 62
7
  6
CONTINUOUS
 10
930.836491
 20
343.537092
 40
1.500000
  0
CIRCLE
  8
1
 62
7
  6
CONTINUOUS
 10
930.836491
 20
343.537092
 40
0.750000
  0
CIRCLE
  8
1
 62
7
  6
CONTINUOUS
 10
1045.797360
 20
343.537092
 40
1.500000
  0
CIRCLE
  8
1
 62
7
  6
CONTINUOUS
 10
1045.797360
 20
343.537092
 40
0.750000
  0
TEXT
  8
1
 62
7
  6
CONTINUOUS
 10
963.316926
 20
343.537092
 40
20.000000
 41
0.625000
  1
115φ
  7
KANJI
 50
0.000000
 51
30.000000
  0
ENDBLK
  0
BLOCK
  8
1
 62
7
  6
CONTINUOUS
  2
*D21
 70
    65
 10
0.0
 20
0.0
  0
LINE
  8
1
 62
7
  6
CONTINUOUS
 10
710.816926
 20
227.356077
 11
1010.816926
 21
227.356077
  0
LINE
  8
1
 62
7
  6
CONTINUOUS
 10
710.816926
 20
217.356077
 11
710.816926
 21
253.624284
  0
LINE
  8
1
 62
7
  6
CONTINUOUS
 10
1010.816926
 20
217.356077
 11
1010.816926
 21
253.624284
  0
CIRCLE
  8
1
 62
7
  6
CONTINUOUS
 10
710.816926
 20
227.356077
 40
1.500000
  0
CIRCLE
  8
1
 62
7
  6
CONTINUOUS
 10
710.816926
 20
227.356077
 40
0.750000
  0
CIRCLE
  8
1
 62
7
  6
CONTINUOUS
 10
1010.816926
 20
227.356077
 40
1.500000
  0
CIRCLE
  8
1
 62
7
  6
CONTINUOUS
 10
1010.816926
 20
227.356077
 40
0.750000
  0
TEXT
  8
1
 62
7
  6
CONTINUOUS
 10
845.816926
 20
227.356077
 40
20.000000
 41
0.500000
  1
300
  7
KANJI
 50
0.000000
 51
30.000000
  0
ENDBLK
  0
BLOCK
  8
1
 62
7
  6
CONTINUOUS
  2
*D22
 70
    65
 10
0.0
 20
0.0
  0
LINE
  8
1
 62
7
  6
CONTINUOUS
 10
1433.061719
 20
1106.527778
 11
1433.061719
 21
635.527778
  0
LINE
  8
1
 62
7
  6
CONTINUOUS
 10
1423.061719
 20
1106.527778
 11
1462.670935
 21
1106.527778
  0
LINE
  8
1
 62
7
  6
CONTINUOUS
 10
1423.061719
 20
635.527778
 11
1462.670935
 21
635.527778
  0
CIRCLE
  8
1
 62
7
  6
CONTINUOUS
 10
1433.061719
 20
1106.527778
 40
1.500000
  0
CIRCLE
  8
1
 62
7
  6
CONTINUOUS
 10
1433.061719
 20
1106.527778
 40
0.750000
  0
CIRCLE
  8
1
 62
7
  6
CONTINUOUS
 10
1433.061719
 20
635.527778
 40
1.500000
  0
CIRCLE
  8
1
 62
7
  6
CONTINUOUS
 10
1433.061719
 20
635.527778
 40
0.750000
  0
TEXT
  8
1
 62
7
  6
CONTINUOUS
 10
1433.061719
 20
856.027778
 40
20.000000
 41
0.500000
  1
463
  7
KANJI
 50
90.000000
 51
30.000000
  0
ENDBLK
  0
BLOCK
  8
1
 62
7
  6
CONTINUOUS
  2
*D23
 70
    65
 10
0.0
 20
0.0
  0
LINE
  8
1
 62
7
  6
CONTINUOUS
 10
1472.670935
 20
1191.273573
 11
1718.670935
 21
1191.273573
  0
LINE
  8
1
 62
7
  6
CONTINUOUS
 10
1472.670935
 20
1201.273573
 11
1472.670935
 21
1116.527778
  0
LINE
  8
1
 62
7
  6
CONTINUOUS
 10
1718.670935
 20
1201.273573
 11
1718.670935
 21
1116.527778
  0
CIRCLE
  8
1
 62
7
  6
CONTINUOUS
 10
1472.670935
 20
1191.273573
 40
1.500000
  0
CIRCLE
  8
1
 62
7
  6
CONTINUOUS
 10
1472.670935
 20
1191.273573
 40
0.750000
  0
CIRCLE
  8
1
 62
7
  6
CONTINUOUS
 10
1718.670935
 20
1191.273573
 40
1.500000
  0
CIRCLE
  8
1
 62
7
  6
CONTINUOUS
 10
1718.670935
 20
1191.273573
 40
0.750000
  0
TEXT
  8
1
 62
7
  6
CONTINUOUS
 10
1580.670935
 20
1191.273573
 40
20.000000
 41
0.500000
  1
231
  7
KANJI
 50
0.000000
 51
30.000000
  0
ENDBLK
  0
BLOCK
  8
1
 62
7
  6
CONTINUOUS
  2
*D24
 70
    65
 10
0.0
 20
0.0
  0
LINE
  8
1
 62
7
  6
CONTINUOUS
 10
1472.670935
 20
1165.614628
 11
1693.670935
 21
1165.614628
  0
LINE
  8
1
 62
7
  6
CONTINUOUS
 10
1472.670935
 20
1175.614628
 11
1472.670935
 21
1116.527778
  0
LINE
  8
1
 62
7
  6
CONTINUOUS
 10
1693.670935
 20
1175.614628
 11
1693.670935
 21
1116.527778
  0
CIRCLE
  8
1
 62
7
  6
CONTINUOUS
 10
1472.670935
 20
1165.614628
 40
1.500000
  0
CIRCLE
  8
1
 62
7
  6
CONTINUOUS
 10
1472.670935
 20
1165.614628
 40
0.750000
  0
CIRCLE
  8
1
 62
7
  6
CONTINUOUS
 10
1693.670935
 20
1165.614628
 40
1.500000
  0
CIRCLE
  8
1
 62
7
  6
CONTINUOUS
 10
1693.670935
 20
1165.614628
 40
0.750000
  0
TEXT
  8
1
 62
7
  6
CONTINUOUS
 10
1568.170935
 20
1165.614628
 40
20.000000
 41
0.500000
  1
211
  7
KANJI
 50
0.000000
 51
30.000000
  0
ENDBLK
  0
BLOCK
  8
1
 62
7
  6
CONTINUOUS
  2
*D25
 70
    65
 10
0.0
 20
0.0
  0
LINE
  8
1
 62
7
  6
CONTINUOUS
 10
1474.626736
 20
282.812716
 11
1474.626736
 21
527.312716
  0
LINE
  8
1
 62
7
  6
CONTINUOUS
 10
1484.626736
 20
282.812716
 11
1422.273658
 21
282.812716
  0
LINE
  8
1
 62
7
  6
CONTINUOUS
 10
1484.626736
 20
527.312716
 11
1422.273658
 21
527.312716
  0
CIRCLE
  8
1
 62
7
  6
CONTINUOUS
 10
1474.626736
 20
282.812716
 40
1.500000
  0
CIRCLE
  8
1
 62
7
  6
CONTINUOUS
 10
1474.626736
 20
282.812716
 40
0.750000
  0
CIRCLE
  8
1
 62
7
  6
CONTINUOUS
 10
1474.626736
 20
527.312716
 40
1.500000
  0
CIRCLE
  8
1
 62
7
  6
CONTINUOUS
 10
1474.626736
 20
527.312716
 40
0.750000
  0
TEXT
  8
1
 62
7
  6
CONTINUOUS
 10
1474.626736
 20
390.062716
 40
20.000000
 41
0.500000
  1
231
  7
KANJI
 50
90.000000
 51
30.000000
  0
ENDBLK
  0
BLOCK
  8
1
 62
7
  6
CONTINUOUS
  2
*D26
 70
    65
 10
0.0
 20
0.0
  0
LINE
  8
1
 62
7
  6
CONTINUOUS
 10
1443.394097
 20
307.812716
 11
1443.394097
 21
527.312716
  0
LINE
  8
1
 62
7
  6
CONTINUOUS
 10
1453.394097
 20
307.812716
 11
1422.273658
 21
307.812716
  0
LINE
  8
1
 62
7
  6
CONTINUOUS
 10
1453.394097
 20
527.312716
 11
1422.273658
 21
527.312716
  0
CIRCLE
  8
1
 62
7
  6
CONTINUOUS
 10
1443.394097
 20
307.812716
 40
1.500000
  0
CIRCLE
  8
1
 62
7
  6
CONTINUOUS
 10
1443.394097
 20
307.812716
 40
0.750000
  0
CIRCLE
  8
1
 62
7
  6
CONTINUOUS
 10
1443.394097
 20
527.312716
 40
1.500000
  0
CIRCLE
  8
1
 62
7
  6
CONTINUOUS
 10
1443.394097
 20
527.312716
 40
0.750000
  0
TEXT
  8
1
 62
7
  6
CONTINUOUS
 10
1443.394097
 20
402.562716
 40
20.000000
 41
0.500000
  1
211
  7
KANJI
 50
90.000000
 51
30.000000
  0
ENDBLK
  0
BLOCK
  8
1
 62
7
  6
CONTINUOUS
  2
*D27
 70
    65
 10
0.0
 20
0.0
  0
LINE
  8
1
 62
7
  6
CONTINUOUS
 10
630.836491
 20
374.286143
 11
745.816926
 21
374.286143
  0
LINE
  8
1
 62
7
  6
CONTINUOUS
 10
630.836491
 20
384.286143
 11
630.836491
 21
346.312716
  0
LINE
  8
1
 62
7
  6
CONTINUOUS
 10
745.816926
 20
384.286143
 11
745.816926
 21
346.312716
  0
CIRCLE
  8
1
 62
7
  6
CONTINUOUS
 10
630.836491
 20
374.286143
 40
1.500000
  0
CIRCLE
  8
1
 62
7
  6
CONTINUOUS
 10
630.836491
 20
374.286143
 40
0.750000
  0
CIRCLE
  8
1
 62
7
  6
CONTINUOUS
 10
745.816926
 20
374.286143
 40
1.500000
  0
CIRCLE
  8
1
 62
7
  6
CONTINUOUS
 10
745.816926
 20
374.286143
 40
0.750000
  0
TEXT
  8
1
 62
7
  6
CONTINUOUS
 10
663.326708
 20
374.286143
 40
20.000000
 41
0.625000
  1
115φ
  7
KANJI
 50
0.000000
 51
30.000000
  0
ENDBLK
  0
BLOCK
  8
1
 62
7
  6
CONTINUOUS
  2
*D28
 70
    65
 10
0.0
 20
0.0
  0
LINE
  8
1
 62
7
  6
CONTINUOUS
 10
383.957612
 20
527.312716
 11
383.957612
 21
307.812716
  0
LINE
  8
1
 62
7
  6
CONTINUOUS
 10
373.957612
 20
527.312716
 11
508.316926
 21
527.312716
  0
LINE
  8
1
 62
7
  6
CONTINUOUS
 10
373.957612
 20
307.812716
 11
508.316926
 21
307.812716
  0
CIRCLE
  8
1
 62
7
  6
CONTINUOUS
 10
383.957612
 20
527.312716
 40
1.500000
  0
CIRCLE
  8
1
 62
7
  6
CONTINUOUS
 10
383.957612
 20
527.312716
 40
0.750000
  0
CIRCLE
  8
1
 62
7
  6
CONTINUOUS
 10
383.957612
 20
307.812716
 40
1.500000
  0
CIRCLE
  8
1
 62
7
  6
CONTINUOUS
 10
383.957612
 20
307.812716
 40
0.750000
  0
TEXT
  8
1
 62
7
  6
CONTINUOUS
 10
383.957612
 20
402.562716
 40
20.000000
 41
0.500000
  1
201
  7
KANJI
 50
90.000000
 51
30.000000
  0
ENDBLK
  0
BLOCK
  8
1
 62
7
  6
CONTINUOUS
  2
*D29
 70
    65
 10
0.0
 20
0.0
  0
LINE
  8
1
 62
7
  6
CONTINUOUS
 10
410.507494
 20
527.312716
 11
410.507494
 21
328.808045
  0
LINE
  8
1
 62
7
  6
CONTINUOUS
 10
400.507494
 20
527.312716
 11
508.316926
 21
527.312716
  0
LINE
  8
1
 62
7
  6
CONTINUOUS
 10
400.507494
 20
328.808045
 11
508.316926
 21
328.808045
  0
CIRCLE
  8
1
 62
7
  6
CONTINUOUS
 10
410.507494
 20
527.312716
 40
1.500000
  0
CIRCLE
  8
1
 62
7
  6
CONTINUOUS
 10
410.507494
 20
527.312716
 40
0.750000
  0
CIRCLE
  8
1
 62
7
  6
CONTINUOUS
 10
410.507494
 20
328.808045
 40
1.500000
  0
CIRCLE
  8
1
 62
7
  6
CONTINUOUS
 10
410.507494
 20
328.808045
 40
0.750000
  0
TEXT
  8
1
 62
7
  6
CONTINUOUS
 10
410.507494
 20
413.060381
 40
20.000000
 41
0.500000
  1
181
  7
KANJI
 50
90.000000
 51
30.000000
  0
ENDBLK
  0
BLOCK
  8
1
 62
7
  6
CONTINUOUS
  2
*D30
 70
    65
 10
0.0
 20
0.0
  0
LINE
  8
1
 62
7
  6
CONTINUOUS
 10
452.856676
 20
1081.527778
 11
452.856676
 21
875.027747
  0
LINE
  8
1
 62
7
  6
CONTINUOUS
 10
442.856676
 20
1081.527778
 11
508.316926
 21
1081.527778
  0
LINE
  8
1
 62
7
  6
CONTINUOUS
 10
442.856676
 20
875.027747
 11
508.316926
 21
875.027747
  0
CIRCLE
  8
1
 62
7
  6
CONTINUOUS
 10
452.856676
 20
1081.527778
 40
1.500000
  0
CIRCLE
  8
1
 62
7
  6
CONTINUOUS
 10
452.856676
 20
1081.527778
 40
0.750000
  0
CIRCLE
  8
1
 62
7
  6
CONTINUOUS
 10
452.856676
 20
875.027747
 40
1.500000
  0
CIRCLE
  8
1
 62
7
  6
CONTINUOUS
 10
452.856676
 20
875.027747
 40
0.750000
  0
TEXT
  8
1
 62
7
  6
CONTINUOUS
 10
452.856676
 20
953.277763
 40
20.000000
 41
0.500000
  1
206.5
  7
KANJI
 50
90.000000
 51
30.000000
  0
ENDBLK
  0
ENDSEC
  0
SECTION
  2
ENTITIES
  0
TEXT
  8
1
 62
7
  6
CONTINUOUS
 10
39.900000
 20
144.259375
 40
24.750000
 41
0.800000
  1
取引先：
  7
KANJI
 50
0.000000
 51
0.000000
  0
TEXT
  8
1
 62
7
  6
CONTINUOUS
 10
119.100000
 20
156.634375
 40
12.375000
 41
0.400000
  1

  7
KANJI
 50
0.000000
 51
0.000000
  0
TEXT
  8
1
 62
7
  6
CONTINUOUS
 10
119.100000
 20
144.259375
 40
12.375000
 41
0.400000
  1

  7
KANJI
 50
0.000000
 51
0.000000
  0
TEXT
  8
1
 62
7
  6
CONTINUOUS
 10
39.900000
 20
94.759375
 40
24.750000
 41
0.800000
  1
物件名：
  7
KANJI
 50
0.000000
 51
0.000000
  0
TEXT
  8
1
 62
7
  6
CONTINUOUS
 10
119.100000
 20
107.134375
 40
12.375000
 41
0.400000
  1

  7
KANJI
 50
0.000000
 51
0.000000
  0
TEXT
  8
1
 62
7
  6
CONTINUOUS
 10
119.100000
 20
94.759375
 40
12.375000
 41
0.400000
  1

  7
KANJI
 50
0.000000
 51
0.000000
  0
TEXT
  8
1
 62
7
  6
CONTINUOUS
 10
39.900000
 20
45.259375
 40
24.750000
 41
0.700000
  1
納 期：
  7
KANJI
 50
0.000000
 51
0.000000
  0
TEXT
  8
1
 62
7
  6
CONTINUOUS
 10
109.200000
 20
57.634375
 40
12.375000
 41
0.400000
  1

  7
KANJI
 50
0.000000
 51
0.000000
  0
TEXT
  8
1
 62
7
  6
CONTINUOUS
 10
109.200000
 20
45.259375
 40
12.375000
 41
0.400000
  1

  7
KANJI
 50
0.000000
 51
0.000000
  0
LINE
  8
1
 62
7
  6
CONTINUOUS
 10
30.000000
 20
188.500000
 11
30.000000
 21
40.000000
  0
LINE
  8
1
 62
7
  6
CONTINUOUS
 10
30.000000
 20
188.500000
 11
327.000000
 21
188.500000
  0
LINE
  8
1
 62
7
  6
CONTINUOUS
 10
327.000000
 20
188.500000
 11
327.000000
 21
139.000000
  0
LINE
  8
1
 62
7
  6
CONTINUOUS
 10
327.000000
 20
139.000000
 11
30.000000
 21
139.000000
  0
LINE
  8
1
 62
7
  6
CONTINUOUS
 10
30.000000
 20
139.000000
 11
30.000000
 21
89.500000
  0
LINE
  8
1
 62
7
  6
CONTINUOUS
 10
30.000000
 20
89.500000
 11
327.000000
 21
89.500000
  0
LINE
  8
1
 62
7
  6
CONTINUOUS
 10
327.000000
 20
89.500000
 11
327.000000
 21
139.000000
  0
LINE
  8
1
 62
7
  6
CONTINUOUS
 10
327.000000
 20
139.000000
 11
327.000000
 21
40.000000
  0
LINE
  8
1
 62
7
  6
CONTINUOUS
 10
327.000000
 20
40.000000
 11
30.000000
 21
40.000000
  0
TEXT
  8
1
 62
7
  6
CONTINUOUS
 10
341.850000
 20
144.259375
 40
24.750000
 41
0.800000
  1
　色柄：
  7
KANJI
 50
0.000000
 51
0.000000
  0
TEXT
  8
1
 62
7
  6
CONTINUOUS
 10
421.050000
 20
156.634375
 40
12.375000
 41
0.400000
  1

  7
KANJI
 50
0.000000
 51
0.000000
  0
TEXT
  8
1
 62
7
  6
CONTINUOUS
 10
421.050000
 20
144.259375
 40
12.375000
 41
0.400000
  1

  7
KANJI
 50
0.000000
 51
0.000000
  0
TEXT
  8
1
 62
7
  6
CONTINUOUS
 10
341.850000
 20
94.759375
 40
24.750000
 41
0.800000
  1
　厚み：
  7
KANJI
 50
0.000000
 51
0.000000
  0
TEXT
  8
1
 62
7
  6
CONTINUOUS
 10
421.050000
 20
107.134375
 40
12.375000
 41
0.400000
  1

  7
KANJI
 50
0.000000
 51
0.000000
  0
TEXT
  8
1
 62
7
  6
CONTINUOUS
 10
421.050000
 20
94.759375
 40
12.375000
 41
0.400000
  1

  7
KANJI
 50
0.000000
 51
0.000000
  0
TEXT
  8
1
 62
7
  6
CONTINUOUS
 10
341.850000
 20
45.259375
 40
24.750000
 41
0.800000
  1
付属品：
  7
KANJI
 50
0.000000
 51
0.000000
  0
TEXT
  8
1
 62
7
  6
CONTINUOUS
 10
421.050000
 20
57.634375
 40
12.375000
 41
0.400000
  1

  7
KANJI
 50
0.000000
 51
0.000000
  0
TEXT
  8
1
 62
7
  6
CONTINUOUS
 10
421.050000
 20
45.259375
 40
12.375000
 41
0.400000
  1

  7
KANJI
 50
0.000000
 51
0.000000
  0
LINE
  8
1
 62
7
  6
CONTINUOUS
 10
429.073950
 20
40.000000
 11
429.073950
 21
188.500000
  0
TEXT
  8
1
 62
7
  6
CONTINUOUS
 10
438.973950
 20
164.987500
 40
19.800000
 41
1.000000
  1
単色シリーズ
  7
KANJI
 50
0.000000
 51
0.000000
  0
TEXT
  8
1
 62
7
  6
CONTINUOUS
 10
557.773950
 20
174.887500
 40
9.900000
 41
0.500000
  1

  7
KANJI
 50
0.000000
 51
0.000000
  0
TEXT
  8
1
 62
7
  6
CONTINUOUS
 10
557.773950
 20
164.987500
 40
9.900000
 41
0.500000
  1

  7
KANJI
 50
0.000000
 51
0.000000
  0
LINE
  8
1
 62
7
  6
CONTINUOUS
 10
1615.489950
 20
40.000000
 11
1615.489950
 21
188.500000
  0
TEXT
  8
1
 62
7
  6
CONTINUOUS
 10
1235.923950
 20
94.759375
 40
24.750000
 41
0.800000
  1
埼玉県比企郡川島町表２１－５
  7
KANJI
 50
0.000000
 51
0.000000
  0
TEXT
  8
1
 62
7
  6
CONTINUOUS
 10
1513.123950
 20
107.134375
 40
12.375000
 41
0.400000
  1

  7
KANJI
 50
0.000000
 51
0.000000
  0
TEXT
  8
1
 62
7
  6
CONTINUOUS
 10
1513.123950
 20
94.759375
 40
12.375000
 41
0.400000
  1

  7
KANJI
 50
0.000000
 51
0.000000
  0
TEXT
  8
1
 62
7
  6
CONTINUOUS
 10
1235.923950
 20
70.009375
 40
24.750000
 41
0.647059
  1
  TEL ０４９２－９７－７２７１
  7
KANJI
 50
0.000000
 51
0.000000
  0
TEXT
  8
1
 62
7
  6
CONTINUOUS
 10
1495.798950
 20
82.384375
 40
12.375000
 41
0.388235
  1

  7
KANJI
 50
0.000000
 51
0.000000
  0
TEXT
  8
1
 62
7
  6
CONTINUOUS
 10
1495.798950
 20
70.009375
 40
12.375000
 41
0.388235
  1

  7
KANJI
 50
0.000000
 51
0.000000
  0
TEXT
  8
1
 62
7
  6
CONTINUOUS
 10
1235.923950
 20
45.259375
 40
24.750000
 41
0.647059
  1
  FAX ０４９２－９７－７２７３
  7
KANJI
 50
0.000000
 51
0.000000
  0
TEXT
  8
1
 62
7
  6
CONTINUOUS
 10
1495.798950
 20
57.634375
 40
12.375000
 41
0.388235
  1

  7
KANJI
 50
0.000000
 51
0.000000
  0
TEXT
  8
1
 62
7
  6
CONTINUOUS
 10
1495.798950
 20
45.259375
 40
12.375000
 41
0.388235
  1

  7
KANJI
 50
0.000000
 51
0.000000
  0
TEXT
  8
1
 62
7
  6
CONTINUOUS
 10
1235.923950
 20
117.653125
 40
34.650000
 41
1.285714
  1
㈱三井ＰＣＯ
  7
KANJI
 50
0.000000
 51
0.000000
  0
TEXT
  8
1
 62
7
  6
CONTINUOUS
 10
1468.573950
 20
134.978125
 40
17.325000
 41
0.642857
  1

  7
KANJI
 50
0.000000
 51
0.000000
  0
TEXT
  8
1
 62
7
  6
CONTINUOUS
 10
1468.573950
 20
117.653125
 40
17.325000
 41
0.642857
  1

  7
KANJI
 50
0.000000
 51
0.000000
  0
LINE
  8
1
 62
7
  6
CONTINUOUS
 10
429.073950
 20
188.500000
 11
578.420400
 21
188.500000
  0
LINE
  8
1
 62
7
  6
CONTINUOUS
 10
578.420400
 20
188.500000
 11
722.960400
 21
188.500000
  0
LINE
  8
1
 62
7
  6
CONTINUOUS
 10
722.960400
 20
188.500000
 11
872.851350
 21
188.500000
  0
LINE
  8
1
 62
7
  6
CONTINUOUS
 10
872.851350
 20
40.000000
 11
429.073950
 21
40.000000
  0
LINE
  8
1
 62
7
  6
CONTINUOUS
 10
429.073950
 20
139.000000
 11
872.851350
 21
139.000000
  0
LINE
  8
1
 62
7
  6
CONTINUOUS
 10
872.851350
 20
89.500000
 11
429.073950
 21
89.500000
  0
LINE
  8
1
 62
7
  6
CONTINUOUS
 10
578.420400
 20
188.500000
 11
578.420400
 21
89.500000
  0
LINE
  8
1
 62
7
  6
CONTINUOUS
 10
906.348000
 20
139.000000
 11
872.851350
 21
139.000000
  0
LINE
  8
1
 62
7
  6
CONTINUOUS
 10
872.851350
 20
139.000000
 11
906.348000
 21
139.000000
  0
LINE
  8
1
 62
7
  6
CONTINUOUS
 10
906.348000
 20
89.500000
 11
872.851350
 21
89.500000
  0
LINE
  8
1
 62
7
  6
CONTINUOUS
 10
872.851350
 20
89.500000
 11
906.348000
 21
89.500000
  0
LINE
  8
1
 62
7
  6
CONTINUOUS
 10
578.420400
 20
89.500000
 11
578.420400
 21
40.000000
  0
LINE
  8
1
 62
7
  6
CONTINUOUS
 10
872.851350
 20
188.500000
 11
906.348000
 21
188.500000
  0
LINE
  8
1
 62
7
  6
CONTINUOUS
 10
906.348000
 20
40.000000
 11
872.851350
 21
40.000000
  0
LINE
  8
1
 62
7
  6
CONTINUOUS
 10
1129.098000
 20
188.500000
 11
1129.098000
 21
40.000000
  0
LINE
  8
1
 62
7
  6
CONTINUOUS
 10
1129.098000
 20
40.000000
 11
1615.489950
 21
40.000000
  0
LINE
  8
1
 62
7
  6
CONTINUOUS
 10
1615.489950
 20
188.500000
 11
1129.098000
 21
188.500000
  0
LINE
  8
1
 62
7
  6
CONTINUOUS
 10
906.348000
 20
188.500000
 11
1121.673000
 21
188.500000
  0
LINE
  8
1
 62
7
  6
CONTINUOUS
 10
1121.673000
 20
188.500000
 11
1121.673000
 21
40.000000
  0
LINE
  8
1
 62
7
  6
CONTINUOUS
 10
1121.673000
 20
40.000000
 11
906.348000
 21
40.000000
  0
LINE
  8
1
 62
7
  6
CONTINUOUS
 10
906.348000
 20
139.000000
 11
1121.673000
 21
139.000000
  0
LINE
  8
1
 62
7
  6
CONTINUOUS
 10
1121.673000
 20
89.500000
 11
906.348000
 21
89.500000
  0
TEXT
  8
1
 62
7
  6
CONTINUOUS
 10
931.360845
 20
164.987500
 40
19.800000
 41
1.000000
  1
モンタナシリーズ
  7
KANJI
 50
0.000000
 51
0.000000
  0
TEXT
  8
1
 62
7
  6
CONTINUOUS
 10
1089.760845
 20
174.887500
 40
9.900000
 41
0.500000
  1

  7
KANJI
 50
0.000000
 51
0.000000
  0
TEXT
  8
1
 62
7
  6
CONTINUOUS
 10
1089.760845
 20
164.987500
 40
9.900000
 41
0.500000
  1

  7
KANJI
 50
0.000000
 51
0.000000
  0
TEXT
  8
1
 62
7
  6
CONTINUOUS
 10
755.473485
 20
164.987500
 40
19.800000
 41
1.000000
  1
シエラシリーズ
  7
KANJI
 50
0.000000
 51
0.000000
  0
TEXT
  8
1
 62
7
  6
CONTINUOUS
 10
894.073485
 20
174.887500
 40
9.900000
 41
0.500000
  1

  7
KANJI
 50
0.000000
 51
0.000000
  0
TEXT
  8
1
 62
7
  6
CONTINUOUS
 10
894.073485
 20
164.987500
 40
9.900000
 41
0.500000
  1

  7
KANJI
 50
0.000000
 51
0.000000
  0
LINE
  8
1
 62
7
  6
CONTINUOUS
 10
919.192260
 20
188.500000
 11
919.192260
 21
40.000000
  0
TEXT
  8
1
 62
7
  6
CONTINUOUS
 10
588.320400
 20
161.275000
 40
19.800000
 41
1.000000
  1
ベナーロシリーズ
  7
KANJI
 50
0.000000
 51
0.000000
  0
TEXT
  8
1
 62
7
  6
CONTINUOUS
 10
746.720400
 20
171.175000
 40
9.900000
 41
0.500000
  1

  7
KANJI
 50
0.000000
 51
0.000000
  0
TEXT
  8
1
 62
7
  6
CONTINUOUS
 10
746.720400
 20
161.275000
 40
9.900000
 41
0.500000
  1

  7
KANJI
 50
0.000000
 51
0.000000
  0
LINE
  8
1
 62
7
  6
CONTINUOUS
 10
749.190450
 20
188.500000
 11
749.190450
 21
40.000000
  0
TEXT
  8
1
 62
7
  6
CONTINUOUS
 10
429.073950
 20
48.380350
 40
24.750000
 41
0.800000
  1
シーム剤  本
  7
KANJI
 50
0.000000
 51
0.000000
  0
TEXT
  8
1
 62
7
  6
CONTINUOUS
 10
557.773950
 20
60.755350
 40
12.375000
 41
0.466667
  1

  7
KANJI
 50
0.000000
 51
0.000000
  0
TEXT
  8
1
 62
7
  6
CONTINUOUS
 10
557.773950
 20
48.380350
 40
12.375000
 41
0.466667
  1

  7
KANJI
 50
0.000000
 51
0.000000
  0
TEXT
  8
1
 62
7
  6
CONTINUOUS
 10
924.142260
 20
52.589335
 40
24.750000
 41
1.000000
  1
梱包個数　　梱
  7
KANJI
 50
0.000000
 51
0.000000
  0
TEXT
  8
1
 62
7
  6
CONTINUOUS
 10
1097.392260
 20
64.964335
 40
12.375000
 41
0.500000
  1

  7
KANJI
 50
0.000000
 51
0.000000
  0
TEXT
  8
1
 62
7
  6
CONTINUOUS
 10
1097.392260
 20
52.589335
 40
12.375000
 41
0.500000
  1

  7
KANJI
 50
0.000000
 51
0.000000
  0
TEXT
  8
1
 62
7
  6
CONTINUOUS
 10
735.879900
 20
52.271050
 40
24.750000
 41
0.746667
  1
 断熱テープ   本
  7
KANJI
 50
0.000000
 51
0.000000
  0
TEXT
  8
1
 62
7
  6
CONTINUOUS
 10
900.467400
 20
64.646050
 40
12.375000
 41
0.466667
  1

  7
KANJI
 50
0.000000
 51
0.000000
  0
TEXT
  8
1
 62
7
  6
CONTINUOUS
 10
900.467400
 20
52.271050
 40
12.375000
 41
0.466667
  1

  7
KANJI
 50
0.000000
 51
0.000000
  0
TEXT
  8
1
 62
7
  6
CONTINUOUS
 10
583.370400
 20
47.910595
 40
24.750000
 41
0.656250
  1
瞬間接着剤 　本
  7
KANJI
 50
0.000000
 51
0.000000
  0
TEXT
  8
1
 62
7
  6
CONTINUOUS
 10
713.307900
 20
60.285595
 40
12.375000
 41
0.350000
  1

  7
KANJI
 50
0.000000
 51
0.000000
  0
TEXT
  8
1
 62
7
  6
CONTINUOUS
 10
713.307900
 20
47.910595
 40
12.375000
 41
0.350000
  1

  7
KANJI
 50
0.000000
 51
0.000000
  0
TEXT
  8
1
 62
7
  6
CONTINUOUS
 10
438.973950
 20
97.234375
 40
24.750000
 41
1.041667
  1
   ㎜
  7
KANJI
 50
0.000000
 51
0.000000
  0
TEXT
  8
1
 62
7
  6
CONTINUOUS
 10
525.598950
 20
109.609375
 40
12.375000
 41
0.833333
  1

  7
KANJI
 50
0.000000
 51
0.000000
  0
TEXT
  8
1
 62
7
  6
CONTINUOUS
 10
525.598950
 20
97.234375
 40
12.375000
 41
0.833333
  1

  7
KANJI
 50
0.000000
 51
0.000000
  0
TEXT
  8
1
 62
7
  6
CONTINUOUS
 10
588.320400
 20
97.234375
 40
24.750000
 41
1.041667
  1
   ㎜
  7
KANJI
 50
0.000000
 51
0.000000
  0
TEXT
  8
1
 62
7
  6
CONTINUOUS
 10
674.945400
 20
109.609375
 40
12.375000
 41
0.833333
  1

  7
KANJI
 50
0.000000
 51
0.000000
  0
TEXT
  8
1
 62
7
  6
CONTINUOUS
 10
674.945400
 20
97.234375
 40
12.375000
 41
0.833333
  1

  7
KANJI
 50
0.000000
 51
0.000000
  0
TEXT
  8
1
 62
7
  6
CONTINUOUS
 10
755.473485
 20
97.234375
 40
24.750000
 41
1.041667
  1
   ㎜
  7
KANJI
 50
0.000000
 51
0.000000
  0
TEXT
  8
1
 62
7
  6
CONTINUOUS
 10
842.098485
 20
109.609375
 40
12.375000
 41
0.833333
  1

  7
KANJI
 50
0.000000
 51
0.000000
  0
TEXT
  8
1
 62
7
  6
CONTINUOUS
 10
842.098485
 20
97.234375
 40
12.375000
 41
0.833333
  1

  7
KANJI
 50
0.000000
 51
0.000000
  0
TEXT
  8
1
 62
7
  6
CONTINUOUS
 10
924.142260
 20
97.234375
 40
24.750000
 41
1.050000
  1
    ㎜
  7
KANJI
 50
0.000000
 51
0.000000
  0
TEXT
  8
1
 62
7
  6
CONTINUOUS
 10
1035.517260
 20
109.609375
 40
12.375000
 41
0.875000
  1

  7
KANJI
 50
0.000000
 51
0.000000
  0
TEXT
  8
1
 62
7
  6
CONTINUOUS
 10
1035.517260
 20
97.234375
 40
12.375000
 41
0.875000
  1

  7
KANJI
 50
0.000000
 51
0.000000
  0
TEXT
  8
1
 62
7
  6
CONTINUOUS
 10
1138.998000
 20
159.109375
 40
24.750000
 41
0.800000
  1
デュポンコーリアン認定加工／施工工場　　Ｍｐｃｏ　
  7
KANJI
 50
0.000000
 51
0.000000
  0
TEXT
  8
1
 62
7
  6
CONTINUOUS
 10
1633.998000
 20
171.484375
 40
12.375000
 41
0.400000
  1

  7
KANJI
 50
0.000000
 51
0.000000
  0
TEXT
  8
1
 62
7
  6
CONTINUOUS
 10
1633.998000
 20
159.109375
 40
12.375000
 41
0.400000
  1

  7
KANJI
 50
0.000000
 51
0.000000
  0
LINE
  8
1
 62
7
  6
CONTINUOUS
 10
1622.914950
 20
40.000000
 11
1734.473100
 21
40.000000
  0
TEXT
  8
1
 62
7
  6
CONTINUOUS
 10
1627.864950
 20
95.378125
 40
34.650000
 41
0.714286
  1
図面番号
  7
KANJI
 50
0.000000
 51
0.000000
  0
TEXT
  8
1
 62
7
  6
CONTINUOUS
 10
1726.864950
 20
112.703125
 40
17.325000
 41
0.357143
  1

  7
KANJI
 50
0.000000
 51
0.000000
  0
TEXT
  8
1
 62
7
  6
CONTINUOUS
 10
1726.864950
 20
95.378125
 40
17.325000
 41
0.357143
  1

  7
KANJI
 50
0.000000
 51
0.000000
  0
LINE
  8
1
 62
7
  6
CONTINUOUS
 10
1622.914950
 20
139.000000
 11
1622.914950
 21
40.000000
  0
LINE
  8
1
 62
7
  6
CONTINUOUS
 10
1622.914950
 20
40.000000
 11
1734.473100
 21
40.000000
  0
LINE
  8
1
 62
7
  6
CONTINUOUS
 10
1734.473100
 20
40.000000
 11
1734.473100
 21
139.000000
  0
LINE
  8
1
 62
7
  6
CONTINUOUS
 10
1734.473100
 20
139.000000
 11
1622.914950
 21
139.000000
  0
LINE
  8
1
 62
7
  6
CONTINUOUS
 10
1622.914950
 20
139.000000
 11
1622.914950
 21
188.500000
  0
LINE
  8
1
 62
7
  6
CONTINUOUS
 10
1622.914950
 20
188.500000
 11
1734.473100
 21
188.500000
  0
LINE
  8
1
 62
7
  6
CONTINUOUS
 10
1734.473100
 20
188.500000
 11
1734.473100
 21
139.000000
  0
TEXT
  8
1
 62
7
  6
CONTINUOUS
 10
1627.864950
 20
161.275000
 40
19.800000
 41
0.875000
  1
CAD-NO
  7
KANJI
 50
0.000000
 51
0.000000
  0
TEXT
  8
1
 62
7
  6
CONTINUOUS
 10
1723.152450
 20
171.175000
 40
9.900000
 41
0.875000
  1

  7
KANJI
 50
0.000000
 51
0.000000
  0
TEXT
  8
1
 62
7
  6
CONTINUOUS
 10
1723.152450
 20
161.275000
 40
9.900000
 41
0.875000
  1

  7
KANJI
 50
0.000000
 51
0.000000
  0
LINE
  8
1
 62
7
  6
DASHDOT
 10
1763.270963
 20
871.027778
 11
1741.850535
 21
871.027778
  0
LINE
  8
1
 62
7
  6
CONTINUOUS
 10
1365.316928
 20
527.312716
 11
1340.316928
 21
527.312716
  0
LINE
  8
1
 62
7
  6
CONTINUOUS
 10
1340.316928
 20
527.312716
 11
1328.565056
 21
324.254311
  0
ARC
  8
1
 62
7
  6
CONTINUOUS
 10
1308.598466
 20
325.409865
 40
20.000000
 50
-87.196776
 51
-3.312261
  0
ARC
  8
1
 62
7
  6
CONTINUOUS
 10
1308.572129
 20
324.954791
 40
30.000000
 50
-87.189053
 51
-3.312261
  0
LINE
  8
1
 62
7
  6
CONTINUOUS
 10
1365.316928
 20
527.312716
 11
1362.316928
 21
515.312716
  0
LINE
  8
1
 62
7
  6
CONTINUOUS
 10
1349.475577
 20
512.486049
 11
1338.522013
 21
323.221461
  0
LINE
  8
1
 62
7
  6
CONTINUOUS
 10
1362.316928
 20
515.312716
 11
1352.470566
 21
515.312716
  0
ARC
  8
1
 62
7
  6
CONTINUOUS
 10
1352.470566
 20
512.312716
 40
3.000000
 50
90.000000
 51
176.687739
  0
DIMENSION
  8
1
 62
7
  6
CONTINUOUS
  2
*D1
 10
1402.273658
 20
527.312716
 11
1402.273658
 21
538.645417
 70
     0
  1
12
 13
1375.316928
 23
527.312716
 14
1375.316928
 24
515.312716
 50
-90.000000
  0
LINE
  8
1
 62
7
  6
CONTINUOUS
 10
1472.670935
 20
1106.527778
 11
1472.670935
 21
1081.527778
  0
LINE
  8
1
 62
7
  6
CONTINUOUS
 10
1472.670935
 20
635.527778
 11
1472.670935
 21
660.527778
  0
LINE
  8
1
 62
7
  6
CONTINUOUS
 10
1718.670935
 20
823.527778
 11
1708.670935
 21
823.527778
  0
LINE
  8
1
 62
7
  6
CONTINUOUS
 10
1718.670935
 20
918.527778
 11
1708.670935
 21
918.527778
  0
LINE
  8
1
 62
7
  6
CONTINUOUS
 10
1472.670935
 20
1081.527778
 11
1676.100240
 21
1070.021595
  0
LINE
  8
1
 62
7
  6
CONTINUOUS
 10
1694.920357
 20
1051.473406
 11
1703.670935
 21
928.527778
  0
ARC
  8
1
 62
7
  6
CONTINUOUS
 10
1674.970823
 20
1050.053510
 40
20.000000
 50
4.071126
 51
86.762738
  0
ARC
  8
1
 62
7
  6
CONTINUOUS
 10
1675.628156
 20
1050.016331
 40
30.000000
 50
4.087061
 51
86.762738
  0
LINE
  8
1
 62
7
  6
CONTINUOUS
 10
1694.920357
 20
690.582149
 11
1703.670935
 21
813.527778
  0
LINE
  8
1
 62
7
  6
CONTINUOUS
 10
1472.670935
 20
660.527778
 11
1676.100240
 21
672.033960
  0
ARC
  8
1
 62
7
  6
CONTINUOUS
 10
1674.970823
 20
692.002045
 40
20.000000
 50
-86.762738
 51
-4.071126
  0
ARC
  8
1
 62
7
  6
CONTINUOUS
 10
1675.628156
 20
692.039225
 40
30.000000
 50
-86.762738
 51
-4.087061
  0
LINE
  8
1
 62
7
  6
CONTINUOUS
 10
1472.670935
 20
660.527778
 11
1472.670935
 21
1081.527778
  0
LINE
  8
1
 62
7
  6
CONTINUOUS
 10
1472.670935
 20
1106.527778
 11
1484.670935
 21
1103.527778
  0
LINE
  8
1
 62
7
  6
CONTINUOUS
 10
1484.670935
 20
1103.527778
 11
1484.670935
 21
1093.700139
  0
LINE
  8
1
 62
7
  6
CONTINUOUS
 10
1677.322281
 20
1079.968459
 11
1487.501523
 21
1090.704927
  0
ARC
  8
1
 62
7
  6
CONTINUOUS
 10
1487.670935
 20
1093.700139
 40
3.000000
 50
180.000000
 51
-93.237262
  0
LINE
  8
1
 62
7
  6
CONTINUOUS
 10
1677.322281
 20
662.087097
 11
1487.501523
 21
651.350629
  0
ARC
  8
1
 62
7
  6
CONTINUOUS
 10
1487.670935
 20
648.355416
 40
3.000000
 50
93.237262
 51
180.000000
  0
LINE
  8
1
 62
7
  6
CONTINUOUS
 10
1484.670935
 20
648.355416
 11
1484.670935
 21
638.527778
  0
LINE
  8
1
 62
7
  6
CONTINUOUS
 10
1472.670935
 20
635.527778
 11
1484.670935
 21
638.527778
  0
DIMENSION
  8
1
 62
7
  6
CONTINUOUS
  2
*D2
 10
1665.304975
 20
928.527778
 11
1665.304975
 21
876.027778
 70
     0
  1
115φ
 13
1683.670935
 23
928.527778
 14
1683.670935
 24
823.527778
 50
-90.000000
  0
LINE
  8
1
 62
7
  6
DASHDOT
 10
1682.161590
 20
871.027778
 11
1713.670935
 21
871.027778
  0
LINE
  8
1
 62
7
  6
CONTINUOUS
 10
1713.538213
 20
940.385233
 11
1705.551863
 21
1052.154497
  0
LINE
  8
1
 62
7
  6
CONTINUOUS
 10
1706.670935
 20
928.527778
 11
1703.670935
 21
928.527778
  0
LINE
  8
1
 62
7
  6
CONTINUOUS
 10
1708.670935
 20
918.527778
 11
1708.670935
 21
926.527778
  0
ARC
  8
1
 62
7
  6
DASHDOT
 10
1706.670935
 20
926.527778
 40
2.000000
 50
0.000000
 51
90.000000
  0
LINE
  8
1
 62
7
  6
CONTINUOUS
 10
1706.670935
 20
813.527778
 11
1703.670935
 21
813.527778
  0
LINE
  8
1
 62
7
  6
CONTINUOUS
 10
1708.670935
 20
823.527778
 11
1708.670935
 21
815.527778
  0
ARC
  8
1
 62
7
  6
DASHDOT
 10
1706.670935
 20
815.527778
 40
2.000000
 50
-90.000000
 51
0.000000
  0
LINE
  8
1
 62
7
  6
CONTINUOUS
 10
1705.551863
 20
689.901059
 11
1713.538213
 21
801.670322
  0
LINE
  8
1
 62
7
  6
DOT
 10
1502.670935
 20
662.224610
 11
1502.670935
 21
1079.830945
  0
DIMENSION
  8
1
 62
7
  6
CONTINUOUS
  2
*D3
 10
1472.670935
 20
938.527778
 11
1487.670935
 21
938.527778
 70
     0
  1
30
 13
1472.670935
 23
881.027778
 14
1502.670935
 24
881.027778
 50
0.000000
  0
ARC
  8
1
 62
7
  6
DASHDOT
 10
1715.533127
 20
940.527778
 40
2.000000
 50
-175.912939
 51
-90.000000
  0
LINE
  8
1
 62
7
  6
CONTINUOUS
 10
1716.670935
 20
938.527778
 11
1715.533127
 21
938.527778
  0
LINE
  8
1
 62
7
  6
CONTINUOUS
 10
1718.670935
 20
936.527778
 11
1718.670935
 21
918.527778
  0
ARC
  8
1
 62
7
  6
DASHDOT
 10
1716.670935
 20
936.527778
 40
2.000000
 50
0.000000
 51
90.000000
  0
LINE
  8
1
 62
7
  6
CONTINUOUS
 10
1718.670935
 20
823.527778
 11
1713.670935
 21
823.527778
  0
ARC
  8
1
 62
7
  6
DASHDOT
 10
1715.533127
 20
801.527778
 40
2.000000
 50
90.000000
 51
175.912939
  0
LINE
  8
1
 62
7
  6
CONTINUOUS
 10
1715.533127
 20
803.527778
 11
1716.670935
 21
803.527778
  0
LINE
  8
1
 62
7
  6
CONTINUOUS
 10
1718.670935
 20
805.527778
 11
1718.670935
 21
823.527778
  0
ARC
  8
1
 62
7
  6
DASHDOT
 10
1716.670935
 20
805.527778
 40
2.000000
 50
-90.000000
 51
0.000000
  0
TEXT
  8
1
 62
7
  6
CONTINUOUS
 10
54.560220
 20
1095.782412
 40
30.000000
 41
0.833333
  1
100％アクリル製
  7
KANJI
 50
0.000000
 51
0.000000
  0
TEXT
  8
1
 62
7
  6
CONTINUOUS
 10
279.560220
 20
1110.782412
 40
15.000000
 41
0.500000
  1

  7
KANJI
 50
0.000000
 51
0.000000
  0
TEXT
  8
1
 62
7
  6
CONTINUOUS
 10
279.560220
 20
1095.782412
 40
15.000000
 41
0.500000
  1

  7
KANJI
 50
0.000000
 51
0.000000
  0
TEXT
  8
1
 62
7
  6
CONTINUOUS
 10
54.560220
 20
1025.782412
 40
30.000000
 41
1.000000
  1
専用排水金具は別売
  7
KANJI
 50
0.000000
 51
0.000000
  0
TEXT
  8
1
 62
7
  6
CONTINUOUS
 10
324.560220
 20
1040.782412
 40
15.000000
 41
0.500000
  1

  7
KANJI
 50
0.000000
 51
0.000000
  0
TEXT
  8
1
 62
7
  6
CONTINUOUS
 10
324.560220
 20
1025.782412
 40
15.000000
 41
0.500000
  1

  7
KANJI
 50
0.000000
 51
0.000000
  0
TEXT
  8
1
 62
7
  6
CONTINUOUS
 10
54.560220
 20
1060.782412
 40
30.000000
 41
0.750000
  1
色：白　only
  7
KANJI
 50
0.000000
 51
0.000000
  0
TEXT
  8
1
 62
7
  6
CONTINUOUS
 10
234.560220
 20
1075.782412
 40
15.000000
 41
0.500000
  1

  7
KANJI
 50
0.000000
 51
0.000000
  0
TEXT
  8
1
 62
7
  6
CONTINUOUS
 10
234.560220
 20
1060.782412
 40
15.000000
 41
0.500000
  1

  7
KANJI
 50
0.000000
 51
0.000000
  0
DIMENSION
  8
1
 62
7
  6
CONTINUOUS
  2
*D4
 10
383.957612
 20
1106.527778
 11
383.957612
 21
875.027778
 70
     0
  1
463
 13
400.507494
 23
1106.527778
 14
400.507494
 24
643.527778
 50
-90.000000
  0
DIMENSION
  8
1
 62
7
  6
CONTINUOUS
  2
*D5
 10
410.507494
 20
1106.527778
 11
410.507494
 21
1094.027778
 70
     0
  1
25
 13
472.723171
 23
1106.527778
 14
472.723171
 24
1081.527778
 50
-90.000000
  0
DIMENSION
  8
1
 62
7
  6
CONTINUOUS
  2
*D6
 10
410.507494
 20
1081.527778
 11
410.507494
 21
875.027778
 70
     0
  1
413
 13
410.507494
 23
1081.527778
 14
472.723171
 24
668.527778
 50
-90.000000
  0
DIMENSION
  8
1
 62
7
  6
CONTINUOUS
  2
*D7
 10
410.507494
 20
668.527778
 11
410.507494
 21
656.027778
 70
     0
  1
25
 13
410.507494
 23
668.527778
 14
472.723171
 24
643.527778
 50
-90.000000
  0
ARC
  8
1
 62
7
  6
CONTINUOUS
 10
935.816927
 20
-4918.472223
 40
6025.000001
 50
86.138520
 51
86.264808
  0
ARC
  8
1
 62
7
  6
CONTINUOUS
 10
589.569641
 20
1031.461628
 40
40.000000
 50
93.330484
 51
175.422172
  0
ARC
  8
1
 62
7
  6
CONTINUOUS
 10
1282.064210
 20
1031.461628
 40
40.000000
 50
4.577828
 51
86.669516
  0
ARC
  8
1
 62
7
  6
CONTINUOUS
 10
-671.683074
 20
875.027778
 40
2000.000000
 50
-4.577828
 51
4.577828
  0
ARC
  8
1
 62
7
  6
CONTINUOUS
 10
1282.064210
 20
718.593928
 40
40.000000
 50
-86.669516
 51
-4.577828
  0
ARC
  8
1
 62
7
  6
CONTINUOUS
 10
2543.316926
 20
875.027778
 40
2000.000000
 50
175.422172
 51
-175.422172
  0
ARC
  8
1
 62
7
  6
CONTINUOUS
 10
589.569641
 20
718.593928
 40
40.000000
 50
-175.422172
 51
-93.330484
  0
ARC
  8
1
 62
7
  6
CONTINUOUS
 10
589.569641
 20
1031.461628
 40
65.000000
 50
93.330484
 51
175.422172
  0
ARC
  8
1
 62
7
  6
CONTINUOUS
 10
935.816927
 20
-4918.472222
 40
6025.000000
 50
86.669516
 51
93.330484
  0
ARC
  8
1
 62
7
  6
CONTINUOUS
 10
1282.064210
 20
1031.461628
 40
65.000000
 50
4.577828
 51
86.669516
  0
ARC
  8
1
 62
7
  6
CONTINUOUS
 10
-671.683074
 20
875.027778
 40
2025.000000
 50
-4.577828
 51
4.577828
  0
ARC
  8
1
 62
7
  6
CONTINUOUS
 10
1282.064210
 20
718.593928
 40
65.000000
 50
-86.669516
 51
-4.577828
  0
ARC
  8
1
 62
7
  6
CONTINUOUS
 10
935.816926
 20
6668.527778
 40
6025.000000
 50
-93.330484
 51
-86.669516
  0
ARC
  8
1
 62
7
  6
CONTINUOUS
 10
2543.316926
 20
875.027778
 40
2025.000000
 50
175.422172
 51
-175.422172
  0
ARC
  8
1
 62
7
  6
CONTINUOUS
 10
589.569641
 20
718.593928
 40
65.000000
 50
-175.422172
 51
-93.330484
  0
CIRCLE
  8
1
 62
7
  6
CONTINUOUS
 10
690.503528
 20
875.027778
 40
57.500000
  0
CIRCLE
  8
1
 62
7
  6
CONTINUOUS
 10
690.503528
 20
875.027778
 40
47.500000
  0
DIMENSION
  8
1
 62
7
  6
CONTINUOUS
  2
*D8
 10
633.003528
 20
875.027778
 11
690.503528
 21
875.027778
 70
     3
  1
φ115
 13
633.003528
 23
875.027778
 14
748.003528
 24
875.027778
 15
748.003528
 25
875.027778
  0
DIMENSION
  8
1
 62
7
  6
CONTINUOUS
  2
*D9
 10
543.316926
 20
769.903793
 11
615.816926
 21
769.903793
 70
     0
  1
145
 13
543.316926
 23
865.027808
 14
688.316926
 24
865.027778
 50
0.000000
  0
CIRCLE
  8
1
 62
7
  6
CONTINUOUS
 10
984.848990
 20
875.027778
 40
57.500000
  0
CIRCLE
  8
1
 62
7
  6
CONTINUOUS
 10
984.848990
 20
875.027778
 40
47.500000
  0
DIMENSION
  8
1
 62
7
  6
CONTINUOUS
  2
*D10
 10
927.348990
 20
875.027778
 11
984.848990
 21
875.027778
 70
     3
  1
φ115
 13
927.348990
 23
875.027778
 14
1042.348990
 24
875.027778
 15
1042.348990
 25
875.027778
  0
DIMENSION
  8
1
 62
7
  6
CONTINUOUS
  2
*D11
 10
518.316926
 20
1218.072917
 11
935.816926
 21
1218.072917
 70
     0
  1
835
 13
518.316926
 23
1116.527778
 14
1353.316926
 24
1116.527778
 50
0.000000
  0
DIMENSION
  8
1
 62
7
  6
CONTINUOUS
  2
*D12
 10
518.316926
 20
1184.609375
 11
530.816926
 21
1184.609375
 70
     0
  1
25
 13
518.316926
 23
1116.527778
 14
543.316926
 24
1116.527778
 50
0.000000
  0
DIMENSION
  8
1
 62
7
  6
CONTINUOUS
  2
*D13
 10
543.316926
 20
1184.609375
 11
935.816926
 21
1184.609375
 70
     0
  1
785
 13
543.316926
 23
1184.609375
 14
1328.316926
 24
1116.527778
 50
0.000000
  0
DIMENSION
  8
1
 62
7
  6
CONTINUOUS
  2
*D14
 10
1328.316926
 20
1184.609375
 11
1340.816926
 21
1184.609375
 70
     0
  1
25
 13
1328.316926
 23
1184.609375
 14
1353.316926
 24
1116.527778
 50
0.000000
  0
LINE
  8
1
 62
7
  6
CONTINUOUS
 10
902.954519
 20
1081.320353
 11
931.341075
 21
1081.526108
  0
ARC
  8
1
 62
7
  6
CONTINUOUS
 10
903.316926
 20
1031.321667
 40
50.000000
 50
90.415292
 51
180.000000
  0
ARC
  8
1
 62
7
  6
CONTINUOUS
 10
935.816926
 20
-4918.472222
 40
6000.000000
 50
91.613162
 51
93.330484
  0
ARC
  8
1
 62
7
  6
CONTINUOUS
 10
768.316926
 20
1029.169642
 40
50.000000
 50
0.000000
 51
91.613162
  0
LINE
  8
1
 62
7
  6
CONTINUOUS
 10
853.316926
 20
718.752408
 11
853.316926
 21
1031.321667
  0
LINE
  8
1
 62
7
  6
CONTINUOUS
 10
902.973168
 20
668.753590
 11
935.817048
 21
668.527778
  0
ARC
  8
1
 62
7
  6
CONTINUOUS
 10
903.316926
 20
718.752408
 40
50.000000
 50
180.000000
 51
-90.393920
  0
ARC
  8
1
 62
7
  6
CONTINUOUS
 10
935.816926
 20
6668.527778
 40
6000.000000
 50
-93.330484
 51
-91.613162
  0
LINE
  8
1
 62
7
  6
CONTINUOUS
 10
818.316926
 20
720.885913
 11
818.316926
 21
1029.169642
  0
ARC
  8
1
 62
7
  6
CONTINUOUS
 10
768.316926
 20
720.885913
 40
50.000000
 50
-91.613162
 51
0.000000
  0
ARC
  8
1
 62
7
  6
CONTINUOUS
 10
898.678222
 20
-2077.748212
 40
3159.071459
 50
89.922441
 51
92.263806
  0
ARC
  8
1
 62
7
  6
CONTINUOUS
 10
906.007169
 20
4717.694523
 40
4048.942070
 50
-91.903746
 51
-90.042934
  0
DIMENSION
  8
1
 62
7
  6
CONTINUOUS
  2
*D15
 10
688.316926
 20
769.661458
 11
838.316926
 21
769.661458
 70
     0
  1
300
 13
688.316926
 23
865.027778
 14
988.316926
 24
865.027778
 50
0.000000
  0
DIMENSION
  8
1
 62
7
  6
CONTINUOUS
  2
*D16
 10
543.316926
 20
1151.145833
 11
680.816926
 21
1151.145833
 70
     0
  1
275
 13
543.316926
 23
1116.527778
 14
818.316926
 24
1116.527778
 50
0.000000
  0
DIMENSION
  8
1
 62
7
  6
CONTINUOUS
  2
*D17
 10
818.316926
 20
1151.145833
 11
835.816926
 21
1151.145833
 70
     0
  1
35
 13
818.316926
 23
1151.145833
 14
853.316926
 24
1116.527778
 50
0.000000
  0
DIMENSION
  8
1
 62
7
  6
CONTINUOUS
  2
*D18
 10
853.316926
 20
1151.145833
 11
1090.816926
 21
1151.145833
 70
     0
  1
475
 13
853.316926
 23
1151.145833
 14
1328.316926
 24
1116.527778
 50
0.000000
  0
ARC
  8
1
 62
7
  6
CONTINUOUS
 10
940.478146
 20
6571.396344
 40
5902.761905
 50
-90.364048
 51
-86.659911
  0
ARC
  8
1
 62
7
  6
CONTINUOUS
 10
940.124115
 20
-4823.940465
 40
5905.377796
 50
86.657952
 51
90.360633
  0
LINE
  8
1
 62
7
  6
CONTINUOUS
 10
518.316926
 20
527.312716
 11
543.316926
 21
527.312716
  0
LINE
  8
1
 62
7
  6
CONTINUOUS
 10
518.316926
 20
527.312716
 11
521.316926
 21
515.312716
  0
LINE
  8
1
 62
7
  6
CONTINUOUS
 10
521.316926
 20
515.312716
 11
531.163288
 21
515.312716
  0
ARC
  8
1
 62
7
  6
CONTINUOUS
 10
531.163288
 20
512.312716
 40
3.000000
 50
3.312261
 51
90.000000
  0
LINE
  8
1
 62
7
  6
CONTINUOUS
 10
543.316926
 20
527.312716
 11
641.114581
 21
527.312716
  0
LINE
  8
1
 62
7
  6
CONTINUOUS
 10
1244.843750
 20
527.312716
 11
1340.316928
 21
527.312716
  0
LINE
  8
1
 62
7
  6
CONTINUOUS
 10
1270.283581
 20
303.509832
 11
1309.576585
 21
305.433797
  0
LINE
  8
1
 62
7
  6
CONTINUOUS
 10
1267.846354
 20
292.919028
 11
1310.043347
 21
294.990887
  0
ARC
  8
1
 62
7
  6
CONTINUOUS
 10
882.620358
 20
319.098515
 40
20.000000
 50
-177.746957
 51
-95.944458
  0
ARC
  8
1
 62
7
  6
DASHDOT
 10
830.531745
 20
482.312716
 40
15.000000
 50
90.000000
 51
178.629549
  0
LINE
  8
1
 62
7
  6
DASHDOT
 10
830.531745
 20
497.312716
 11
841.424087
 21
497.312716
  0
LINE
  8
1
 62
7
  6
DASHDOT
 10
856.413376
 20
482.879476
 11
862.635819
 21
318.312257
  0
ARC
  8
1
 62
7
  6
DASHDOT
 10
841.424087
 20
482.312716
 40
15.000000
 50
2.165376
 51
90.000000
  0
ARC
  8
1
 62
7
  6
DASHDOT
 10
830.531745
 20
482.312716
 40
7.000000
 50
90.000000
 51
178.629549
  0
LINE
  8
1
 62
7
  6
DASHDOT
 10
841.405489
 20
489.312716
 11
830.531745
 21
489.312716
  0
LINE
  8
1
 62
7
  6
CONTINUOUS
 10
848.400917
 20
482.565682
 11
854.386074
 21
317.054207
  0
ARC
  8
1
 62
7
  6
DASHDOT
 10
841.405489
 20
482.312716
 40
7.000000
 50
2.071004
 51
90.000000
  0
DIMENSION
  8
1
 62
7
  6
CONTINUOUS
  2
*D19
 10
899.799770
 20
497.312716
 11
899.799770
 21
512.312716
 70
     0
  1
30
 13
865.867641
 23
497.312716
 14
865.867641
 24
527.312716
 50
90.000000
  0
LINE
  8
1
 62
7
  6
CONTINUOUS
 10
641.114581
 20
527.312716
 11
1244.843750
 21
527.312716
  0
LINE
  8
1
 62
7
  6
CONTINUOUS
 10
880.549071
 20
299.206060
 11
883.236000
 21
298.926286
  0
ARC
  8
1
 62
7
  6
CONTINUOUS
 10
884.366478
 20
318.138346
 40
30.000000
 50
-177.928996
 51
-107.171764
  0
LINE
  8
1
 62
7
  6
CONTINUOUS
 10
1036.666926
 20
291.312716
 11
1045.797360
 21
291.312716
  0
LINE
  8
1
 62
7
  6
CONTINUOUS
 10
1045.797360
 20
296.312716
 11
1045.797360
 21
291.312716
  0
LINE
  8
1
 62
7
  6
CONTINUOUS
 10
940.816926
 20
291.312716
 11
940.816926
 21
286.312716
  0
LINE
  8
1
 62
7
  6
CONTINUOUS
 10
1036.666926
 20
291.312716
 11
1036.666926
 21
286.312716
  0
LINE
  8
1
 62
7
  6
CONTINUOUS
 10
1036.666926
 20
286.312716
 11
1036.666926
 21
281.312716
  0
LINE
  8
1
 62
7
  6
CONTINUOUS
 10
1036.666926
 20
281.312716
 11
1055.797360
 21
281.312716
  0
LINE
  8
1
 62
7
  6
CONTINUOUS
 10
1055.797360
 20
281.312716
 11
1055.797360
 21
286.312716
  0
LINE
  8
1
 62
7
  6
CONTINUOUS
 10
920.836491
 20
281.312716
 11
940.816926
 21
281.312716
  0
LINE
  8
1
 62
7
  6
CONTINUOUS
 10
940.816926
 20
281.312716
 11
940.816926
 21
286.312716
  0
LINE
  8
1
 62
7
  6
DASHDOT
 10
988.316926
 20
328.556085
 11
988.316926
 21
248.407693
  0
DIMENSION
  8
1
 62
7
  6
CONTINUOUS
  2
*D20
 10
930.836491
 20
343.537092
 11
988.316926
 21
343.537092
 70
     0
  1
115φ
 13
930.836491
 23
306.312716
 14
1045.797360
 24
306.312716
 50
0.000000
  0
LINE
  8
1
 62
7
  6
CONTINUOUS
 10
930.836491
 20
296.312716
 11
930.836491
 21
293.312716
  0
LINE
  8
1
 62
7
  6
CONTINUOUS
 10
940.816926
 20
291.312716
 11
932.836491
 21
291.312716
  0
ARC
  8
1
 62
7
  6
CONTINUOUS
 10
932.836491
 20
293.312716
 40
2.000000
 50
180.000000
 51
-90.000000
  0
LINE
  8
1
 62
7
  6
CONTINUOUS
 10
920.836491
 20
284.531705
 11
920.836491
 21
281.312716
  0
ARC
  8
1
 62
7
  6
CONTINUOUS
 10
918.836491
 20
284.531705
 40
2.000000
 50
-0.000000
 51
83.370475
  0
DIMENSION
  8
1
 62
7
  6
CONTINUOUS
  2
*D21
 10
710.816926
 20
227.356077
 11
860.816926
 21
227.356077
 70
     0
  1
300
 13
710.816926
 23
253.624284
 14
1010.816926
 24
253.624284
 50
0.000000
  0
LINE
  8
1
 62
7
  6
CONTINUOUS
 10
930.836491
 20
296.312716
 11
883.236000
 21
298.926286
  0
LINE
  8
1
 62
7
  6
CONTINUOUS
 10
875.509360
 20
289.475627
 11
919.067389
 21
286.518332
  0
LINE
  8
1
 62
7
  6
CONTINUOUS
 10
1045.797360
 20
296.312716
 11
1108.697764
 21
299.392607
  0
LINE
  8
1
 62
7
  6
CONTINUOUS
 10
1055.797360
 20
286.312716
 11
1111.565924
 21
289.050935
  0
LINE
  8
1
 62
7
  6
CONTINUOUS
 10
1108.697764
 20
299.392607
 11
1271.003866
 21
303.545101
  0
LINE
  8
1
 62
7
  6
CONTINUOUS
 10
1111.565924
 20
289.050935
 11
1267.846354
 21
292.919028
  0
DIMENSION
  8
1
 62
7
  6
CONTINUOUS
  2
*D22
 10
1433.061719
 20
1106.527778
 11
1433.061719
 21
871.027778
 70
     0
  1
463
 13
1462.670935
 23
1106.527778
 14
1462.670935
 24
635.527778
 50
-90.000000
  0
DIMENSION
  8
1
 62
7
  6
CONTINUOUS
  2
*D23
 10
1472.670935
 20
1191.273573
 11
1595.670935
 21
1191.273573
 70
     0
  1
231
 13
1472.670935
 23
1116.527778
 14
1718.670935
 24
1116.527778
 50
0.000000
  0
DIMENSION
  8
1
 62
7
  6
CONTINUOUS
  2
*D24
 10
1472.670935
 20
1165.614628
 11
1583.170935
 21
1165.614628
 70
     0
  1
211
 13
1472.670935
 23
1116.527778
 14
1693.670935
 24
1116.527778
 50
0.000000
  0
DIMENSION
  8
1
 62
7
  6
CONTINUOUS
  2
*D25
 10
1474.626736
 20
282.812716
 11
1474.626736
 21
405.062716
 70
     0
  1
231
 13
1422.273658
 23
282.812716
 14
1422.273658
 24
527.312716
 50
90.000000
  0
DIMENSION
  8
1
 62
7
  6
CONTINUOUS
  2
*D26
 10
1443.394097
 20
307.812716
 11
1443.394097
 21
417.562716
 70
     0
  1
211
 13
1422.273658
 23
307.812716
 14
1422.273658
 24
527.312716
 50
90.000000
  0
LINE
  8
1
 62
7
  6
CONTINUOUS
 10
534.158276
 20
512.486049
 11
539.244722
 21
424.598306
  0
LINE
  8
1
 62
7
  6
CONTINUOUS
 10
543.316926
 20
527.312716
 11
549.261455
 21
424.598306
  0
LINE
  8
1
 62
7
  6
CONTINUOUS
 10
814.146725
 20
424.598306
 11
815.536035
 21
482.671465
  0
LINE
  8
1
 62
7
  6
CONTINUOUS
 10
822.149015
 20
424.598306
 11
823.533747
 21
482.480133
  0
ARC
  8
1
 62
7
  6
CONTINUOUS
 10
575.035387
 20
355.409865
 40
20.000000
 50
-176.687739
 51
-92.803224
  0
ARC
  8
1
 62
7
  6
CONTINUOUS
 10
575.061724
 20
354.954791
 40
30.000000
 50
-176.687739
 51
-92.810947
  0
ARC
  8
1
 62
7
  6
CONTINUOUS
 10
791.623568
 20
349.369539
 40
20.000000
 50
-84.053137
 51
-1.370451
  0
ARC
  8
1
 62
7
  6
CONTINUOUS
 10
789.596824
 20
348.275558
 40
30.000000
 50
-83.748474
 51
-1.370451
  0
LINE
  8
1
 62
7
  6
CONTINUOUS
 10
640.816926
 20
321.312716
 11
640.816926
 21
316.312716
  0
LINE
  8
1
 62
7
  6
CONTINUOUS
 10
735.816926
 20
321.312716
 11
735.816926
 21
316.312716
  0
LINE
  8
1
 62
7
  6
CONTINUOUS
 10
640.816926
 20
316.312716
 11
640.816926
 21
311.312716
  0
LINE
  8
1
 62
7
  6
CONTINUOUS
 10
640.816926
 20
311.312716
 11
620.836491
 21
311.312716
  0
LINE
  8
1
 62
7
  6
CONTINUOUS
 10
735.816926
 20
316.312716
 11
735.816926
 21
311.312716
  0
LINE
  8
1
 62
7
  6
CONTINUOUS
 10
735.816926
 20
311.312716
 11
755.816926
 21
311.312716
  0
LINE
  8
1
 62
7
  6
DASHDOT
 10
688.316926
 20
352.563682
 11
688.316926
 21
277.658643
  0
DIMENSION
  8
1
 62
7
  6
CONTINUOUS
  2
*D27
 10
630.836491
 20
374.286143
 11
688.326708
 21
374.286143
 70
     0
  1
115φ
 13
630.836491
 23
346.312716
 14
745.816926
 24
346.312716
 50
0.000000
  0
LINE
  8
1
 62
7
  6
CONTINUOUS
 10
743.816926
 20
321.312716
 11
735.816926
 21
321.312716
  0
LINE
  8
1
 62
7
  6
CONTINUOUS
 10
745.816926
 20
326.312716
 11
745.816926
 21
323.312716
  0
ARC
  8
1
 62
7
  6
CONTINUOUS
 10
743.816926
 20
323.312716
 40
2.000000
 50
-90.000000
 51
0.000000
  0
LINE
  8
1
 62
7
  6
CONTINUOUS
 10
755.816926
 20
311.312716
 11
755.816926
 21
314.519842
  0
ARC
  8
1
 62
7
  6
CONTINUOUS
 10
757.816926
 20
314.519842
 40
2.000000
 50
96.251526
 51
180.000000
  0
LINE
  8
1
 62
7
  6
CONTINUOUS
 10
632.836491
 20
321.312716
 11
640.816926
 21
321.312716
  0
LINE
  8
1
 62
7
  6
CONTINUOUS
 10
630.836491
 20
326.312716
 11
630.836491
 21
323.312716
  0
ARC
  8
1
 62
7
  6
CONTINUOUS
 10
632.836491
 20
323.312716
 40
2.000000
 50
180.000000
 51
-90.000000
  0
LINE
  8
1
 62
7
  6
CONTINUOUS
 10
620.836491
 20
314.408506
 11
620.836491
 21
311.312716
  0
ARC
  8
1
 62
7
  6
CONTINUOUS
 10
618.836491
 20
314.408506
 40
2.000000
 50
0.000000
 51
87.189053
  0
LINE
  8
1
 62
7
  6
CONTINUOUS
 10
757.599139
 20
316.507948
 11
771.603267
 21
318.042027
  0
LINE
  8
1
 62
7
  6
CONTINUOUS
 10
745.816927
 20
326.312716
 11
793.695692
 21
329.477171
  0
LINE
  8
1
 62
7
  6
CONTINUOUS
 10
771.603267
 20
318.042027
 11
792.863625
 21
318.453955
  0
LINE
  8
1
 62
7
  6
CONTINUOUS
 10
618.934572
 20
316.406100
 11
573.590506
 21
324.990887
  0
LINE
  8
1
 62
7
  6
CONTINUOUS
 10
574.057268
 20
335.433797
 11
630.836491
 21
326.312716
  0
LINE
  8
1
 62
7
  6
CONTINUOUS
 10
553.543914
 20
380.602486
 11
555.068798
 21
354.254311
  0
LINE
  8
1
 62
7
  6
CONTINUOUS
 10
543.644469
 20
378.575885
 11
545.111840
 21
353.221461
  0
LINE
  8
1
 62
7
  6
CONTINUOUS
 10
543.644469
 20
378.575885
 11
539.244722
 21
424.598306
  0
LINE
  8
1
 62
7
  6
CONTINUOUS
 10
549.261455
 20
424.598306
 11
553.543914
 21
380.602486
  0
LINE
  8
1
 62
7
  6
CONTINUOUS
 10
811.617847
 20
348.891207
 11
812.165993
 21
371.803710
  0
LINE
  8
1
 62
7
  6
CONTINUOUS
 10
819.588243
 20
347.558060
 11
820.156788
 21
371.323254
  0
LINE
  8
1
 62
7
  6
CONTINUOUS
 10
814.146725
 20
424.598306
 11
812.165993
 21
371.803710
  0
LINE
  8
1
 62
7
  6
CONTINUOUS
 10
822.149015
 20
424.598306
 11
820.156788
 21
371.323254
  0
DIMENSION
  8
1
 62
7
  6
CONTINUOUS
  2
*D28
 10
383.957612
 20
527.312716
 11
383.957612
 21
417.562716
 70
     0
  1
201
 13
508.316926
 23
527.312716
 14
508.316926
 24
307.812716
 50
-90.000000
  0
DIMENSION
  8
1
 62
7
  6
CONTINUOUS
  2
*D29
 10
410.507494
 20
527.312716
 11
410.507494
 21
428.060381
 70
     0
  1
181
 13
508.316926
 23
527.312716
 14
508.316926
 24
328.808045
 50
-90.000000
  0
LINE
  8
1
 62
7
  6
CONTINUOUS
 10
544.823653
 20
952.646315
 11
605.331827
 21
1005.695197
  0
LINE
  8
1
 62
7
  6
CONTINUOUS
 10
605.331827
 20
1005.695197
 11
640.408201
 21
1005.695197
  0
TEXT
  8
1
 62
7
  6
CONTINUOUS
 10
602.908201
 20
1005.695197
 40
20.000000
 41
0.375000
  1
2000R
  7
KANJI
 50
0.000000
 51
30.000000
  0
LINE
  8
1
 62
7
  6
CONTINUOUS
 10
544.823653
 20
952.646315
 11
555.937444
 21
969.274112
  0
LINE
  8
1
 62
7
  6
CONTINUOUS
 10
544.823653
 20
952.646315
 11
562.762377
 21
961.489514
  0
LINE
  8
1
 62
7
  6
CONTINUOUS
 10
555.937444
 20
969.274112
 11
562.762377
 21
961.489514
  0
LINE
  8
1
 62
7
  6
CONTINUOUS
 10
548.455217
 20
955.830190
 11
554.012113
 21
964.144088
  0
LINE
  8
1
 62
7
  6
CONTINUOUS
 10
548.455217
 20
955.830190
 11
557.424579
 21
960.251789
  0
LINE
  8
1
 62
7
  6
CONTINUOUS
 10
554.012113
 20
964.144088
 11
557.424579
 21
960.251789
  0
LINE
  8
1
 62
7
  6
CONTINUOUS
 10
963.496427
 20
1081.391079
 11
1014.511569
 21
1005.695197
  0
LINE
  8
1
 62
7
  6
CONTINUOUS
 10
1014.511569
 20
1005.695197
 11
1059.791926
 21
1005.695197
  0
TEXT
  8
1
 62
7
  6
CONTINUOUS
 10
1022.291926
 20
1005.695197
 40
20.000000
 41
0.375000
  1
6000R
  7
KANJI
 50
0.000000
 51
30.000000
  0
LINE
  8
1
 62
7
  6
CONTINUOUS
 10
963.496427
 20
1081.391079
 11
978.585568
 21
1068.264090
  0
LINE
  8
1
 62
7
  6
CONTINUOUS
 10
963.496427
 20
1081.391079
 11
970.000512
 21
1062.478203
  0
LINE
  8
1
 62
7
  6
CONTINUOUS
 10
978.585568
 20
1068.264090
 11
970.000512
 21
1062.478203
  0
LINE
  8
1
 62
7
  6
CONTINUOUS
 10
966.195580
 20
1077.386096
 11
973.740151
 21
1070.822601
  0
LINE
  8
1
 62
7
  6
CONTINUOUS
 10
966.195580
 20
1077.386096
 11
969.447623
 21
1067.929658
  0
LINE
  8
1
 62
7
  6
CONTINUOUS
 10
973.740151
 20
1070.822601
 11
969.447623
 21
1067.929658
  0
LINE
  8
1
 62
7
  6
CONTINUOUS
 10
963.492760
 20
668.679306
 11
1025.735951
 21
736.310030
  0
LINE
  8
1
 62
7
  6
CONTINUOUS
 10
1025.735951
 20
736.310030
 11
1066.934714
 21
736.310030
  0
TEXT
  8
1
 62
7
  6
CONTINUOUS
 10
1029.434714
 20
736.310030
 40
20.000000
 41
0.375000
  1
6000R
  7
KANJI
 50
0.000000
 51
30.000000
  0
LINE
  8
1
 62
7
  6
CONTINUOUS
 10
963.492760
 20
668.679306
 11
972.766281
 21
686.399402
  0
LINE
  8
1
 62
7
  6
CONTINUOUS
 10
963.492760
 20
668.679306
 11
980.383913
 21
679.388598
  0
LINE
  8
1
 62
7
  6
CONTINUOUS
 10
972.766281
 20
686.399402
 11
980.383913
 21
679.388598
  0
LINE
  8
1
 62
7
  6
CONTINUOUS
 10
966.763344
 20
672.232979
 11
971.400105
 21
681.093027
  0
LINE
  8
1
 62
7
  6
CONTINUOUS
 10
966.763344
 20
672.232979
 11
975.208920
 21
677.587626
  0
LINE
  8
1
 62
7
  6
CONTINUOUS
 10
971.400105
 20
681.093027
 11
975.208920
 21
677.587626
  0
LINE
  8
1
 62
7
  6
CONTINUOUS
 10
561.226376
 20
690.368774
 11
608.393023
 21
736.310030
  0
LINE
  8
1
 62
7
  6
CONTINUOUS
 10
608.393023
 20
736.310030
 11
648.571388
 21
736.310030
  0
TEXT
  8
1
 62
7
  6
CONTINUOUS
 10
611.071388
 20
736.310030
 40
20.000000
 41
0.375000
  1
40R*4
  7
KANJI
 50
0.000000
 51
30.000000
  0
LINE
  8
1
 62
7
  6
CONTINUOUS
 10
561.226376
 20
690.368774
 11
571.453445
 21
707.556184
  0
LINE
  8
1
 62
7
  6
CONTINUOUS
 10
561.226376
 20
690.368774
 11
578.676982
 21
700.139973
  0
LINE
  8
1
 62
7
  6
CONTINUOUS
 10
571.453445
 20
707.556184
 11
578.676982
 21
700.139973
  0
LINE
  8
1
 62
7
  6
CONTINUOUS
 10
564.686085
 20
693.738601
 11
569.799620
 21
702.332305
  0
LINE
  8
1
 62
7
  6
CONTINUOUS
 10
564.686085
 20
693.738601
 11
573.411388
 21
698.624200
  0
LINE
  8
1
 62
7
  6
CONTINUOUS
 10
569.799620
 20
702.332305
 11
573.411388
 21
698.624200
  0
LINE
  8
1
 62
7
  6
CONTINUOUS
 10
1313.628845
 20
694.024154
 11
1264.509164
 21
736.310030
  0
LINE
  8
1
 62
7
  6
CONTINUOUS
 10
1264.509164
 20
736.310030
 11
1232.851199
 21
736.310030
  0
TEXT
  8
1
 62
7
  6
CONTINUOUS
 10
1232.851199
 20
736.310030
 40
20.000000
 41
0.375000
  1
40R
  7
KANJI
 50
0.000000
 51
30.000000
  0
LINE
  8
1
 62
7
  6
CONTINUOUS
 10
1313.628845
 20
694.024154
 11
1295.610987
 21
702.704984
  0
LINE
  8
1
 62
7
  6
CONTINUOUS
 10
1313.628845
 20
694.024154
 11
1302.365338
 21
710.550902
  0
LINE
  8
1
 62
7
  6
CONTINUOUS
 10
1295.610987
 20
702.704984
 11
1302.365338
 21
710.550902
  0
LINE
  8
1
 62
7
  6
CONTINUOUS
 10
1309.968674
 20
697.175101
 11
1300.959746
 21
701.515516
  0
LINE
  8
1
 62
7
  6
CONTINUOUS
 10
1309.968674
 20
697.175101
 11
1304.336921
 21
705.438475
  0
LINE
  8
1
 62
7
  6
CONTINUOUS
 10
1300.959746
 20
701.515516
 11
1304.336921
 21
705.438475
  0
LINE
  8
1
 62
7
  6
CONTINUOUS
 10
566.610526
 20
1064.216460
 11
584.923860
 21
1038.347944
  0
LINE
  8
1
 62
7
  6
CONTINUOUS
 10
584.923860
 20
1038.347944
 11
610.459437
 21
1038.347944
  0
TEXT
  8
1
 62
7
  6
CONTINUOUS
 10
587.959437
 20
1038.347944
 40
20.000000
 41
0.375000
  1
40R
  7
KANJI
 50
0.000000
 51
30.000000
  0
LINE
  8
1
 62
7
  6
CONTINUOUS
 10
566.610526
 20
1064.216460
 11
581.997663
 21
1051.440075
  0
LINE
  8
1
 62
7
  6
CONTINUOUS
 10
566.610526
 20
1064.216460
 11
573.547985
 21
1045.458217
  0
LINE
  8
1
 62
7
  6
CONTINUOUS
 10
581.997663
 20
1051.440075
 11
573.547985
 21
1045.458217
  0
LINE
  8
1
 62
7
  6
CONTINUOUS
 10
569.401100
 20
1060.274631
 11
577.094669
 21
1053.886439
  0
LINE
  8
1
 62
7
  6
CONTINUOUS
 10
569.401100
 20
1060.274631
 11
572.869830
 21
1050.895510
  0
LINE
  8
1
 62
7
  6
CONTINUOUS
 10
577.094669
 20
1053.886439
 11
572.869830
 21
1050.895510
  0
LINE
  8
1
 62
7
  6
CONTINUOUS
 10
1328.014940
 20
909.781941
 11
1276.753946
 21
875.027778
  0
LINE
  8
1
 62
7
  6
CONTINUOUS
 10
1276.753946
 20
875.027778
 11
1235.555183
 21
875.027778
  0
TEXT
  8
1
 62
7
  6
CONTINUOUS
 10
1235.555183
 20
875.027778
 40
20.000000
 41
0.375000
  1
2000R
  7
KANJI
 50
0.000000
 51
30.000000
  0
LINE
  8
1
 62
7
  6
CONTINUOUS
 10
1328.014940
 20
909.781941
 11
1314.929800
 21
894.656495
  0
LINE
  8
1
 62
7
  6
CONTINUOUS
 10
1328.014940
 20
909.781941
 11
1309.120153
 21
903.225490
  0
LINE
  8
1
 62
7
  6
CONTINUOUS
 10
1314.929800
 20
894.656495
 11
1309.120153
 21
903.225490
  0
LINE
  8
1
 62
7
  6
CONTINUOUS
 10
1324.017449
 20
907.071704
 11
1317.474879
 21
899.508981
  0
LINE
  8
1
 62
7
  6
CONTINUOUS
 10
1324.017449
 20
907.071704
 11
1314.570056
 21
903.793479
  0
LINE
  8
1
 62
7
  6
CONTINUOUS
 10
1317.474879
 20
899.508981
 11
1314.570056
 21
903.793479
  0
LINE
  8
1
 62
7
  6
CONTINUOUS
 10
1307.674844
 20
1062.187763
 11
1287.978328
 21
1038.347944
  0
LINE
  8
1
 62
7
  6
CONTINUOUS
 10
1287.978328
 20
1038.347944
 11
1236.932792
 21
1038.347944
  0
TEXT
  8
1
 62
7
  6
CONTINUOUS
 10
1236.932792
 20
1038.347944
 40
20.000000
 41
0.375000
  1
40R
  7
KANJI
 50
0.000000
 51
30.000000
  0
LINE
  8
1
 62
7
  6
CONTINUOUS
 10
1307.674844
 20
1062.187763
 11
1299.360783
 21
1043.997755
  0
LINE
  8
1
 62
7
  6
CONTINUOUS
 10
1307.674844
 20
1062.187763
 11
1291.379652
 21
1050.591785
  0
LINE
  8
1
 62
7
  6
CONTINUOUS
 10
1299.360783
 20
1043.997755
 11
1291.379652
 21
1050.591785
  0
LINE
  8
1
 62
7
  6
CONTINUOUS
 10
1304.598687
 20
1058.464515
 11
1300.441657
 21
1049.369511
  0
LINE
  8
1
 62
7
  6
CONTINUOUS
 10
1304.598687
 20
1058.464515
 11
1296.451091
 21
1052.666526
  0
LINE
  8
1
 62
7
  6
CONTINUOUS
 10
1300.441657
 20
1049.369511
 11
1296.451091
 21
1052.666526
  0
LINE
  8
1
 62
7
  6
CONTINUOUS
 10
518.316926
 20
875.027808
 11
581.862665
 21
936.527778
  0
LINE
  8
1
 62
7
  6
CONTINUOUS
 10
581.862665
 20
936.527778
 11
621.020632
 21
936.527778
  0
TEXT
  8
1
 62
7
  6
CONTINUOUS
 10
583.520632
 20
936.527778
 40
20.000000
 41
0.375000
  1
2025R
  7
KANJI
 50
0.000000
 51
30.000000
  0
LINE
  8
1
 62
7
  6
CONTINUOUS
 10
518.316926
 20
875.027808
 11
528.598916
 21
892.182419
  0
LINE
  8
1
 62
7
  6
CONTINUOUS
 10
518.316926
 20
875.027808
 11
535.798696
 21
884.743142
  0
LINE
  8
1
 62
7
  6
CONTINUOUS
 10
528.598916
 20
892.182419
 11
535.798696
 21
884.743142
  0
LINE
  8
1
 62
7
  6
CONTINUOUS
 10
521.787396
 20
878.386551
 11
526.928391
 21
886.963857
  0
LINE
  8
1
 62
7
  6
CONTINUOUS
 10
521.787396
 20
878.386551
 11
530.528281
 21
883.244218
  0
LINE
  8
1
 62
7
  6
CONTINUOUS
 10
526.928391
 20
886.963857
 11
530.528281
 21
883.244218
  0
LINE
  8
1
 62
7
  6
CONTINUOUS
 10
988.251338
 20
1106.299610
 11
1031.858341
 21
1038.347944
  0
LINE
  8
1
 62
7
  6
CONTINUOUS
 10
1031.858341
 20
1038.347944
 11
1076.118300
 21
1038.347944
  0
TEXT
  8
1
 62
7
  6
CONTINUOUS
 10
1038.618300
 20
1038.347944
 40
20.000000
 41
0.375000
  1
6025R
  7
KANJI
 50
0.000000
 51
30.000000
  0
LINE
  8
1
 62
7
  6
CONTINUOUS
 10
988.251338
 20
1106.299610
 11
1003.041548
 21
1092.836710
  0
LINE
  8
1
 62
7
  6
CONTINUOUS
 10
988.251338
 20
1106.299610
 11
994.328585
 21
1087.245291
  0
LINE
  8
1
 62
7
  6
CONTINUOUS
 10
1003.041548
 20
1092.836710
 11
994.328585
 21
1087.245291
  0
LINE
  8
1
 62
7
  6
CONTINUOUS
 10
990.859770
 20
1102.234958
 11
998.254875
 21
1095.503508
  0
LINE
  8
1
 62
7
  6
CONTINUOUS
 10
990.859770
 20
1102.234958
 11
993.898393
 21
1092.707798
  0
LINE
  8
1
 62
7
  6
CONTINUOUS
 10
998.254875
 20
1095.503508
 11
993.898393
 21
1092.707798
  0
LINE
  8
1
 62
7
  6
CONTINUOUS
 10
543.316926
 20
672.924613
 11
483.294314
 21
614.461391
  0
LINE
  8
1
 62
7
  6
CONTINUOUS
 10
483.294314
 20
614.461391
 11
434.542472
 21
614.461391
  0
TEXT
  8
1
 62
7
  6
CONTINUOUS
 10
434.542472
 20
614.461391
 40
20.000000
 41
0.375000
  1
65R*4
  7
KANJI
 50
0.000000
 51
30.000000
  0
LINE
  8
1
 62
7
  6
CONTINUOUS
 10
543.316926
 20
672.924613
 11
533.089857
 21
655.737204
  0
LINE
  8
1
 62
7
  6
CONTINUOUS
 10
543.316926
 20
672.924613
 11
525.866319
 21
663.153414
  0
LINE
  8
1
 62
7
  6
CONTINUOUS
 10
533.089857
 20
655.737204
 11
525.866319
 21
663.153414
  0
LINE
  8
1
 62
7
  6
CONTINUOUS
 10
539.857216
 20
669.554787
 11
534.743682
 21
660.961082
  0
LINE
  8
1
 62
7
  6
CONTINUOUS
 10
539.857216
 20
669.554787
 11
531.131913
 21
664.669188
  0
LINE
  8
1
 62
7
  6
CONTINUOUS
 10
534.743682
 20
660.961082
 11
531.131913
 21
664.669188
  0
LINE
  8
1
 62
7
  6
CONTINUOUS
 10
1323.699898
 20
668.679306
 11
1340.040751
 21
643.527778
  0
LINE
  8
1
 62
7
  6
CONTINUOUS
 10
1340.040751
 20
643.527778
 11
1378.823799
 21
643.527778
  0
TEXT
  8
1
 62
7
  6
CONTINUOUS
 10
1341.323799
 20
643.527778
 40
20.000000
 41
0.375000
  1
65R*4
  7
KANJI
 50
0.000000
 51
30.000000
  0
LINE
  8
1
 62
7
  6
CONTINUOUS
 10
1323.699898
 20
668.679306
 11
1338.565511
 21
655.299711
  0
LINE
  8
1
 62
7
  6
CONTINUOUS
 10
1323.699898
 20
668.679306
 11
1329.884099
 21
649.659430
  0
LINE
  8
1
 62
7
  6
CONTINUOUS
 10
1338.565511
 20
655.299711
 11
1329.884099
 21
649.659430
  0
LINE
  8
1
 62
7
  6
CONTINUOUS
 10
1326.331124
 20
664.629372
 11
1333.763931
 21
657.939575
  0
LINE
  8
1
 62
7
  6
CONTINUOUS
 10
1326.331124
 20
664.629372
 11
1329.423225
 21
655.119434
  0
LINE
  8
1
 62
7
  6
CONTINUOUS
 10
1333.763931
 20
657.939575
 11
1329.423225
 21
655.119434
  0
TEXT
  8
1
 62
7
  6
CONTINUOUS
 10
54.560220
 20
1143.654649
 40
40.000000
 41
0.588235
  1
U-202 ﾀﾞﾌﾞﾙｼﾝｸ詳細図
  7
KANJI
 50
0.000000
 51
0.000000
  0
TEXT
  8
1
 62
7
  6
CONTINUOUS
 10
454.560220
 20
1163.654649
 40
20.000000
 41
0.500000
  1

  7
KANJI
 50
0.000000
 51
0.000000
  0
TEXT
  8
1
 62
7
  6
CONTINUOUS
 10
454.560220
 20
1143.654649
 40
20.000000
 41
0.500000
  1

  7
KANJI
 50
0.000000
 51
0.000000
  0
DIMENSION
  8
1
 62
7
  6
CONTINUOUS
  2
*D30
 10
452.856676
 20
1081.527778
 11
452.856676
 21
978.277763
 70
     0
  1
206.5
 13
508.316926
 23
1081.527778
 14
508.316926
 24
875.027747
 50
-90.000000
  0
ENDSEC
  0
EOF
