  0
SECTION
  2
HEADER
  9
$ACADVER
  1
AC1003
  9
$INSBASE
 10
0.000000
 20
0.000000
  9
$EXTMIN
 10
0.000000
 20
0.000000
  9
$EXTMAX
 10
1820.000000
 20
1285.000000
  9
$LIMMIN
 10
0.000000
 20
0.000000
  9
$LIMMAX
 10
1820.000000
 20
1285.000000
  9
$VIEWCTR
 10
910.000000
 20
642.500000
  9
$VIEWSIZE
 40
1285.000000
  9
$PEXTMIN
 10
0.000000
 20
0.000000
 30
0.000000
  9
$PEXTMAX
 10
364.000000
 20
257.000000
 30
0.000000
  9
$SNAPMODE
 70
     0
  9
$SNAPUNIT
 10
1.000000
 20
1.000000
  9
$SNAPBASE
 10
0.000000
 20
0.000000
  9
$SNAPANG
 50
0.000000
  9
$SNAPISOPAIR
 70
     0
  9
$SNAPSTYLE
 70
     0
  9
$GRIDMODE
 70
     0
  9
$GRIDUNIT
 10
0.000000
 20
0.000000
  9
$ORTHOMODE
 70
     0
  9
$REGENMODE
 70
     1
  9
$FILLMODE
 70
     1
  9
$QTEXTMODE
 70
     0
  9
$DRAGMODE
 70
     2
  9
$LTSCALE
 40
1.250000
  9
$OSMODE
 70
     0
  9
$ATTMODE
 70
     1
  9
$TEXTSIZE
 40
0.200000
  9
$TRACEWID
 40
0.050000
  9
$TEXTSTYLE
  7
STANDARD
  9
$CLAYER
  8
0
  9
$CELTYPE
  6
BYLAYER
  9
$CECOLOR
 62
   256
  9
$DIMSCALE
 40
1.000000
  9
$DIMASZ
 40
1.000000
  9
$DIMEXO
 40
0.000000
  9
$DIMDLI
 40
0.500000
  9
$DIMRND
 40
0.000000
  9
$DIMDLE
 40
0.000000
  9
$DIMEXE
 40
0.000000
  9
$DIMTP
 40
0.000000
  9
$DIMTM
 40
0.000000
  9
$DIMTXT
 40
0.180000
  9
$DIMCEN
 40
0.000000
  9
$DIMTSZ
 40
0.000000
  9
$DIMTOL
 70
     0
  9
$DIMLIM
 70
     0
  9
$DIMTIH
 70
     1
  9
$DIMTOH
 70
     1
  9
$DIMSE1
 70
     0
  9
$DIMSE2
 70
     0
  9
$DIMTAD
 70
     0
  9
$DIMZIN
 70
     0
  9
$DIMBLK
  1

  9
$DIMASO
 70
     0
  9
$DIMSHO
 70
     0
  9
$DIMPOST
  1

  9
$DIMAPOST
  1

  9
$DIMALT
 70
     0
  9
$DIMALTD
 70
     0
  9
$DIMALTF
 40
25.400000
  9
$DIMLFAC
 40
1.000000
  9
$DIMTOFL
 70
     0
  9
$DIMTVP
 40
0.000000
  9
$DIMTIX
 70
     0
  9
$DIMSOXD
 70
     0
  9
$DIMSAH
 70
     0
  9
$DIMBLKL
  1

  9
$DIMBLKR
  1

  9
$LUNITS
 70
     2
  9
$LUPREC
 70
     2
  9
$AXISMODE
 70
     0
  9
$AXISUNIT
 10
1.000000
 20
1.000000
  9
$SKETCHINC
 40
0.000000
  9
$FILLETRAD
 40
0.000000
  9
$AUNITS
 70
     1
  9
$AUPREC
 70
     2
  9
$MENU
  1
ACAD
  9
$ELEVATION
 40
0.000000
  9
$THICKNESS
 40
0.000000
  9
$VIEWDIR
 10
0.000000
 20
0.000000
 30
1.000000
  9
$LIMCHECK
 70
     1
  9
$BLIPMODE
 70
     1
  9
$CHAMFERA
 40
0.000000
  9
$CHAMFERB
 40
0.000000
  9
$FASTZOOM
 70
     1
  9
$SKPOLY
 70
     0
  9
$TDCREATE
 40
0.000000
  9
$TDUPDATE
 40
0.000000
  9
$TDINDWG
 40
0.000000
  9
$TDUSRTIMER
 40
0.000000
  9
$USRTIMER
 70
     1
  9
$ANGBASE
 50
0.000000
  9
$ANGDIR
 70
     0
  9
$PDMODE
 70
     0
  9
$PDSIZE
 40
0.000000
  9
$PLINEWID
 40
0.000000
  9
$COORDS
 70
     2
  9
$USERI1
 70
     0
  9
$USERI2
 70
     0
  9
$USERI3
 70
     0
  9
$USERI4
 70
     0
  9
$USERI5
 70
     0
  9
$USERR1
 40
0.000000
  9
$USERR2
 40
0.000000
  9
$USERR3
 40
0.000000
  9
$USERR4
 40
0.000000
  9
$USERR5
 40
0.000000
  0
ENDSEC
  0
SECTION
  2
TABLES
  0
TABLE
  2
LTYPE
 70
     5
  0
LTYPE
  2
CONTINUOUS
 70
    64
  3
Solid line
 72
    65
 73
     0
 40
0.0
  0
LTYPE
  2
HIDDEN
 70
    64
  3
------------------------
 72
    65
 73
     2
 40
12.6
 49
8.4
 49
-4.2
  0
LTYPE
  2
DOT
 70
    64
  3
････････････････････････
 72
    65
 73
     2
 40
8.0
 49
6.0
 49
-2.0
  0
LTYPE
  2
DASHDOT
 70
    64
  3
--･--･--･--･--･--･--･--
 72
    65
 73
     4
 40
50.5
 49
30.0
 49
-9.0
 49
2.5
 49
-9.0
  0
LTYPE
  2
DIVIDE
 70
    64
  3
--･･--･･--･･--･･--･･--
 72
    65
 73
     6
 40
58.0
 49
30.0
 49
-9.0
 49
2.5
 49
-5.0
 49
2.5
 49
-9.0
  0
ENDTAB
  0
TABLE
  2
LAYER
 70
1
  0
LAYER
  2
1
 70
64
 62
7
  6
CONTINUOUS
  0
ENDTAB
  0
TABLE
  2
STYLE
 70
     2
  0
STYLE
  2
STANDARD
 70
    64
 40
0.0
 41
1.0
 50
0.0
 71
     0
 42
0.2
  3
TXT
  4

  0
STYLE
  2
KANJI
 70
    64
 40
0.0
 41
1.0
 50
0.0
 71
     0
 42
0.2
  3
TXT
  4
BIGFONT
  0
ENDTAB
  0
TABLE
  2
VIEW
 70
     0
  0
ENDTAB
  0
ENDSEC
  0
SECTION
  2
BLOCKS
  0
BLOCK
  8
1
 62
7
  6
CONTINUOUS
  2
*D1
 70
    65
 10
0.0
 20
0.0
  0
LINE
  8
1
 62
7
  6
CONTINUOUS
 10
813.480218
 20
871.886667
 11
993.480219
 21
871.886667
  0
CIRCLE
  8
1
 62
7
  6
CONTINUOUS
 10
813.480218
 20
871.886667
 40
1.500000
  0
CIRCLE
  8
1
 62
7
  6
CONTINUOUS
 10
813.480218
 20
871.886667
 40
0.750000
  0
CIRCLE
  8
1
 62
7
  6
CONTINUOUS
 10
993.480219
 20
871.886667
 40
1.500000
  0
CIRCLE
  8
1
 62
7
  6
CONTINUOUS
 10
993.480219
 20
871.886667
 40
0.750000
  0
TEXT
  8
1
 62
7
  6
CONTINUOUS
 10
888.480219
 20
871.886667
 40
20.000000
 41
0.500000
  1
180
  7
KANJI
 50
0.000000
 51
30.000000
  0
ENDBLK
  0
BLOCK
  8
1
 62
7
  6
CONTINUOUS
  2
*D2
 70
    65
 10
0.0
 20
0.0
  0
LINE
  8
1
 62
7
  6
CONTINUOUS
 10
432.259890
 20
1126.886667
 11
432.259890
 21
616.886667
  0
LINE
  8
1
 62
7
  6
CONTINUOUS
 10
422.259890
 20
1126.886667
 11
533.480219
 21
1126.886667
  0
LINE
  8
1
 62
7
  6
CONTINUOUS
 10
422.259890
 20
616.886667
 11
533.480219
 21
616.886667
  0
CIRCLE
  8
1
 62
7
  6
CONTINUOUS
 10
432.259890
 20
1126.886667
 40
1.500000
  0
CIRCLE
  8
1
 62
7
  6
CONTINUOUS
 10
432.259890
 20
1126.886667
 40
0.750000
  0
CIRCLE
  8
1
 62
7
  6
CONTINUOUS
 10
432.259890
 20
616.886667
 40
1.500000
  0
CIRCLE
  8
1
 62
7
  6
CONTINUOUS
 10
432.259890
 20
616.886667
 40
0.750000
  0
TEXT
  8
1
 62
7
  6
CONTINUOUS
 10
432.259890
 20
856.886667
 40
20.000000
 41
0.500000
  1
510
  7
KANJI
 50
90.000000
 51
30.000000
  0
ENDBLK
  0
BLOCK
  8
1
 62
7
  6
CONTINUOUS
  2
*D3
 70
    65
 10
0.0
 20
0.0
  0
LINE
  8
1
 62
7
  6
CONTINUOUS
 10
459.565972
 20
1126.886667
 11
459.565972
 21
1101.886667
  0
LINE
  8
1
 62
7
  6
CONTINUOUS
 10
449.565972
 20
1126.886667
 11
533.480219
 21
1126.886667
  0
LINE
  8
1
 62
7
  6
CONTINUOUS
 10
449.565972
 20
1101.886667
 11
533.480219
 21
1101.886667
  0
CIRCLE
  8
1
 62
7
  6
CONTINUOUS
 10
459.565972
 20
1126.886667
 40
1.500000
  0
CIRCLE
  8
1
 62
7
  6
CONTINUOUS
 10
459.565972
 20
1126.886667
 40
0.750000
  0
CIRCLE
  8
1
 62
7
  6
CONTINUOUS
 10
459.565972
 20
1101.886667
 40
1.500000
  0
CIRCLE
  8
1
 62
7
  6
CONTINUOUS
 10
459.565972
 20
1101.886667
 40
0.750000
  0
TEXT
  8
1
 62
7
  6
CONTINUOUS
 10
459.565972
 20
1104.386667
 40
20.000000
 41
0.500000
  1
25
  7
KANJI
 50
90.000000
 51
30.000000
  0
ENDBLK
  0
BLOCK
  8
1
 62
7
  6
CONTINUOUS
  2
*D4
 70
    65
 10
0.0
 20
0.0
  0
LINE
  8
1
 62
7
  6
CONTINUOUS
 10
459.565972
 20
1101.886667
 11
459.565972
 21
641.886667
  0
LINE
  8
1
 62
7
  6
CONTINUOUS
 10
449.565972
 20
641.886667
 11
533.480219
 21
641.886667
  0
CIRCLE
  8
1
 62
7
  6
CONTINUOUS
 10
459.565972
 20
641.886667
 40
1.500000
  0
CIRCLE
  8
1
 62
7
  6
CONTINUOUS
 10
459.565972
 20
641.886667
 40
0.750000
  0
TEXT
  8
1
 62
7
  6
CONTINUOUS
 10
459.565972
 20
856.886667
 40
20.000000
 41
0.500000
  1
460
  7
KANJI
 50
90.000000
 51
30.000000
  0
ENDBLK
  0
BLOCK
  8
1
 62
7
  6
CONTINUOUS
  2
*D5
 70
    65
 10
0.0
 20
0.0
  0
LINE
  8
1
 62
7
  6
CONTINUOUS
 10
459.565972
 20
641.886667
 11
459.565972
 21
616.886667
  0
LINE
  8
1
 62
7
  6
CONTINUOUS
 10
449.565972
 20
616.886667
 11
533.480219
 21
616.886667
  0
CIRCLE
  8
1
 62
7
  6
CONTINUOUS
 10
459.565972
 20
616.886667
 40
1.500000
  0
CIRCLE
  8
1
 62
7
  6
CONTINUOUS
 10
459.565972
 20
616.886667
 40
0.750000
  0
TEXT
  8
1
 62
7
  6
CONTINUOUS
 10
459.565972
 20
619.386667
 40
20.000000
 41
0.500000
  1
25
  7
KANJI
 50
90.000000
 51
30.000000
  0
ENDBLK
  0
BLOCK
  8
1
 62
7
  6
CONTINUOUS
  2
*D6
 70
    65
 10
0.0
 20
0.0
  0
LINE
  8
1
 62
7
  6
CONTINUOUS
 10
493.029514
 20
1101.886667
 11
493.029514
 21
989.886667
  0
LINE
  8
1
 62
7
  6
CONTINUOUS
 10
483.029514
 20
1101.886667
 11
533.480219
 21
1101.886667
  0
LINE
  8
1
 62
7
  6
CONTINUOUS
 10
483.029514
 20
989.886667
 11
533.480219
 21
989.886667
  0
CIRCLE
  8
1
 62
7
  6
CONTINUOUS
 10
493.029514
 20
1101.886667
 40
1.500000
  0
CIRCLE
  8
1
 62
7
  6
CONTINUOUS
 10
493.029514
 20
1101.886667
 40
0.750000
  0
CIRCLE
  8
1
 62
7
  6
CONTINUOUS
 10
493.029514
 20
989.886667
 40
1.500000
  0
CIRCLE
  8
1
 62
7
  6
CONTINUOUS
 10
493.029514
 20
989.886667
 40
0.750000
  0
TEXT
  8
1
 62
7
  6
CONTINUOUS
 10
493.029514
 20
1030.886667
 40
20.000000
 41
0.500000
  1
112
  7
KANJI
 50
90.000000
 51
30.000000
  0
ENDBLK
  0
BLOCK
  8
1
 62
7
  6
CONTINUOUS
  2
*D7
 70
    65
 10
0.0
 20
0.0
  0
LINE
  8
1
 62
7
  6
CONTINUOUS
 10
493.029514
 20
989.886667
 11
493.029514
 21
641.886667
  0
LINE
  8
1
 62
7
  6
CONTINUOUS
 10
483.029514
 20
641.886667
 11
533.480219
 21
641.886667
  0
CIRCLE
  8
1
 62
7
  6
CONTINUOUS
 10
493.029514
 20
641.886667
 40
1.500000
  0
CIRCLE
  8
1
 62
7
  6
CONTINUOUS
 10
493.029514
 20
641.886667
 40
0.750000
  0
TEXT
  8
1
 62
7
  6
CONTINUOUS
 10
493.029514
 20
800.886667
 40
20.000000
 41
0.500000
  1
348
  7
KANJI
 50
90.000000
 51
30.000000
  0
ENDBLK
  0
BLOCK
  8
1
 62
7
  6
CONTINUOUS
  2
*D8
 70
    65
 10
0.0
 20
0.0
  0
LINE
  8
1
 62
7
  6
CONTINUOUS
 10
813.480218
 20
286.869406
 11
993.480218
 21
286.869406
  0
LINE
  8
1
 62
7
  6
CONTINUOUS
 10
813.480218
 20
296.869406
 11
813.480218
 21
283.160000
  0
LINE
  8
1
 62
7
  6
CONTINUOUS
 10
993.480218
 20
296.869406
 11
993.480218
 21
283.160000
  0
CIRCLE
  8
1
 62
7
  6
CONTINUOUS
 10
813.480218
 20
286.869406
 40
1.500000
  0
CIRCLE
  8
1
 62
7
  6
CONTINUOUS
 10
813.480218
 20
286.869406
 40
0.750000
  0
CIRCLE
  8
1
 62
7
  6
CONTINUOUS
 10
993.480218
 20
286.869406
 40
1.500000
  0
CIRCLE
  8
1
 62
7
  6
CONTINUOUS
 10
993.480218
 20
286.869406
 40
0.750000
  0
TEXT
  8
1
 62
7
  6
CONTINUOUS
 10
878.480218
 20
286.869406
 40
20.000000
 41
0.625000
  1
180φ
  7
KANJI
 50
0.000000
 51
30.000000
  0
ENDBLK
  0
BLOCK
  8
1
 62
7
  6
CONTINUOUS
  2
*D9
 70
    65
 10
0.0
 20
0.0
  0
LINE
  8
1
 62
7
  6
CONTINUOUS
 10
515.661534
 20
488.160000
 11
515.661534
 21
466.160000
  0
LINE
  8
1
 62
7
  6
CONTINUOUS
 10
505.661534
 20
483.160000
 11
533.480219
 21
483.160000
  0
LINE
  8
1
 62
7
  6
CONTINUOUS
 10
505.661534
 20
471.160000
 11
533.480219
 21
471.160000
  0
CIRCLE
  8
1
 62
7
  6
CONTINUOUS
 10
515.661534
 20
483.160000
 40
1.500000
  0
CIRCLE
  8
1
 62
7
  6
CONTINUOUS
 10
515.661534
 20
483.160000
 40
0.750000
  0
CIRCLE
  8
1
 62
7
  6
CONTINUOUS
 10
515.661534
 20
471.160000
 40
1.500000
  0
CIRCLE
  8
1
 62
7
  6
CONTINUOUS
 10
515.661534
 20
471.160000
 40
0.750000
  0
TEXT
  8
1
 62
7
  6
CONTINUOUS
 10
515.661534
 20
467.160000
 40
20.000000
 41
0.500000
  1
12
  7
KANJI
 50
90.000000
 51
30.000000
  0
ENDBLK
  0
BLOCK
  8
1
 62
7
  6
CONTINUOUS
  2
*D10
 70
    65
 10
0.0
 20
0.0
  0
LINE
  8
1
 62
7
  6
CONTINUOUS
 10
538.480219
 20
501.898015
 11
573.480219
 21
501.898015
  0
LINE
  8
1
 62
7
  6
CONTINUOUS
 10
543.480219
 20
511.898015
 11
543.480219
 21
493.160000
  0
LINE
  8
1
 62
7
  6
CONTINUOUS
 10
568.480219
 20
511.898015
 11
568.480219
 21
493.160000
  0
CIRCLE
  8
1
 62
7
  6
CONTINUOUS
 10
543.480219
 20
501.898015
 40
1.500000
  0
CIRCLE
  8
1
 62
7
  6
CONTINUOUS
 10
543.480219
 20
501.898015
 40
0.750000
  0
CIRCLE
  8
1
 62
7
  6
CONTINUOUS
 10
568.480219
 20
501.898015
 40
1.500000
  0
CIRCLE
  8
1
 62
7
  6
CONTINUOUS
 10
568.480219
 20
501.898015
 40
0.750000
  0
TEXT
  8
1
 62
7
  6
CONTINUOUS
 10
545.980219
 20
501.898015
 40
20.000000
 41
0.500000
  1
25
  7
KANJI
 50
0.000000
 51
30.000000
  0
ENDBLK
  0
BLOCK
  8
1
 62
7
  6
CONTINUOUS
  2
*D11
 70
    65
 10
0.0
 20
0.0
  0
LINE
  8
1
 62
7
  6
CONTINUOUS
 10
565.280479
 20
354.321735
 11
585.750530
 21
354.321735
  0
LINE
  8
1
 62
7
  6
CONTINUOUS
 10
570.280479
 20
354.321735
 11
550.961963
 21
349.145354
  0
LINE
  8
1
 62
7
  6
CONTINUOUS
 10
570.280479
 20
354.321735
 11
550.961963
 21
359.498116
  0
LINE
  8
1
 62
7
  6
CONTINUOUS
 10
550.961963
 20
349.145354
 11
550.961963
 21
359.498116
  0
LINE
  8
1
 62
7
  6
CONTINUOUS
 10
565.450850
 20
354.321735
 11
555.791592
 21
351.733545
  0
LINE
  8
1
 62
7
  6
CONTINUOUS
 10
565.450850
 20
354.321735
 11
555.791592
 21
356.909926
  0
LINE
  8
1
 62
7
  6
CONTINUOUS
 10
555.791592
 20
351.733545
 11
555.791592
 21
356.909926
  0
LINE
  8
1
 62
7
  6
CONTINUOUS
 10
580.750530
 20
354.321735
 11
600.069046
 21
359.498116
  0
LINE
  8
1
 62
7
  6
CONTINUOUS
 10
580.750530
 20
354.321735
 11
600.069046
 21
349.145354
  0
LINE
  8
1
 62
7
  6
CONTINUOUS
 10
600.069046
 20
359.498116
 11
600.069046
 21
349.145354
  0
LINE
  8
1
 62
7
  6
CONTINUOUS
 10
585.580159
 20
354.321735
 11
595.239417
 21
356.909926
  0
LINE
  8
1
 62
7
  6
CONTINUOUS
 10
585.580159
 20
354.321735
 11
595.239417
 21
351.733545
  0
LINE
  8
1
 62
7
  6
CONTINUOUS
 10
595.239417
 20
356.909926
 11
595.239417
 21
351.733545
  0
TEXT
  8
1
 62
7
  6
CONTINUOUS
 10
570.515504
 20
354.321735
 40
20.000000
 41
0.500000
  1
8
  7
KANJI
 50
0.000000
 51
30.000000
  0
ENDBLK
  0
BLOCK
  8
1
 62
7
  6
CONTINUOUS
  2
*D12
 70
    65
 10
0.0
 20
0.0
  0
LINE
  8
1
 62
7
  6
CONTINUOUS
 10
1478.332533
 20
1200.250729
 11
1708.332533
 21
1200.250729
  0
LINE
  8
1
 62
7
  6
CONTINUOUS
 10
1478.332533
 20
1210.250729
 11
1478.332533
 21
1136.886667
  0
LINE
  8
1
 62
7
  6
CONTINUOUS
 10
1708.332533
 20
1210.250729
 11
1708.332533
 21
1136.886667
  0
CIRCLE
  8
1
 62
7
  6
CONTINUOUS
 10
1478.332533
 20
1200.250729
 40
1.500000
  0
CIRCLE
  8
1
 62
7
  6
CONTINUOUS
 10
1478.332533
 20
1200.250729
 40
0.750000
  0
CIRCLE
  8
1
 62
7
  6
CONTINUOUS
 10
1708.332533
 20
1200.250729
 40
1.500000
  0
CIRCLE
  8
1
 62
7
  6
CONTINUOUS
 10
1708.332533
 20
1200.250729
 40
0.750000
  0
TEXT
  8
1
 62
7
  6
CONTINUOUS
 10
1578.332533
 20
1200.250729
 40
20.000000
 41
0.500000
  1
234
  7
KANJI
 50
0.000000
 51
30.000000
  0
ENDBLK
  0
BLOCK
  8
1
 62
7
  6
CONTINUOUS
  2
*D13
 70
    65
 10
0.0
 20
0.0
  0
LINE
  8
1
 62
7
  6
CONTINUOUS
 10
1409.930556
 20
1126.886667
 11
1409.930556
 21
616.886667
  0
LINE
  8
1
 62
7
  6
CONTINUOUS
 10
1399.930556
 20
1126.886667
 11
1468.332533
 21
1126.886667
  0
LINE
  8
1
 62
7
  6
CONTINUOUS
 10
1399.930556
 20
616.886667
 11
1468.332533
 21
616.886667
  0
CIRCLE
  8
1
 62
7
  6
CONTINUOUS
 10
1409.930556
 20
1126.886667
 40
1.500000
  0
CIRCLE
  8
1
 62
7
  6
CONTINUOUS
 10
1409.930556
 20
1126.886667
 40
0.750000
  0
CIRCLE
  8
1
 62
7
  6
CONTINUOUS
 10
1409.930556
 20
616.886667
 40
1.500000
  0
CIRCLE
  8
1
 62
7
  6
CONTINUOUS
 10
1409.930556
 20
616.886667
 40
0.750000
  0
TEXT
  8
1
 62
7
  6
CONTINUOUS
 10
1409.930556
 20
856.886667
 40
20.000000
 41
0.500000
  1
510
  7
KANJI
 50
90.000000
 51
30.000000
  0
ENDBLK
  0
BLOCK
  8
1
 62
7
  6
CONTINUOUS
  2
*D14
 70
    65
 10
0.0
 20
0.0
  0
LINE
  8
1
 62
7
  6
CONTINUOUS
 10
1079.756944
 20
1101.886667
 11
1079.756944
 21
871.886667
  0
LINE
  8
1
 62
7
  6
CONTINUOUS
 10
1089.756944
 20
1101.886667
 11
1010.000000
 21
1101.886667
  0
LINE
  8
1
 62
7
  6
CONTINUOUS
 10
1089.756944
 20
871.886667
 11
1010.000000
 21
871.886667
  0
CIRCLE
  8
1
 62
7
  6
CONTINUOUS
 10
1079.756944
 20
1101.886667
 40
1.500000
  0
CIRCLE
  8
1
 62
7
  6
CONTINUOUS
 10
1079.756944
 20
1101.886667
 40
0.750000
  0
CIRCLE
  8
1
 62
7
  6
CONTINUOUS
 10
1079.756944
 20
871.886667
 40
1.500000
  0
CIRCLE
  8
1
 62
7
  6
CONTINUOUS
 10
1079.756944
 20
871.886667
 40
0.750000
  0
TEXT
  8
1
 62
7
  6
CONTINUOUS
 10
1079.756944
 20
971.886667
 40
20.000000
 41
0.500000
  1
230
  7
KANJI
 50
90.000000
 51
30.000000
  0
ENDBLK
  0
BLOCK
  8
1
 62
7
  6
CONTINUOUS
  2
*D15
 70
    65
 10
0.0
 20
0.0
  0
LINE
  8
1
 62
7
  6
CONTINUOUS
 10
543.480218
 20
1204.765625
 11
1263.480218
 21
1204.765625
  0
LINE
  8
1
 62
7
  6
CONTINUOUS
 10
543.480218
 20
1214.765625
 11
543.480218
 21
1116.886667
  0
LINE
  8
1
 62
7
  6
CONTINUOUS
 10
1263.480218
 20
1214.765625
 11
1263.480218
 21
1116.886667
  0
CIRCLE
  8
1
 62
7
  6
CONTINUOUS
 10
543.480218
 20
1204.765625
 40
1.500000
  0
CIRCLE
  8
1
 62
7
  6
CONTINUOUS
 10
543.480218
 20
1204.765625
 40
0.750000
  0
CIRCLE
  8
1
 62
7
  6
CONTINUOUS
 10
1263.480218
 20
1204.765625
 40
1.500000
  0
CIRCLE
  8
1
 62
7
  6
CONTINUOUS
 10
1263.480218
 20
1204.765625
 40
0.750000
  0
TEXT
  8
1
 62
7
  6
CONTINUOUS
 10
888.480218
 20
1204.765625
 40
20.000000
 41
0.500000
  1
720
  7
KANJI
 50
0.000000
 51
30.000000
  0
ENDBLK
  0
BLOCK
  8
1
 62
7
  6
CONTINUOUS
  2
*D16
 70
    65
 10
0.0
 20
0.0
  0
LINE
  8
1
 62
7
  6
CONTINUOUS
 10
543.480218
 20
1175.763889
 11
568.480218
 21
1175.763889
  0
LINE
  8
1
 62
7
  6
CONTINUOUS
 10
543.480218
 20
1185.763889
 11
543.480218
 21
1116.886667
  0
LINE
  8
1
 62
7
  6
CONTINUOUS
 10
568.480218
 20
1185.763889
 11
568.480218
 21
1116.886667
  0
CIRCLE
  8
1
 62
7
  6
CONTINUOUS
 10
543.480218
 20
1175.763889
 40
1.500000
  0
CIRCLE
  8
1
 62
7
  6
CONTINUOUS
 10
543.480218
 20
1175.763889
 40
0.750000
  0
CIRCLE
  8
1
 62
7
  6
CONTINUOUS
 10
568.480218
 20
1175.763889
 40
1.500000
  0
CIRCLE
  8
1
 62
7
  6
CONTINUOUS
 10
568.480218
 20
1175.763889
 40
0.750000
  0
TEXT
  8
1
 62
7
  6
CONTINUOUS
 10
545.980218
 20
1175.763889
 40
20.000000
 41
0.500000
  1
25
  7
KANJI
 50
0.000000
 51
30.000000
  0
ENDBLK
  0
BLOCK
  8
1
 62
7
  6
CONTINUOUS
  2
*D17
 70
    65
 10
0.0
 20
0.0
  0
LINE
  8
1
 62
7
  6
CONTINUOUS
 10
568.480218
 20
1175.763889
 11
1238.480218
 21
1175.763889
  0
LINE
  8
1
 62
7
  6
CONTINUOUS
 10
1238.480218
 20
1185.763889
 11
1238.480218
 21
1116.886667
  0
CIRCLE
  8
1
 62
7
  6
CONTINUOUS
 10
1238.480218
 20
1175.763889
 40
1.500000
  0
CIRCLE
  8
1
 62
7
  6
CONTINUOUS
 10
1238.480218
 20
1175.763889
 40
0.750000
  0
TEXT
  8
1
 62
7
  6
CONTINUOUS
 10
888.480218
 20
1175.763889
 40
20.000000
 41
0.500000
  1
670
  7
KANJI
 50
0.000000
 51
30.000000
  0
ENDBLK
  0
BLOCK
  8
1
 62
7
  6
CONTINUOUS
  2
*D18
 70
    65
 10
0.0
 20
0.0
  0
LINE
  8
1
 62
7
  6
CONTINUOUS
 10
1238.480218
 20
1175.763889
 11
1263.480218
 21
1175.763889
  0
LINE
  8
1
 62
7
  6
CONTINUOUS
 10
1263.480218
 20
1185.763889
 11
1263.480218
 21
1116.886667
  0
CIRCLE
  8
1
 62
7
  6
CONTINUOUS
 10
1263.480218
 20
1175.763889
 40
1.500000
  0
CIRCLE
  8
1
 62
7
  6
CONTINUOUS
 10
1263.480218
 20
1175.763889
 40
0.750000
  0
TEXT
  8
1
 62
7
  6
CONTINUOUS
 10
1240.980218
 20
1175.763889
 40
20.000000
 41
0.500000
  1
25
  7
KANJI
 50
0.000000
 51
30.000000
  0
ENDBLK
  0
BLOCK
  8
1
 62
7
  6
CONTINUOUS
  2
*D19
 70
    65
 10
0.0
 20
0.0
  0
LINE
  8
1
 62
7
  6
CONTINUOUS
 10
568.480218
 20
1135.607639
 11
811.102097
 21
1135.607639
  0
LINE
  8
1
 62
7
  6
CONTINUOUS
 10
568.480218
 20
1145.607639
 11
568.480218
 21
1116.886667
  0
LINE
  8
1
 62
7
  6
CONTINUOUS
 10
811.102097
 20
1145.607639
 11
811.102097
 21
1116.886667
  0
CIRCLE
  8
1
 62
7
  6
CONTINUOUS
 10
568.480218
 20
1135.607639
 40
1.500000
  0
CIRCLE
  8
1
 62
7
  6
CONTINUOUS
 10
568.480218
 20
1135.607639
 40
0.750000
  0
CIRCLE
  8
1
 62
7
  6
CONTINUOUS
 10
811.102097
 20
1135.607639
 40
1.500000
  0
CIRCLE
  8
1
 62
7
  6
CONTINUOUS
 10
811.102097
 20
1135.607639
 40
0.750000
  0
TEXT
  8
1
 62
7
  6
CONTINUOUS
 10
674.791158
 20
1135.607639
 40
20.000000
 41
0.500000
  1
250
  7
KANJI
 50
0.000000
 51
30.000000
  0
ENDBLK
  0
BLOCK
  8
1
 62
7
  6
CONTINUOUS
  2
*D20
 70
    65
 10
0.0
 20
0.0
  0
LINE
  8
1
 62
7
  6
CONTINUOUS
 10
1473.332533
 20
1167.111744
 11
1511.832277
 21
1167.111744
  0
LINE
  8
1
 62
7
  6
CONTINUOUS
 10
1478.332533
 20
1177.111744
 11
1478.332533
 21
1136.886667
  0
LINE
  8
1
 62
7
  6
CONTINUOUS
 10
1490.332533
 20
1177.111744
 11
1490.332533
 21
1136.886667
  0
CIRCLE
  8
1
 62
7
  6
CONTINUOUS
 10
1478.332533
 20
1167.111744
 40
1.500000
  0
CIRCLE
  8
1
 62
7
  6
CONTINUOUS
 10
1478.332533
 20
1167.111744
 40
0.750000
  0
CIRCLE
  8
1
 62
7
  6
CONTINUOUS
 10
1490.332533
 20
1167.111744
 40
1.500000
  0
CIRCLE
  8
1
 62
7
  6
CONTINUOUS
 10
1490.332533
 20
1167.111744
 40
0.750000
  0
TEXT
  8
1
 62
7
  6
CONTINUOUS
 10
1486.832277
 20
1167.111744
 40
20.000000
 41
0.500000
  1
12
  7
KANJI
 50
0.000000
 51
30.000000
  0
ENDBLK
  0
BLOCK
  8
1
 62
7
  6
CONTINUOUS
  2
*D21
 70
    65
 10
0.0
 20
0.0
  0
LINE
  8
1
 62
7
  6
CONTINUOUS
 10
1347.684866
 20
483.160000
 11
1347.684866
 21
248.160000
  0
LINE
  8
1
 62
7
  6
CONTINUOUS
 10
1357.684866
 20
483.160000
 11
1283.920000
 21
483.160000
  0
LINE
  8
1
 62
7
  6
CONTINUOUS
 10
1357.684866
 20
248.160000
 11
1283.920000
 21
248.160000
  0
CIRCLE
  8
1
 62
7
  6
CONTINUOUS
 10
1347.684866
 20
483.160000
 40
1.500000
  0
CIRCLE
  8
1
 62
7
  6
CONTINUOUS
 10
1347.684866
 20
483.160000
 40
0.750000
  0
CIRCLE
  8
1
 62
7
  6
CONTINUOUS
 10
1347.684866
 20
248.160000
 40
1.500000
  0
CIRCLE
  8
1
 62
7
  6
CONTINUOUS
 10
1347.684866
 20
248.160000
 40
0.750000
  0
TEXT
  8
1
 62
7
  6
CONTINUOUS
 10
1347.684866
 20
350.660000
 40
20.000000
 41
0.500000
  1
234
  7
KANJI
 50
90.000000
 51
30.000000
  0
ENDBLK
  0
BLOCK
  8
1
 62
7
  6
CONTINUOUS
  2
*D22
 70
    65
 10
0.0
 20
0.0
  0
LINE
  8
1
 62
7
  6
CONTINUOUS
 10
1318.363010
 20
483.160000
 11
1318.363010
 21
263.160000
  0
LINE
  8
1
 62
7
  6
CONTINUOUS
 10
1328.363010
 20
483.160000
 11
1283.920000
 21
483.160000
  0
LINE
  8
1
 62
7
  6
CONTINUOUS
 10
1328.363010
 20
263.160000
 11
1283.920000
 21
263.160000
  0
CIRCLE
  8
1
 62
7
  6
CONTINUOUS
 10
1318.363010
 20
483.160000
 40
1.500000
  0
CIRCLE
  8
1
 62
7
  6
CONTINUOUS
 10
1318.363010
 20
483.160000
 40
0.750000
  0
CIRCLE
  8
1
 62
7
  6
CONTINUOUS
 10
1318.363010
 20
263.160000
 40
1.500000
  0
CIRCLE
  8
1
 62
7
  6
CONTINUOUS
 10
1318.363010
 20
263.160000
 40
0.750000
  0
TEXT
  8
1
 62
7
  6
CONTINUOUS
 10
1318.363010
 20
358.160000
 40
20.000000
 41
0.500000
  1
214
  7
KANJI
 50
90.000000
 51
30.000000
  0
ENDBLK
  0
ENDSEC
  0
SECTION
  2
ENTITIES
  0
TEXT
  8
1
 62
7
  6
CONTINUOUS
 10
39.900000
 20
144.259375
 40
24.750000
 41
0.800000
  1
取引先：
  7
KANJI
 50
0.000000
 51
0.000000
  0
TEXT
  8
1
 62
7
  6
CONTINUOUS
 10
119.100000
 20
156.634375
 40
12.375000
 41
0.400000
  1

  7
KANJI
 50
0.000000
 51
0.000000
  0
TEXT
  8
1
 62
7
  6
CONTINUOUS
 10
119.100000
 20
144.259375
 40
12.375000
 41
0.400000
  1

  7
KANJI
 50
0.000000
 51
0.000000
  0
TEXT
  8
1
 62
7
  6
CONTINUOUS
 10
39.900000
 20
94.759375
 40
24.750000
 41
0.800000
  1
物件名：
  7
KANJI
 50
0.000000
 51
0.000000
  0
TEXT
  8
1
 62
7
  6
CONTINUOUS
 10
119.100000
 20
107.134375
 40
12.375000
 41
0.400000
  1

  7
KANJI
 50
0.000000
 51
0.000000
  0
TEXT
  8
1
 62
7
  6
CONTINUOUS
 10
119.100000
 20
94.759375
 40
12.375000
 41
0.400000
  1

  7
KANJI
 50
0.000000
 51
0.000000
  0
TEXT
  8
1
 62
7
  6
CONTINUOUS
 10
39.900000
 20
45.259375
 40
24.750000
 41
0.700000
  1
納 期：
  7
KANJI
 50
0.000000
 51
0.000000
  0
TEXT
  8
1
 62
7
  6
CONTINUOUS
 10
109.200000
 20
57.634375
 40
12.375000
 41
0.400000
  1

  7
KANJI
 50
0.000000
 51
0.000000
  0
TEXT
  8
1
 62
7
  6
CONTINUOUS
 10
109.200000
 20
45.259375
 40
12.375000
 41
0.400000
  1

  7
KANJI
 50
0.000000
 51
0.000000
  0
LINE
  8
1
 62
7
  6
CONTINUOUS
 10
30.000000
 20
188.500000
 11
30.000000
 21
40.000000
  0
LINE
  8
1
 62
7
  6
CONTINUOUS
 10
30.000000
 20
188.500000
 11
327.000000
 21
188.500000
  0
LINE
  8
1
 62
7
  6
CONTINUOUS
 10
327.000000
 20
188.500000
 11
327.000000
 21
139.000000
  0
LINE
  8
1
 62
7
  6
CONTINUOUS
 10
327.000000
 20
139.000000
 11
30.000000
 21
139.000000
  0
LINE
  8
1
 62
7
  6
CONTINUOUS
 10
30.000000
 20
139.000000
 11
30.000000
 21
89.500000
  0
LINE
  8
1
 62
7
  6
CONTINUOUS
 10
30.000000
 20
89.500000
 11
327.000000
 21
89.500000
  0
LINE
  8
1
 62
7
  6
CONTINUOUS
 10
327.000000
 20
89.500000
 11
327.000000
 21
139.000000
  0
LINE
  8
1
 62
7
  6
CONTINUOUS
 10
327.000000
 20
139.000000
 11
327.000000
 21
40.000000
  0
LINE
  8
1
 62
7
  6
CONTINUOUS
 10
327.000000
 20
40.000000
 11
30.000000
 21
40.000000
  0
TEXT
  8
1
 62
7
  6
CONTINUOUS
 10
341.850000
 20
144.259375
 40
24.750000
 41
0.800000
  1
　色柄：
  7
KANJI
 50
0.000000
 51
0.000000
  0
TEXT
  8
1
 62
7
  6
CONTINUOUS
 10
421.050000
 20
156.634375
 40
12.375000
 41
0.400000
  1

  7
KANJI
 50
0.000000
 51
0.000000
  0
TEXT
  8
1
 62
7
  6
CONTINUOUS
 10
421.050000
 20
144.259375
 40
12.375000
 41
0.400000
  1

  7
KANJI
 50
0.000000
 51
0.000000
  0
TEXT
  8
1
 62
7
  6
CONTINUOUS
 10
341.850000
 20
94.759375
 40
24.750000
 41
0.800000
  1
　厚み：
  7
KANJI
 50
0.000000
 51
0.000000
  0
TEXT
  8
1
 62
7
  6
CONTINUOUS
 10
421.050000
 20
107.134375
 40
12.375000
 41
0.400000
  1

  7
KANJI
 50
0.000000
 51
0.000000
  0
TEXT
  8
1
 62
7
  6
CONTINUOUS
 10
421.050000
 20
94.759375
 40
12.375000
 41
0.400000
  1

  7
KANJI
 50
0.000000
 51
0.000000
  0
TEXT
  8
1
 62
7
  6
CONTINUOUS
 10
341.850000
 20
45.259375
 40
24.750000
 41
0.800000
  1
付属品：
  7
KANJI
 50
0.000000
 51
0.000000
  0
TEXT
  8
1
 62
7
  6
CONTINUOUS
 10
421.050000
 20
57.634375
 40
12.375000
 41
0.400000
  1

  7
KANJI
 50
0.000000
 51
0.000000
  0
TEXT
  8
1
 62
7
  6
CONTINUOUS
 10
421.050000
 20
45.259375
 40
12.375000
 41
0.400000
  1

  7
KANJI
 50
0.000000
 51
0.000000
  0
LINE
  8
1
 62
7
  6
CONTINUOUS
 10
429.073950
 20
40.000000
 11
429.073950
 21
188.500000
  0
TEXT
  8
1
 62
7
  6
CONTINUOUS
 10
438.973950
 20
164.987500
 40
19.800000
 41
1.000000
  1
単色シリーズ
  7
KANJI
 50
0.000000
 51
0.000000
  0
TEXT
  8
1
 62
7
  6
CONTINUOUS
 10
557.773950
 20
174.887500
 40
9.900000
 41
0.500000
  1

  7
KANJI
 50
0.000000
 51
0.000000
  0
TEXT
  8
1
 62
7
  6
CONTINUOUS
 10
557.773950
 20
164.987500
 40
9.900000
 41
0.500000
  1

  7
KANJI
 50
0.000000
 51
0.000000
  0
LINE
  8
1
 62
7
  6
CONTINUOUS
 10
1615.489950
 20
40.000000
 11
1615.489950
 21
188.500000
  0
TEXT
  8
1
 62
7
  6
CONTINUOUS
 10
1235.923950
 20
94.759375
 40
24.750000
 41
0.800000
  1
埼玉県比企郡川島町表２１－５
  7
KANJI
 50
0.000000
 51
0.000000
  0
TEXT
  8
1
 62
7
  6
CONTINUOUS
 10
1513.123950
 20
107.134375
 40
12.375000
 41
0.400000
  1

  7
KANJI
 50
0.000000
 51
0.000000
  0
TEXT
  8
1
 62
7
  6
CONTINUOUS
 10
1513.123950
 20
94.759375
 40
12.375000
 41
0.400000
  1

  7
KANJI
 50
0.000000
 51
0.000000
  0
TEXT
  8
1
 62
7
  6
CONTINUOUS
 10
1235.923950
 20
70.009375
 40
24.750000
 41
0.647059
  1
  TEL ０４９２－９７－７２７１
  7
KANJI
 50
0.000000
 51
0.000000
  0
TEXT
  8
1
 62
7
  6
CONTINUOUS
 10
1495.798950
 20
82.384375
 40
12.375000
 41
0.388235
  1

  7
KANJI
 50
0.000000
 51
0.000000
  0
TEXT
  8
1
 62
7
  6
CONTINUOUS
 10
1495.798950
 20
70.009375
 40
12.375000
 41
0.388235
  1

  7
KANJI
 50
0.000000
 51
0.000000
  0
TEXT
  8
1
 62
7
  6
CONTINUOUS
 10
1235.923950
 20
45.259375
 40
24.750000
 41
0.647059
  1
  FAX ０４９２－９７－７２７３
  7
KANJI
 50
0.000000
 51
0.000000
  0
TEXT
  8
1
 62
7
  6
CONTINUOUS
 10
1495.798950
 20
57.634375
 40
12.375000
 41
0.388235
  1

  7
KANJI
 50
0.000000
 51
0.000000
  0
TEXT
  8
1
 62
7
  6
CONTINUOUS
 10
1495.798950
 20
45.259375
 40
12.375000
 41
0.388235
  1

  7
KANJI
 50
0.000000
 51
0.000000
  0
TEXT
  8
1
 62
7
  6
CONTINUOUS
 10
1235.923950
 20
117.653125
 40
34.650000
 41
1.285714
  1
㈱三井ＰＣＯ
  7
KANJI
 50
0.000000
 51
0.000000
  0
TEXT
  8
1
 62
7
  6
CONTINUOUS
 10
1468.573950
 20
134.978125
 40
17.325000
 41
0.642857
  1

  7
KANJI
 50
0.000000
 51
0.000000
  0
TEXT
  8
1
 62
7
  6
CONTINUOUS
 10
1468.573950
 20
117.653125
 40
17.325000
 41
0.642857
  1

  7
KANJI
 50
0.000000
 51
0.000000
  0
LINE
  8
1
 62
7
  6
CONTINUOUS
 10
429.073950
 20
188.500000
 11
578.420400
 21
188.500000
  0
LINE
  8
1
 62
7
  6
CONTINUOUS
 10
578.420400
 20
188.500000
 11
722.960400
 21
188.500000
  0
LINE
  8
1
 62
7
  6
CONTINUOUS
 10
722.960400
 20
188.500000
 11
872.851350
 21
188.500000
  0
LINE
  8
1
 62
7
  6
CONTINUOUS
 10
872.851350
 20
40.000000
 11
429.073950
 21
40.000000
  0
LINE
  8
1
 62
7
  6
CONTINUOUS
 10
429.073950
 20
139.000000
 11
872.851350
 21
139.000000
  0
LINE
  8
1
 62
7
  6
CONTINUOUS
 10
872.851350
 20
89.500000
 11
429.073950
 21
89.500000
  0
LINE
  8
1
 62
7
  6
CONTINUOUS
 10
578.420400
 20
188.500000
 11
578.420400
 21
89.500000
  0
LINE
  8
1
 62
7
  6
CONTINUOUS
 10
906.348000
 20
139.000000
 11
872.851350
 21
139.000000
  0
LINE
  8
1
 62
7
  6
CONTINUOUS
 10
872.851350
 20
139.000000
 11
906.348000
 21
139.000000
  0
LINE
  8
1
 62
7
  6
CONTINUOUS
 10
906.348000
 20
89.500000
 11
872.851350
 21
89.500000
  0
LINE
  8
1
 62
7
  6
CONTINUOUS
 10
872.851350
 20
89.500000
 11
906.348000
 21
89.500000
  0
LINE
  8
1
 62
7
  6
CONTINUOUS
 10
578.420400
 20
89.500000
 11
578.420400
 21
40.000000
  0
LINE
  8
1
 62
7
  6
CONTINUOUS
 10
872.851350
 20
188.500000
 11
906.348000
 21
188.500000
  0
LINE
  8
1
 62
7
  6
CONTINUOUS
 10
906.348000
 20
40.000000
 11
872.851350
 21
40.000000
  0
LINE
  8
1
 62
7
  6
CONTINUOUS
 10
1129.098000
 20
188.500000
 11
1129.098000
 21
40.000000
  0
LINE
  8
1
 62
7
  6
CONTINUOUS
 10
1129.098000
 20
40.000000
 11
1615.489950
 21
40.000000
  0
LINE
  8
1
 62
7
  6
CONTINUOUS
 10
1615.489950
 20
188.500000
 11
1129.098000
 21
188.500000
  0
LINE
  8
1
 62
7
  6
CONTINUOUS
 10
906.348000
 20
188.500000
 11
1121.673000
 21
188.500000
  0
LINE
  8
1
 62
7
  6
CONTINUOUS
 10
1121.673000
 20
188.500000
 11
1121.673000
 21
40.000000
  0
LINE
  8
1
 62
7
  6
CONTINUOUS
 10
1121.673000
 20
40.000000
 11
906.348000
 21
40.000000
  0
LINE
  8
1
 62
7
  6
CONTINUOUS
 10
906.348000
 20
139.000000
 11
1121.673000
 21
139.000000
  0
LINE
  8
1
 62
7
  6
CONTINUOUS
 10
1121.673000
 20
89.500000
 11
906.348000
 21
89.500000
  0
TEXT
  8
1
 62
7
  6
CONTINUOUS
 10
931.360845
 20
164.987500
 40
19.800000
 41
1.000000
  1
モンタナシリーズ
  7
KANJI
 50
0.000000
 51
0.000000
  0
TEXT
  8
1
 62
7
  6
CONTINUOUS
 10
1089.760845
 20
174.887500
 40
9.900000
 41
0.500000
  1

  7
KANJI
 50
0.000000
 51
0.000000
  0
TEXT
  8
1
 62
7
  6
CONTINUOUS
 10
1089.760845
 20
164.987500
 40
9.900000
 41
0.500000
  1

  7
KANJI
 50
0.000000
 51
0.000000
  0
TEXT
  8
1
 62
7
  6
CONTINUOUS
 10
755.473485
 20
164.987500
 40
19.800000
 41
1.000000
  1
シエラシリーズ
  7
KANJI
 50
0.000000
 51
0.000000
  0
TEXT
  8
1
 62
7
  6
CONTINUOUS
 10
894.073485
 20
174.887500
 40
9.900000
 41
0.500000
  1

  7
KANJI
 50
0.000000
 51
0.000000
  0
TEXT
  8
1
 62
7
  6
CONTINUOUS
 10
894.073485
 20
164.987500
 40
9.900000
 41
0.500000
  1

  7
KANJI
 50
0.000000
 51
0.000000
  0
LINE
  8
1
 62
7
  6
CONTINUOUS
 10
919.192260
 20
188.500000
 11
919.192260
 21
40.000000
  0
TEXT
  8
1
 62
7
  6
CONTINUOUS
 10
588.320400
 20
161.275000
 40
19.800000
 41
1.000000
  1
ベナーロシリーズ
  7
KANJI
 50
0.000000
 51
0.000000
  0
TEXT
  8
1
 62
7
  6
CONTINUOUS
 10
746.720400
 20
171.175000
 40
9.900000
 41
0.500000
  1

  7
KANJI
 50
0.000000
 51
0.000000
  0
TEXT
  8
1
 62
7
  6
CONTINUOUS
 10
746.720400
 20
161.275000
 40
9.900000
 41
0.500000
  1

  7
KANJI
 50
0.000000
 51
0.000000
  0
LINE
  8
1
 62
7
  6
CONTINUOUS
 10
749.190450
 20
188.500000
 11
749.190450
 21
40.000000
  0
TEXT
  8
1
 62
7
  6
CONTINUOUS
 10
429.073950
 20
48.380350
 40
24.750000
 41
0.800000
  1
シーム剤  本
  7
KANJI
 50
0.000000
 51
0.000000
  0
TEXT
  8
1
 62
7
  6
CONTINUOUS
 10
557.773950
 20
60.755350
 40
12.375000
 41
0.466667
  1

  7
KANJI
 50
0.000000
 51
0.000000
  0
TEXT
  8
1
 62
7
  6
CONTINUOUS
 10
557.773950
 20
48.380350
 40
12.375000
 41
0.466667
  1

  7
KANJI
 50
0.000000
 51
0.000000
  0
TEXT
  8
1
 62
7
  6
CONTINUOUS
 10
924.142260
 20
52.589335
 40
24.750000
 41
1.000000
  1
梱包個数　　梱
  7
KANJI
 50
0.000000
 51
0.000000
  0
TEXT
  8
1
 62
7
  6
CONTINUOUS
 10
1097.392260
 20
64.964335
 40
12.375000
 41
0.500000
  1

  7
KANJI
 50
0.000000
 51
0.000000
  0
TEXT
  8
1
 62
7
  6
CONTINUOUS
 10
1097.392260
 20
52.589335
 40
12.375000
 41
0.500000
  1

  7
KANJI
 50
0.000000
 51
0.000000
  0
TEXT
  8
1
 62
7
  6
CONTINUOUS
 10
735.879900
 20
52.271050
 40
24.750000
 41
0.746667
  1
 断熱テープ   本
  7
KANJI
 50
0.000000
 51
0.000000
  0
TEXT
  8
1
 62
7
  6
CONTINUOUS
 10
900.467400
 20
64.646050
 40
12.375000
 41
0.466667
  1

  7
KANJI
 50
0.000000
 51
0.000000
  0
TEXT
  8
1
 62
7
  6
CONTINUOUS
 10
900.467400
 20
52.271050
 40
12.375000
 41
0.466667
  1

  7
KANJI
 50
0.000000
 51
0.000000
  0
TEXT
  8
1
 62
7
  6
CONTINUOUS
 10
583.370400
 20
47.910595
 40
24.750000
 41
0.656250
  1
瞬間接着剤 　本
  7
KANJI
 50
0.000000
 51
0.000000
  0
TEXT
  8
1
 62
7
  6
CONTINUOUS
 10
713.307900
 20
60.285595
 40
12.375000
 41
0.350000
  1

  7
KANJI
 50
0.000000
 51
0.000000
  0
TEXT
  8
1
 62
7
  6
CONTINUOUS
 10
713.307900
 20
47.910595
 40
12.375000
 41
0.350000
  1

  7
KANJI
 50
0.000000
 51
0.000000
  0
TEXT
  8
1
 62
7
  6
CONTINUOUS
 10
438.973950
 20
97.234375
 40
24.750000
 41
1.041667
  1
   ㎜
  7
KANJI
 50
0.000000
 51
0.000000
  0
TEXT
  8
1
 62
7
  6
CONTINUOUS
 10
525.598950
 20
109.609375
 40
12.375000
 41
0.833333
  1

  7
KANJI
 50
0.000000
 51
0.000000
  0
TEXT
  8
1
 62
7
  6
CONTINUOUS
 10
525.598950
 20
97.234375
 40
12.375000
 41
0.833333
  1

  7
KANJI
 50
0.000000
 51
0.000000
  0
TEXT
  8
1
 62
7
  6
CONTINUOUS
 10
588.320400
 20
97.234375
 40
24.750000
 41
1.041667
  1
   ㎜
  7
KANJI
 50
0.000000
 51
0.000000
  0
TEXT
  8
1
 62
7
  6
CONTINUOUS
 10
674.945400
 20
109.609375
 40
12.375000
 41
0.833333
  1

  7
KANJI
 50
0.000000
 51
0.000000
  0
TEXT
  8
1
 62
7
  6
CONTINUOUS
 10
674.945400
 20
97.234375
 40
12.375000
 41
0.833333
  1

  7
KANJI
 50
0.000000
 51
0.000000
  0
TEXT
  8
1
 62
7
  6
CONTINUOUS
 10
755.473485
 20
97.234375
 40
24.750000
 41
1.041667
  1
   ㎜
  7
KANJI
 50
0.000000
 51
0.000000
  0
TEXT
  8
1
 62
7
  6
CONTINUOUS
 10
842.098485
 20
109.609375
 40
12.375000
 41
0.833333
  1

  7
KANJI
 50
0.000000
 51
0.000000
  0
TEXT
  8
1
 62
7
  6
CONTINUOUS
 10
842.098485
 20
97.234375
 40
12.375000
 41
0.833333
  1

  7
KANJI
 50
0.000000
 51
0.000000
  0
TEXT
  8
1
 62
7
  6
CONTINUOUS
 10
924.142260
 20
97.234375
 40
24.750000
 41
1.050000
  1
    ㎜
  7
KANJI
 50
0.000000
 51
0.000000
  0
TEXT
  8
1
 62
7
  6
CONTINUOUS
 10
1035.517260
 20
109.609375
 40
12.375000
 41
0.875000
  1

  7
KANJI
 50
0.000000
 51
0.000000
  0
TEXT
  8
1
 62
7
  6
CONTINUOUS
 10
1035.517260
 20
97.234375
 40
12.375000
 41
0.875000
  1

  7
KANJI
 50
0.000000
 51
0.000000
  0
TEXT
  8
1
 62
7
  6
CONTINUOUS
 10
1138.998000
 20
159.109375
 40
24.750000
 41
0.800000
  1
デュポンコーリアン認定加工／施工工場　　Ｍｐｃｏ　
  7
KANJI
 50
0.000000
 51
0.000000
  0
TEXT
  8
1
 62
7
  6
CONTINUOUS
 10
1633.998000
 20
171.484375
 40
12.375000
 41
0.400000
  1

  7
KANJI
 50
0.000000
 51
0.000000
  0
TEXT
  8
1
 62
7
  6
CONTINUOUS
 10
1633.998000
 20
159.109375
 40
12.375000
 41
0.400000
  1

  7
KANJI
 50
0.000000
 51
0.000000
  0
LINE
  8
1
 62
7
  6
CONTINUOUS
 10
1622.914950
 20
40.000000
 11
1734.473100
 21
40.000000
  0
TEXT
  8
1
 62
7
  6
CONTINUOUS
 10
1627.864950
 20
95.378125
 40
34.650000
 41
0.714286
  1
図面番号
  7
KANJI
 50
0.000000
 51
0.000000
  0
TEXT
  8
1
 62
7
  6
CONTINUOUS
 10
1726.864950
 20
112.703125
 40
17.325000
 41
0.357143
  1

  7
KANJI
 50
0.000000
 51
0.000000
  0
TEXT
  8
1
 62
7
  6
CONTINUOUS
 10
1726.864950
 20
95.378125
 40
17.325000
 41
0.357143
  1

  7
KANJI
 50
0.000000
 51
0.000000
  0
LINE
  8
1
 62
7
  6
CONTINUOUS
 10
1622.914950
 20
139.000000
 11
1622.914950
 21
40.000000
  0
LINE
  8
1
 62
7
  6
CONTINUOUS
 10
1622.914950
 20
40.000000
 11
1734.473100
 21
40.000000
  0
LINE
  8
1
 62
7
  6
CONTINUOUS
 10
1734.473100
 20
40.000000
 11
1734.473100
 21
139.000000
  0
LINE
  8
1
 62
7
  6
CONTINUOUS
 10
1734.473100
 20
139.000000
 11
1622.914950
 21
139.000000
  0
LINE
  8
1
 62
7
  6
CONTINUOUS
 10
1622.914950
 20
139.000000
 11
1622.914950
 21
188.500000
  0
LINE
  8
1
 62
7
  6
CONTINUOUS
 10
1622.914950
 20
188.500000
 11
1734.473100
 21
188.500000
  0
LINE
  8
1
 62
7
  6
CONTINUOUS
 10
1734.473100
 20
188.500000
 11
1734.473100
 21
139.000000
  0
TEXT
  8
1
 62
7
  6
CONTINUOUS
 10
1627.864950
 20
161.275000
 40
19.800000
 41
0.875000
  1
CAD-NO
  7
KANJI
 50
0.000000
 51
0.000000
  0
TEXT
  8
1
 62
7
  6
CONTINUOUS
 10
1723.152450
 20
171.175000
 40
9.900000
 41
0.875000
  1

  7
KANJI
 50
0.000000
 51
0.000000
  0
TEXT
  8
1
 62
7
  6
CONTINUOUS
 10
1723.152450
 20
161.275000
 40
9.900000
 41
0.875000
  1

  7
KANJI
 50
0.000000
 51
0.000000
  0
TEXT
  8
1
 62
7
  6
CONTINUOUS
 10
54.560220
 20
1131.500000
 40
30.000000
 41
0.833333
  1
100％アクリル製
  7
KANJI
 50
0.000000
 51
0.000000
  0
TEXT
  8
1
 62
7
  6
CONTINUOUS
 10
279.560220
 20
1146.500000
 40
15.000000
 41
0.500000
  1

  7
KANJI
 50
0.000000
 51
0.000000
  0
TEXT
  8
1
 62
7
  6
CONTINUOUS
 10
279.560220
 20
1131.500000
 40
15.000000
 41
0.500000
  1

  7
KANJI
 50
0.000000
 51
0.000000
  0
TEXT
  8
1
 62
7
  6
CONTINUOUS
 10
54.560220
 20
1061.500000
 40
30.000000
 41
1.000000
  1
専用排水金具は別売
  7
KANJI
 50
0.000000
 51
0.000000
  0
TEXT
  8
1
 62
7
  6
CONTINUOUS
 10
324.560220
 20
1076.500000
 40
15.000000
 41
0.500000
  1

  7
KANJI
 50
0.000000
 51
0.000000
  0
TEXT
  8
1
 62
7
  6
CONTINUOUS
 10
324.560220
 20
1061.500000
 40
15.000000
 41
0.500000
  1

  7
KANJI
 50
0.000000
 51
0.000000
  0
TEXT
  8
1
 62
7
  6
CONTINUOUS
 10
54.560220
 20
1166.500000
 40
50.000000
 41
0.625000
  1
U-201 ｼﾝｸ詳細図
  7
KANJI
 50
0.000000
 51
0.000000
  0
TEXT
  8
1
 62
7
  6
CONTINUOUS
 10
429.560220
 20
1191.500000
 40
25.000000
 41
0.500000
  1

  7
KANJI
 50
0.000000
 51
0.000000
  0
TEXT
  8
1
 62
7
  6
CONTINUOUS
 10
429.560220
 20
1166.500000
 40
25.000000
 41
0.500000
  1

  7
KANJI
 50
0.000000
 51
0.000000
  0
CIRCLE
  8
1
 62
7
  6
DOT
 10
903.480219
 20
871.886667
 40
80.000000
  0
CIRCLE
  8
1
 62
7
  6
CONTINUOUS
 10
903.480218
 20
871.886667
 40
80.000000
  0
CIRCLE
  8
1
 62
7
  6
CONTINUOUS
 10
903.480218
 20
871.886667
 40
90.000000
  0
DIMENSION
  8
1
 62
7
  6
CONTINUOUS
  2
*D1
 10
813.480218
 20
871.886667
 11
903.480219
 21
871.886667
 70
     0
  1
180
 13
813.480218
 23
871.886667
 14
993.480219
 24
871.886667
 50
0.000000
  0
LINE
  8
1
 62
7
  6
CONTINUOUS
 10
903.480218
 20
904.366319
 11
903.480218
 21
961.886667
  0
LINE
  8
1
 62
7
  6
CONTINUOUS
 10
903.480218
 20
821.886667
 11
903.480218
 21
759.357639
  0
LINE
  8
1
 62
7
  6
CONTINUOUS
 10
718.480219
 20
989.886667
 11
743.071478
 21
989.886667
  0
ARC
  8
1
 62
7
  6
CONTINUOUS
 10
743.071478
 20
1059.886667
 40
70.000000
 50
-90.000000
 51
-24.057349
  0
LINE
  8
1
 62
7
  6
CONTINUOUS
 10
806.991130
 20
1031.351108
 11
833.191387
 21
1090.039683
  0
ARC
  8
1
 62
7
  6
CONTINUOUS
 10
851.454144
 20
1081.886667
 40
20.000000
 50
90.000000
 51
155.942651
  0
LINE
  8
1
 62
7
  6
CONTINUOUS
 10
598.480219
 20
616.886667
 11
1208.480219
 21
616.886667
  0
ARC
  8
1
 62
7
  6
CONTINUOUS
 10
598.480219
 20
671.886667
 40
55.000000
 50
180.000000
 51
-90.000000
  0
ARC
  8
1
 62
7
  6
CONTINUOUS
 10
1208.480219
 20
671.886667
 40
55.000000
 50
-90.000000
 51
0.000000
  0
LINE
  8
1
 62
7
  6
CONTINUOUS
 10
1263.480219
 20
1071.886667
 11
1263.480219
 21
671.886667
  0
ARC
  8
1
 62
7
  6
CONTINUOUS
 10
1208.480219
 20
1071.886667
 40
55.000000
 50
0.000000
 51
90.000000
  0
LINE
  8
1
 62
7
  6
CONTINUOUS
 10
543.480219
 20
671.886667
 11
543.480219
 21
934.288194
  0
LINE
  8
1
 62
7
  6
CONTINUOUS
 10
568.480219
 20
932.057292
 11
568.480219
 21
959.886667
  0
LINE
  8
1
 62
7
  6
CONTINUOUS
 10
598.480219
 20
989.886667
 11
718.480219
 21
989.886667
  0
ARC
  8
1
 62
7
  6
CONTINUOUS
 10
598.480219
 20
959.886667
 40
30.000000
 50
90.000000
 51
180.000000
  0
LINE
  8
1
 62
7
  6
CONTINUOUS
 10
568.480219
 20
932.057292
 11
568.480219
 21
671.886667
  0
ARC
  8
1
 62
7
  6
CONTINUOUS
 10
598.480219
 20
671.886667
 40
30.000000
 50
180.000000
 51
-90.000000
  0
LINE
  8
1
 62
7
  6
CONTINUOUS
 10
598.480219
 20
641.886667
 11
1208.480219
 21
641.886667
  0
ARC
  8
1
 62
7
  6
CONTINUOUS
 10
1208.480219
 20
671.886667
 40
30.000000
 50
-90.000000
 51
0.000000
  0
LINE
  8
1
 62
7
  6
CONTINUOUS
 10
1238.480219
 20
671.886667
 11
1238.480219
 21
1071.886667
  0
LINE
  8
1
 62
7
  6
CONTINUOUS
 10
1208.480219
 20
1101.886667
 11
851.454144
 21
1101.886667
  0
ARC
  8
1
 62
7
  6
CONTINUOUS
 10
1208.480219
 20
1071.886667
 40
30.000000
 50
0.000000
 51
90.000000
  0
LINE
  8
1
 62
7
  6
CONTINUOUS
 10
543.480219
 20
934.288194
 11
543.480219
 21
959.886667
  0
LINE
  8
1
 62
7
  6
CONTINUOUS
 10
598.480219
 20
1014.886667
 11
718.480219
 21
1014.886667
  0
ARC
  8
1
 62
7
  6
CONTINUOUS
 10
598.480219
 20
959.886667
 40
55.000000
 50
90.000000
 51
180.000000
  0
LINE
  8
1
 62
7
  6
CONTINUOUS
 10
718.480219
 20
1014.886667
 11
726.854071
 21
1014.886667
  0
LINE
  8
1
 62
7
  6
CONTINUOUS
 10
790.773723
 20
1056.351108
 11
811.102097
 21
1101.886667
  0
ARC
  8
1
 62
7
  6
CONTINUOUS
 10
726.854071
 20
1084.886667
 40
70.000000
 50
-90.000000
 51
-24.057349
  0
LINE
  8
1
 62
7
  6
CONTINUOUS
 10
811.102097
 20
1101.886667
 11
810.362940
 21
1100.230954
  0
LINE
  8
1
 62
7
  6
CONTINUOUS
 10
1208.480219
 20
1126.886667
 11
851.454145
 21
1126.886667
  0
ARC
  8
1
 62
7
  6
CONTINUOUS
 10
851.454145
 20
1081.886667
 40
45.000000
 50
90.000000
 51
155.942651
  0
DIMENSION
  8
1
 62
7
  6
CONTINUOUS
  2
*D2
 10
432.259890
 20
1126.886667
 11
432.259890
 21
871.886667
 70
     0
  1
510
 13
533.480219
 23
1126.886667
 14
533.480219
 24
616.886667
 50
-90.000000
  0
DIMENSION
  8
1
 62
7
  6
CONTINUOUS
  2
*D3
 10
459.565972
 20
1126.886667
 11
459.565972
 21
1114.386667
 70
     0
  1
25
 13
533.480219
 23
1126.886667
 14
533.480219
 24
1101.886667
 50
-90.000000
  0
DIMENSION
  8
1
 62
7
  6
CONTINUOUS
  2
*D4
 10
459.565972
 20
1101.886667
 11
459.565972
 21
871.886667
 70
     0
  1
460
 13
459.565972
 23
1101.886667
 14
533.480219
 24
641.886667
 50
-90.000000
  0
DIMENSION
  8
1
 62
7
  6
CONTINUOUS
  2
*D5
 10
459.565972
 20
641.886667
 11
459.565972
 21
629.386667
 70
     0
  1
25
 13
459.565972
 23
641.886667
 14
533.480219
 24
616.886667
 50
-90.000000
  0
DIMENSION
  8
1
 62
7
  6
CONTINUOUS
  2
*D6
 10
493.029514
 20
1101.886667
 11
493.029514
 21
1045.886667
 70
     0
  1
112
 13
533.480219
 23
1101.886667
 14
533.480219
 24
989.886667
 50
-90.000000
  0
DIMENSION
  8
1
 62
7
  6
CONTINUOUS
  2
*D7
 10
493.029514
 20
989.886667
 11
493.029514
 21
815.886667
 70
     0
  1
348
 13
493.029514
 23
989.886667
 14
533.480219
 24
641.886667
 50
-90.000000
  0
LINE
  8
1
 62
7
  6
CONTINUOUS
 10
577.267015
 20
650.673463
 11
634.997190
 21
708.403639
  0
LINE
  8
1
 62
7
  6
CONTINUOUS
 10
634.997190
 20
708.403639
 11
677.359898
 21
708.403639
  0
TEXT
  8
1
 62
7
  6
CONTINUOUS
 10
639.859898
 20
708.403639
 40
20.000000
 41
0.375000
  1
30R*4
  7
KANJI
 50
0.000000
 51
30.000000
  0
LINE
  8
1
 62
7
  6
CONTINUOUS
 10
577.267015
 20
650.673463
 11
587.267015
 21
667.993971
  0
LINE
  8
1
 62
7
  6
CONTINUOUS
 10
577.267015
 20
650.673463
 11
594.587523
 21
660.673463
  0
LINE
  8
1
 62
7
  6
CONTINUOUS
 10
587.267015
 20
667.993971
 11
594.587523
 21
660.673463
  0
LINE
  8
1
 62
7
  6
CONTINUOUS
 10
580.682078
 20
654.088527
 11
585.682078
 21
662.748781
  0
LINE
  8
1
 62
7
  6
CONTINUOUS
 10
580.682078
 20
654.088527
 11
589.342333
 21
659.088527
  0
LINE
  8
1
 62
7
  6
CONTINUOUS
 10
585.682078
 20
662.748781
 11
589.342333
 21
659.088527
  0
LINE
  8
1
 62
7
  6
CONTINUOUS
 10
559.589345
 20
632.995794
 11
497.484842
 21
570.891291
  0
LINE
  8
1
 62
7
  6
CONTINUOUS
 10
497.484842
 20
570.891291
 11
463.582941
 21
570.891291
  0
TEXT
  8
1
 62
7
  6
CONTINUOUS
 10
463.582941
 20
570.891291
 40
20.000000
 41
0.375000
  1
55R*4
  7
KANJI
 50
0.000000
 51
30.000000
  0
LINE
  8
1
 62
7
  6
CONTINUOUS
 10
559.589345
 20
632.995794
 11
549.589345
 21
615.675286
  0
LINE
  8
1
 62
7
  6
CONTINUOUS
 10
559.589345
 20
632.995794
 11
542.268837
 21
622.995794
  0
LINE
  8
1
 62
7
  6
CONTINUOUS
 10
549.589345
 20
615.675286
 11
542.268837
 21
622.995794
  0
LINE
  8
1
 62
7
  6
CONTINUOUS
 10
556.174282
 20
629.580730
 11
551.174282
 21
620.920476
  0
LINE
  8
1
 62
7
  6
CONTINUOUS
 10
556.174282
 20
629.580730
 11
547.514028
 21
624.580730
  0
LINE
  8
1
 62
7
  6
CONTINUOUS
 10
551.174282
 20
620.920476
 11
547.514028
 21
624.580730
  0
LINE
  8
1
 62
7
  6
CONTINUOUS
 10
818.335110
 20
483.160000
 11
1057.459291
 21
483.160000
  0
LINE
  8
1
 62
7
  6
CONTINUOUS
 10
813.480218
 20
256.160000
 11
823.480218
 21
256.160000
  0
LINE
  8
1
 62
7
  6
CONTINUOUS
 10
993.480218
 20
256.160000
 11
983.480218
 21
256.160000
  0
LINE
  8
1
 62
7
  6
CONTINUOUS
 10
823.480218
 20
256.160000
 11
823.480218
 21
248.160000
  0
LINE
  8
1
 62
7
  6
CONTINUOUS
 10
823.480218
 20
256.160000
 11
983.480218
 21
256.160000
  0
LINE
  8
1
 62
7
  6
CONTINUOUS
 10
983.480218
 20
256.160000
 11
983.480218
 21
248.160000
  0
LINE
  8
1
 62
7
  6
CONTINUOUS
 10
993.480218
 20
248.160000
 11
998.480218
 21
248.160000
  0
LINE
  8
1
 62
7
  6
CONTINUOUS
 10
1003.480218
 20
253.160000
 11
1003.480218
 21
253.541557
  0
ARC
  8
1
 62
7
  6
CONTINUOUS
 10
998.480218
 20
253.160000
 40
5.000000
 50
-90.000000
 51
0.000000
  0
LINE
  8
1
 62
7
  6
CONTINUOUS
 10
802.480218
 20
253.575851
 11
802.480218
 21
253.160000
  0
LINE
  8
1
 62
7
  6
CONTINUOUS
 10
807.480218
 20
248.160000
 11
993.480218
 21
248.160000
  0
ARC
  8
1
 62
7
  6
CONTINUOUS
 10
807.480218
 20
253.160000
 40
5.000000
 50
180.000000
 51
-90.000000
  0
LINE
  8
1
 62
7
  6
CONTINUOUS
 10
813.480218
 20
261.236894
 11
813.480218
 21
256.160000
  0
ARC
  8
1
 62
7
  6
CONTINUOUS
 10
811.480218
 20
261.236894
 40
2.000000
 50
0.000000
 51
87.754257
  0
LINE
  8
1
 62
7
  6
CONTINUOUS
 10
993.480218
 20
261.236894
 11
993.480218
 21
256.160000
  0
ARC
  8
1
 62
7
  6
CONTINUOUS
 10
995.480218
 20
261.236894
 40
2.000000
 50
92.245743
 51
180.000000
  0
DIMENSION
  8
1
 62
7
  6
CONTINUOUS
  2
*D8
 10
813.480218
 20
286.869406
 11
903.480218
 21
286.869406
 70
     0
  1
180φ
 13
813.480218
 23
283.160000
 14
993.480218
 24
283.160000
 50
0.000000
  0
LINE
  8
1
 62
7
  6
CONTINUOUS
 10
683.158843
 20
268.270642
 11
811.558589
 21
263.235358
  0
LINE
  8
1
 62
7
  6
CONTINUOUS
 10
705.285037
 20
257.250282
 11
802.480218
 21
253.575851
  0
LINE
  8
1
 62
7
  6
CONTINUOUS
 10
568.480219
 20
483.160000
 11
543.480219
 21
483.160000
  0
LINE
  8
1
 62
7
  6
CONTINUOUS
 10
543.480219
 20
483.160000
 11
548.480219
 21
471.160000
  0
LINE
  8
1
 62
7
  6
CONTINUOUS
 10
568.480219
 20
483.160000
 11
586.408384
 21
294.914261
  0
ARC
  8
1
 62
7
  6
CONTINUOUS
 10
611.295771
 20
297.284488
 40
25.000000
 50
-174.559668
 51
-92.245743
  0
ARC
  8
1
 62
7
  6
CONTINUOUS
 10
610.900196
 20
296.977610
 40
35.000000
 50
-174.559668
 51
-92.165016
  0
DIMENSION
  8
1
 62
7
  6
CONTINUOUS
  2
*D9
 10
515.661534
 20
483.160000
 11
515.661534
 21
477.160000
 70
     0
  1
12
 13
533.480219
 23
483.160000
 14
533.480219
 24
471.160000
 50
-90.000000
  0
DIMENSION
  8
1
 62
7
  6
CONTINUOUS
  2
*D10
 10
543.480219
 20
501.898015
 11
555.980219
 21
501.898015
 70
     0
  1
25
 13
543.480219
 23
493.160000
 14
568.480219
 24
493.160000
 50
0.000000
  0
LINE
  8
1
 62
7
  6
CONTINUOUS
 10
594.284689
 20
278.964470
 11
620.863540
 21
305.543322
  0
LINE
  8
1
 62
7
  6
CONTINUOUS
 10
620.863540
 20
305.543322
 11
643.363540
 21
305.543322
  0
TEXT
  8
1
 62
7
  6
CONTINUOUS
 10
620.863540
 20
305.543322
 40
20.000000
 41
0.375000
  1
25R
  7
KANJI
 50
0.000000
 51
30.000000
  0
LINE
  8
1
 62
7
  6
CONTINUOUS
 10
594.284689
 20
278.964470
 11
604.284689
 21
296.284978
  0
LINE
  8
1
 62
7
  6
CONTINUOUS
 10
594.284689
 20
278.964470
 11
611.605197
 21
288.964470
  0
LINE
  8
1
 62
7
  6
CONTINUOUS
 10
604.284689
 20
296.284978
 11
611.605197
 21
288.964470
  0
LINE
  8
1
 62
7
  6
CONTINUOUS
 10
597.699752
 20
282.379533
 11
602.699752
 21
291.039787
  0
LINE
  8
1
 62
7
  6
CONTINUOUS
 10
597.699752
 20
282.379533
 11
606.360006
 21
287.379533
  0
LINE
  8
1
 62
7
  6
CONTINUOUS
 10
602.699752
 20
291.039787
 11
606.360006
 21
287.379533
  0
DIMENSION
  8
1
 62
7
  6
CONTINUOUS
  2
*D11
 10
570.280479
 20
354.321735
 11
575.515504
 21
354.321735
 70
     0
  1
8
 13
570.280479
 23
354.321735
 14
580.750530
 24
354.321735
 50
0.000000
  0
LINE
  8
1
 62
7
  6
CONTINUOUS
 10
600.069046
 20
354.321735
 11
609.552711
 21
354.321735
  0
LINE
  8
1
 62
7
  6
CONTINUOUS
 10
550.961963
 20
354.321735
 11
539.916754
 21
354.321735
  0
LINE
  8
1
 62
7
  6
CONTINUOUS
 10
548.480219
 20
471.160000
 11
556.425165
 21
471.160000
  0
LINE
  8
1
 62
7
  6
CONTINUOUS
 10
559.411651
 20
468.444427
 11
576.057855
 21
293.659292
  0
ARC
  8
1
 62
7
  6
CONTINUOUS
 10
556.425165
 20
468.160000
 40
3.000000
 50
5.440332
 51
90.000000
  0
LINE
  8
1
 62
7
  6
CONTINUOUS
 10
568.480219
 20
483.160000
 11
822.854815
 21
483.160000
  0
LINE
  8
1
 62
7
  6
CONTINUOUS
 10
995.401847
 20
263.235358
 11
1068.151716
 21
266.088294
  0
LINE
  8
1
 62
7
  6
CONTINUOUS
 10
1003.480218
 20
253.541557
 11
1077.123874
 21
256.351485
  0
LINE
  8
1
 62
7
  6
CONTINUOUS
 10
1258.480219
 20
471.160000
 11
1263.480219
 21
483.160000
  0
LINE
  8
1
 62
7
  6
CONTINUOUS
 10
1263.480219
 20
483.160000
 11
1238.480219
 21
483.160000
  0
LINE
  8
1
 62
7
  6
CONTINUOUS
 10
1238.480219
 20
483.160000
 11
1220.552053
 21
294.914261
  0
ARC
  8
1
 62
7
  6
CONTINUOUS
 10
1195.664666
 20
297.284488
 40
25.000000
 50
-87.754257
 51
-5.440332
  0
ARC
  8
1
 62
7
  6
CONTINUOUS
 10
1193.625363
 20
296.966825
 40
35.000000
 50
-87.814898
 51
-5.440332
  0
LINE
  8
1
 62
7
  6
CONTINUOUS
 10
1228.467704
 20
293.648507
 11
1245.114935
 21
468.444427
  0
LINE
  8
1
 62
7
  6
CONTINUOUS
 10
1248.101421
 20
471.160000
 11
1258.480219
 21
471.160000
  0
ARC
  8
1
 62
7
  6
CONTINUOUS
 10
1248.101421
 20
468.160000
 40
3.000000
 50
90.000000
 51
174.559668
  0
LINE
  8
1
 62
7
  6
CONTINUOUS
 10
1091.241104
 20
483.160000
 11
1238.480219
 21
483.160000
  0
LINE
  8
1
 62
7
  6
CONTINUOUS
 10
1092.087791
 20
268.203434
 11
1196.644305
 21
272.303690
  0
LINE
  8
1
 62
7
  6
CONTINUOUS
 10
1089.676843
 20
257.975125
 11
1194.959842
 21
261.992275
  0
LINE
  8
1
 62
7
  6
CONTINUOUS
 10
1068.151716
 20
266.088294
 11
1092.087791
 21
268.203434
  0
LINE
  8
1
 62
7
  6
CONTINUOUS
 10
1077.123874
 20
256.351485
 11
1089.676843
 21
257.975125
  0
LINE
  8
1
 62
7
  6
CONTINUOUS
 10
610.316132
 20
272.303690
 11
664.946557
 21
270.161320
  0
LINE
  8
1
 62
7
  6
CONTINUOUS
 10
609.577978
 20
262.002594
 11
669.292374
 21
259.745112
  0
LINE
  8
1
 62
7
  6
CONTINUOUS
 10
664.946557
 20
270.161320
 11
683.158843
 21
268.270642
  0
LINE
  8
1
 62
7
  6
CONTINUOUS
 10
669.292374
 20
259.745112
 11
706.060898
 21
257.220951
  0
LINE
  8
1
 62
7
  6
CONTINUOUS
 10
1478.332533
 20
616.886667
 11
1490.332533
 21
619.886667
  0
LINE
  8
1
 62
7
  6
CONTINUOUS
 10
1478.332533
 20
616.886667
 11
1478.332533
 21
641.886667
  0
LINE
  8
1
 62
7
  6
CONTINUOUS
 10
1490.332533
 20
1123.886667
 11
1478.332533
 21
1126.886667
  0
LINE
  8
1
 62
7
  6
CONTINUOUS
 10
1478.332533
 20
1126.886667
 11
1478.332533
 21
641.886667
  0
LINE
  8
1
 62
7
  6
CONTINUOUS
 10
1490.332533
 20
619.886667
 11
1490.332533
 21
1123.886667
  0
LINE
  8
1
 62
7
  6
CONTINUOUS
 10
1490.332533
 20
1111.886667
 11
1671.660160
 21
1102.865392
  0
LINE
  8
1
 62
7
  6
CONTINUOUS
 10
1694.984457
 20
1082.531471
 11
1701.332533
 21
1048.886667
  0
ARC
  8
1
 62
7
  6
CONTINUOUS
 10
1670.417916
 20
1077.896274
 40
25.000000
 50
10.684912
 51
87.151812
  0
LINE
  8
1
 62
7
  6
CONTINUOUS
 10
1490.332533
 20
631.886667
 11
1668.600672
 21
640.755728
  0
ARC
  8
1
 62
7
  6
CONTINUOUS
 10
1667.358427
 20
665.724846
 40
25.000000
 50
-87.151812
 51
-2.522412
  0
LINE
  8
1
 62
7
  6
CONTINUOUS
 10
1684.368710
 20
647.404085
 11
1644.743784
 21
687.029011
  0
LINE
  8
1
 62
7
  6
CONTINUOUS
 10
1644.743784
 20
687.029011
 11
1622.243784
 21
687.029011
  0
TEXT
  8
1
 62
7
  6
CONTINUOUS
 10
1622.243784
 20
687.029011
 40
20.000000
 41
0.375000
  1
25R
  7
KANJI
 50
0.000000
 51
30.000000
  0
LINE
  8
1
 62
7
  6
CONTINUOUS
 10
1684.368710
 20
647.404085
 11
1667.048202
 21
657.404085
  0
LINE
  8
1
 62
7
  6
CONTINUOUS
 10
1684.368710
 20
647.404085
 11
1674.368710
 21
664.724593
  0
LINE
  8
1
 62
7
  6
CONTINUOUS
 10
1667.048202
 20
657.404085
 11
1674.368710
 21
664.724593
  0
LINE
  8
1
 62
7
  6
CONTINUOUS
 10
1680.953646
 20
650.819149
 11
1672.293392
 21
655.819149
  0
LINE
  8
1
 62
7
  6
CONTINUOUS
 10
1680.953646
 20
650.819149
 11
1675.953646
 21
659.479403
  0
LINE
  8
1
 62
7
  6
CONTINUOUS
 10
1672.293392
 20
655.819149
 11
1675.953646
 21
659.479403
  0
DIMENSION
  8
1
 62
7
  6
CONTINUOUS
  2
*D12
 10
1478.332533
 20
1200.250729
 11
1593.332533
 21
1200.250729
 70
     0
  1
234
 13
1478.332533
 23
1136.886667
 14
1708.332533
 24
1136.886667
 50
0.000000
  0
LINE
  8
1
 62
7
  6
CONTINUOUS
 10
1701.332533
 20
961.886667
 11
1708.332533
 21
961.886667
  0
LINE
  8
1
 62
7
  6
CONTINUOUS
 10
1708.332533
 20
961.886667
 11
1708.332533
 21
781.886667
  0
LINE
  8
1
 62
7
  6
CONTINUOUS
 10
1708.332533
 20
781.886667
 11
1701.332533
 21
781.886667
  0
LINE
  8
1
 62
7
  6
CONTINUOUS
 10
1692.334204
 20
664.624591
 11
1701.332533
 21
781.886667
  0
LINE
  8
1
 62
7
  6
CONTINUOUS
 10
1701.332533
 20
1000.886667
 11
1701.332533
 21
961.886667
  0
LINE
  8
1
 62
7
  6
CONTINUOUS
 10
1701.332533
 20
936.886667
 11
1701.332533
 21
781.886667
  0
LINE
  8
1
 62
7
  6
DOT
 10
1701.332533
 20
961.886667
 11
1701.332533
 21
936.886667
  0
LINE
  8
1
 62
7
  6
CONTINUOUS
 10
1701.332533
 20
961.886667
 11
1701.332533
 21
943.757405
  0
LINE
  8
1
 62
7
  6
CONTINUOUS
 10
1690.735642
 20
871.886667
 11
1723.272611
 21
871.886667
  0
DIMENSION
  8
1
 62
7
  6
CONTINUOUS
  2
*D13
 10
1409.930556
 20
1126.886667
 11
1409.930556
 21
871.886667
 70
     0
  1
510
 13
1468.332533
 23
1126.886667
 14
1468.332533
 24
616.886667
 50
-90.000000
  0
DIMENSION
  8
1
 62
7
  6
CONTINUOUS
  2
*D14
 10
1079.756944
 20
1101.886667
 11
1079.756944
 21
986.886667
 70
     0
  1
230
 13
1010.000000
 23
1101.886667
 14
1010.000000
 24
871.886667
 50
-90.000000
  0
LINE
  8
1
 62
7
  6
CONTINUOUS
 10
1091.241104
 20
483.160000
 11
1057.459291
 21
483.160000
  0
DIMENSION
  8
1
 62
7
  6
CONTINUOUS
  2
*D15
 10
543.480218
 20
1204.765625
 11
903.480218
 21
1204.765625
 70
     0
  1
720
 13
543.480218
 23
1116.886667
 14
1263.480218
 24
1116.886667
 50
0.000000
  0
DIMENSION
  8
1
 62
7
  6
CONTINUOUS
  2
*D16
 10
543.480218
 20
1175.763889
 11
555.980218
 21
1175.763889
 70
     0
  1
25
 13
543.480218
 23
1116.886667
 14
568.480218
 24
1116.886667
 50
0.000000
  0
DIMENSION
  8
1
 62
7
  6
CONTINUOUS
  2
*D17
 10
568.480218
 20
1175.763889
 11
903.480218
 21
1175.763889
 70
     0
  1
670
 13
568.480218
 23
1175.763889
 14
1238.480218
 24
1116.886667
 50
0.000000
  0
DIMENSION
  8
1
 62
7
  6
CONTINUOUS
  2
*D18
 10
1238.480218
 20
1175.763889
 11
1250.980218
 21
1175.763889
 70
     0
  1
25
 13
1238.480218
 23
1175.763889
 14
1263.480218
 24
1116.886667
 50
0.000000
  0
DIMENSION
  8
1
 62
7
  6
CONTINUOUS
  2
*D19
 10
568.480218
 20
1135.607639
 11
689.791158
 21
1135.607639
 70
     0
  1
250
 13
568.480218
 23
1116.886667
 14
811.102097
 24
1116.886667
 50
0.000000
  0
TEXT
  8
1
 62
7
  6
CONTINUOUS
 10
54.560220
 20
1096.575888
 40
25.000000
 41
0.800000
  1
カラー：白　only
  7
KANJI
 50
0.000000
 51
0.000000
  0
TEXT
  8
1
 62
7
  6
CONTINUOUS
 10
254.560220
 20
1109.075888
 40
12.500000
 41
0.500000
  1

  7
KANJI
 50
0.000000
 51
0.000000
  0
TEXT
  8
1
 62
7
  6
CONTINUOUS
 10
254.560220
 20
1096.575888
 40
12.500000
 41
0.500000
  1

  7
KANJI
 50
0.000000
 51
0.000000
  0
LINE
  8
1
 62
7
  6
CONTINUOUS
 10
1701.332533
 20
961.886667
 11
1701.332533
 21
932.895948
  0
LINE
  8
1
 62
7
  6
DOT
 10
1490.332533
 20
1014.886667
 11
1681.332533
 21
1014.886667
  0
LINE
  8
1
 62
7
  6
CONTINUOUS
 10
1701.332533
 20
1000.886667
 11
1701.332533
 21
994.886667
  0
ARC
  8
1
 62
7
  6
DOT
 10
1681.332533
 20
994.886667
 40
20.000000
 50
0.000000
 51
90.000000
  0
LINE
  8
1
 62
7
  6
CONTINUOUS
 10
1701.332533
 20
1048.886667
 11
1701.332533
 21
1000.886667
  0
DIMENSION
  8
1
 62
7
  6
CONTINUOUS
  2
*D20
 10
1478.332533
 20
1167.111744
 11
1496.832277
 21
1167.111744
 70
     0
  1
12
 13
1478.332533
 23
1136.886667
 14
1490.332533
 24
1136.886667
 50
0.000000
  0
DIMENSION
  8
1
 62
7
  6
CONTINUOUS
  2
*D21
 10
1347.684866
 20
483.160000
 11
1347.684866
 21
365.660000
 70
     0
  1
234
 13
1283.920000
 23
483.160000
 14
1283.920000
 24
248.160000
 50
-90.000000
  0
DIMENSION
  8
1
 62
7
  6
CONTINUOUS
  2
*D22
 10
1318.363010
 20
483.160000
 11
1318.363010
 21
373.160000
 70
     0
  1
214
 13
1283.920000
 23
483.160000
 14
1283.920000
 24
263.160000
 50
-90.000000
  0
ENDSEC
  0
EOF
