  0
SECTION
  2
HEADER
  9
$ACADVER
  1
AC1003
  9
$INSBASE
 10
0.000000
 20
0.000000
  9
$EXTMIN
 10
0.000000
 20
0.000000
  9
$EXTMAX
 10
1820.000000
 20
1285.000000
  9
$LIMMIN
 10
0.000000
 20
0.000000
  9
$LIMMAX
 10
1820.000000
 20
1285.000000
  9
$VIEWCTR
 10
910.000000
 20
642.500000
  9
$VIEWSIZE
 40
1285.000000
  9
$PEXTMIN
 10
0.000000
 20
0.000000
 30
0.000000
  9
$PEXTMAX
 10
364.000000
 20
257.000000
 30
0.000000
  9
$SNAPMODE
 70
     0
  9
$SNAPUNIT
 10
1.000000
 20
1.000000
  9
$SNAPBASE
 10
0.000000
 20
0.000000
  9
$SNAPANG
 50
0.000000
  9
$SNAPISOPAIR
 70
     0
  9
$SNAPSTYLE
 70
     0
  9
$GRIDMODE
 70
     0
  9
$GRIDUNIT
 10
0.000000
 20
0.000000
  9
$ORTHOMODE
 70
     0
  9
$REGENMODE
 70
     1
  9
$FILLMODE
 70
     1
  9
$QTEXTMODE
 70
     0
  9
$DRAGMODE
 70
     2
  9
$LTSCALE
 40
1.250000
  9
$OSMODE
 70
     0
  9
$ATTMODE
 70
     1
  9
$TEXTSIZE
 40
0.200000
  9
$TRACEWID
 40
0.050000
  9
$TEXTSTYLE
  7
STANDARD
  9
$CLAYER
  8
0
  9
$CELTYPE
  6
BYLAYER
  9
$CECOLOR
 62
   256
  9
$DIMSCALE
 40
1.000000
  9
$DIMASZ
 40
1.000000
  9
$DIMEXO
 40
0.000000
  9
$DIMDLI
 40
0.500000
  9
$DIMRND
 40
0.000000
  9
$DIMDLE
 40
0.000000
  9
$DIMEXE
 40
0.000000
  9
$DIMTP
 40
0.000000
  9
$DIMTM
 40
0.000000
  9
$DIMTXT
 40
0.180000
  9
$DIMCEN
 40
0.000000
  9
$DIMTSZ
 40
0.000000
  9
$DIMTOL
 70
     0
  9
$DIMLIM
 70
     0
  9
$DIMTIH
 70
     1
  9
$DIMTOH
 70
     1
  9
$DIMSE1
 70
     0
  9
$DIMSE2
 70
     0
  9
$DIMTAD
 70
     0
  9
$DIMZIN
 70
     0
  9
$DIMBLK
  1

  9
$DIMASO
 70
     0
  9
$DIMSHO
 70
     0
  9
$DIMPOST
  1

  9
$DIMAPOST
  1

  9
$DIMALT
 70
     0
  9
$DIMALTD
 70
     0
  9
$DIMALTF
 40
25.400000
  9
$DIMLFAC
 40
1.000000
  9
$DIMTOFL
 70
     0
  9
$DIMTVP
 40
0.000000
  9
$DIMTIX
 70
     0
  9
$DIMSOXD
 70
     0
  9
$DIMSAH
 70
     0
  9
$DIMBLKL
  1

  9
$DIMBLKR
  1

  9
$LUNITS
 70
     2
  9
$LUPREC
 70
     2
  9
$AXISMODE
 70
     0
  9
$AXISUNIT
 10
1.000000
 20
1.000000
  9
$SKETCHINC
 40
0.000000
  9
$FILLETRAD
 40
0.000000
  9
$AUNITS
 70
     1
  9
$AUPREC
 70
     2
  9
$MENU
  1
ACAD
  9
$ELEVATION
 40
0.000000
  9
$THICKNESS
 40
0.000000
  9
$VIEWDIR
 10
0.000000
 20
0.000000
 30
1.000000
  9
$LIMCHECK
 70
     1
  9
$BLIPMODE
 70
     1
  9
$CHAMFERA
 40
0.000000
  9
$CHAMFERB
 40
0.000000
  9
$FASTZOOM
 70
     1
  9
$SKPOLY
 70
     0
  9
$TDCREATE
 40
0.000000
  9
$TDUPDATE
 40
0.000000
  9
$TDINDWG
 40
0.000000
  9
$TDUSRTIMER
 40
0.000000
  9
$USRTIMER
 70
     1
  9
$ANGBASE
 50
0.000000
  9
$ANGDIR
 70
     0
  9
$PDMODE
 70
     0
  9
$PDSIZE
 40
0.000000
  9
$PLINEWID
 40
0.000000
  9
$COORDS
 70
     2
  9
$USERI1
 70
     0
  9
$USERI2
 70
     0
  9
$USERI3
 70
     0
  9
$USERI4
 70
     0
  9
$USERI5
 70
     0
  9
$USERR1
 40
0.000000
  9
$USERR2
 40
0.000000
  9
$USERR3
 40
0.000000
  9
$USERR4
 40
0.000000
  9
$USERR5
 40
0.000000
  0
ENDSEC
  0
SECTION
  2
TABLES
  0
TABLE
  2
LTYPE
 70
     5
  0
LTYPE
  2
CONTINUOUS
 70
    64
  3
Solid line
 72
    65
 73
     0
 40
0.0
  0
LTYPE
  2
HIDDEN
 70
    64
  3
------------------------
 72
    65
 73
     2
 40
12.6
 49
8.4
 49
-4.2
  0
LTYPE
  2
DOT
 70
    64
  3
････････････････････････
 72
    65
 73
     2
 40
8.0
 49
6.0
 49
-2.0
  0
LTYPE
  2
DASHDOT
 70
    64
  3
--･--･--･--･--･--･--･--
 72
    65
 73
     4
 40
50.5
 49
30.0
 49
-9.0
 49
2.5
 49
-9.0
  0
LTYPE
  2
DIVIDE
 70
    64
  3
--･･--･･--･･--･･--･･--
 72
    65
 73
     6
 40
58.0
 49
30.0
 49
-9.0
 49
2.5
 49
-5.0
 49
2.5
 49
-9.0
  0
ENDTAB
  0
TABLE
  2
LAYER
 70
1
  0
LAYER
  2
1
 70
64
 62
7
  6
CONTINUOUS
  0
ENDTAB
  0
TABLE
  2
STYLE
 70
     2
  0
STYLE
  2
STANDARD
 70
    64
 40
0.0
 41
1.0
 50
0.0
 71
     0
 42
0.2
  3
TXT
  4

  0
STYLE
  2
KANJI
 70
    64
 40
0.0
 41
1.0
 50
0.0
 71
     0
 42
0.2
  3
TXT
  4
BIGFONT
  0
ENDTAB
  0
TABLE
  2
VIEW
 70
     0
  0
ENDTAB
  0
ENDSEC
  0
SECTION
  2
BLOCKS
  0
BLOCK
  8
1
 62
7
  6
CONTINUOUS
  2
*D1
 70
    65
 10
0.0
 20
0.0
  0
LINE
  8
1
 62
7
  6
CONTINUOUS
 10
661.543403
 20
826.809632
 11
703.543403
 21
826.809632
  0
LINE
  8
1
 62
7
  6
CONTINUOUS
 10
661.543403
 20
816.809632
 11
661.543403
 21
898.446181
  0
LINE
  8
1
 62
7
  6
CONTINUOUS
 10
703.543403
 20
816.809632
 11
703.543403
 21
898.446181
  0
CIRCLE
  8
1
 62
7
  6
CONTINUOUS
 10
661.543403
 20
826.809632
 40
1.500000
  0
CIRCLE
  8
1
 62
7
  6
CONTINUOUS
 10
661.543403
 20
826.809632
 40
0.750000
  0
CIRCLE
  8
1
 62
7
  6
CONTINUOUS
 10
703.543403
 20
826.809632
 40
1.500000
  0
CIRCLE
  8
1
 62
7
  6
CONTINUOUS
 10
703.543403
 20
826.809632
 40
0.750000
  0
TEXT
  8
1
 62
7
  6
CONTINUOUS
 10
672.543403
 20
826.809632
 40
20.000000
 41
0.500000
  1
42
  7
KANJI
 50
0.000000
 51
30.000000
  0
ENDBLK
  0
BLOCK
  8
1
 62
7
  6
CONTINUOUS
  2
*D2
 70
    65
 10
0.0
 20
0.0
  0
LINE
  8
1
 62
7
  6
CONTINUOUS
 10
652.543403
 20
801.015264
 11
712.543403
 21
801.015264
  0
LINE
  8
1
 62
7
  6
CONTINUOUS
 10
652.543403
 20
791.015264
 11
652.543403
 21
898.446181
  0
LINE
  8
1
 62
7
  6
CONTINUOUS
 10
712.543403
 20
791.015264
 11
712.543403
 21
898.446181
  0
CIRCLE
  8
1
 62
7
  6
CONTINUOUS
 10
652.543403
 20
801.015264
 40
1.500000
  0
CIRCLE
  8
1
 62
7
  6
CONTINUOUS
 10
652.543403
 20
801.015264
 40
0.750000
  0
CIRCLE
  8
1
 62
7
  6
CONTINUOUS
 10
712.543403
 20
801.015264
 40
1.500000
  0
CIRCLE
  8
1
 62
7
  6
CONTINUOUS
 10
712.543403
 20
801.015264
 40
0.750000
  0
TEXT
  8
1
 62
7
  6
CONTINUOUS
 10
672.543403
 20
801.015264
 40
20.000000
 41
0.500000
  1
60
  7
KANJI
 50
0.000000
 51
30.000000
  0
ENDBLK
  0
BLOCK
  8
1
 62
7
  6
CONTINUOUS
  2
*D3
 70
    65
 10
0.0
 20
0.0
  0
LINE
  8
1
 62
7
  6
CONTINUOUS
 10
1121.543403
 20
826.809632
 11
1163.543403
 21
826.809632
  0
LINE
  8
1
 62
7
  6
CONTINUOUS
 10
1121.543403
 20
816.809632
 11
1121.543403
 21
898.446181
  0
LINE
  8
1
 62
7
  6
CONTINUOUS
 10
1163.543403
 20
816.809632
 11
1163.543403
 21
898.446181
  0
CIRCLE
  8
1
 62
7
  6
CONTINUOUS
 10
1121.543403
 20
826.809632
 40
1.500000
  0
CIRCLE
  8
1
 62
7
  6
CONTINUOUS
 10
1121.543403
 20
826.809632
 40
0.750000
  0
CIRCLE
  8
1
 62
7
  6
CONTINUOUS
 10
1163.543403
 20
826.809632
 40
1.500000
  0
CIRCLE
  8
1
 62
7
  6
CONTINUOUS
 10
1163.543403
 20
826.809632
 40
0.750000
  0
TEXT
  8
1
 62
7
  6
CONTINUOUS
 10
1132.543403
 20
826.809632
 40
20.000000
 41
0.500000
  1
42
  7
KANJI
 50
0.000000
 51
30.000000
  0
ENDBLK
  0
BLOCK
  8
1
 62
7
  6
CONTINUOUS
  2
*D4
 70
    65
 10
0.0
 20
0.0
  0
LINE
  8
1
 62
7
  6
CONTINUOUS
 10
1112.543403
 20
801.015264
 11
1172.543403
 21
801.015264
  0
LINE
  8
1
 62
7
  6
CONTINUOUS
 10
1112.543403
 20
791.015264
 11
1112.543403
 21
898.446181
  0
LINE
  8
1
 62
7
  6
CONTINUOUS
 10
1172.543403
 20
791.015264
 11
1172.543403
 21
898.446181
  0
CIRCLE
  8
1
 62
7
  6
CONTINUOUS
 10
1112.543403
 20
801.015264
 40
1.500000
  0
CIRCLE
  8
1
 62
7
  6
CONTINUOUS
 10
1112.543403
 20
801.015264
 40
0.750000
  0
CIRCLE
  8
1
 62
7
  6
CONTINUOUS
 10
1172.543403
 20
801.015264
 40
1.500000
  0
CIRCLE
  8
1
 62
7
  6
CONTINUOUS
 10
1172.543403
 20
801.015264
 40
0.750000
  0
TEXT
  8
1
 62
7
  6
CONTINUOUS
 10
1132.543403
 20
801.015264
 40
20.000000
 41
0.500000
  1
60
  7
KANJI
 50
0.000000
 51
30.000000
  0
ENDBLK
  0
BLOCK
  8
1
 62
7
  6
CONTINUOUS
  2
*D5
 70
    65
 10
0.0
 20
0.0
  0
LINE
  8
1
 62
7
  6
CONTINUOUS
 10
432.543403
 20
1124.375000
 11
457.543403
 21
1124.375000
  0
LINE
  8
1
 62
7
  6
CONTINUOUS
 10
432.543403
 20
1134.375000
 11
432.543403
 21
1063.446181
  0
LINE
  8
1
 62
7
  6
CONTINUOUS
 10
457.543403
 20
1134.375000
 11
457.543403
 21
1063.446181
  0
CIRCLE
  8
1
 62
7
  6
CONTINUOUS
 10
432.543403
 20
1124.375000
 40
1.500000
  0
CIRCLE
  8
1
 62
7
  6
CONTINUOUS
 10
432.543403
 20
1124.375000
 40
0.750000
  0
CIRCLE
  8
1
 62
7
  6
CONTINUOUS
 10
457.543403
 20
1124.375000
 40
1.500000
  0
CIRCLE
  8
1
 62
7
  6
CONTINUOUS
 10
457.543403
 20
1124.375000
 40
0.750000
  0
TEXT
  8
1
 62
7
  6
CONTINUOUS
 10
435.043403
 20
1124.375000
 40
20.000000
 41
0.500000
  1
25
  7
KANJI
 50
0.000000
 51
30.000000
  0
ENDBLK
  0
BLOCK
  8
1
 62
7
  6
CONTINUOUS
  2
*D6
 70
    65
 10
0.0
 20
0.0
  0
LINE
  8
1
 62
7
  6
CONTINUOUS
 10
457.543403
 20
1124.375000
 11
682.543403
 21
1124.375000
  0
LINE
  8
1
 62
7
  6
CONTINUOUS
 10
682.543403
 20
1134.375000
 11
682.543403
 21
1063.446181
  0
CIRCLE
  8
1
 62
7
  6
CONTINUOUS
 10
682.543403
 20
1124.375000
 40
1.500000
  0
CIRCLE
  8
1
 62
7
  6
CONTINUOUS
 10
682.543403
 20
1124.375000
 40
0.750000
  0
TEXT
  8
1
 62
7
  6
CONTINUOUS
 10
555.043403
 20
1124.375000
 40
20.000000
 41
0.500000
  1
225
  7
KANJI
 50
0.000000
 51
30.000000
  0
ENDBLK
  0
BLOCK
  8
1
 62
7
  6
CONTINUOUS
  2
*D7
 70
    65
 10
0.0
 20
0.0
  0
LINE
  8
1
 62
7
  6
CONTINUOUS
 10
682.543403
 20
1124.375000
 11
1142.543403
 21
1124.375000
  0
LINE
  8
1
 62
7
  6
CONTINUOUS
 10
1142.543403
 20
1134.375000
 11
1142.543403
 21
1063.446181
  0
CIRCLE
  8
1
 62
7
  6
CONTINUOUS
 10
1142.543403
 20
1124.375000
 40
1.500000
  0
CIRCLE
  8
1
 62
7
  6
CONTINUOUS
 10
1142.543403
 20
1124.375000
 40
0.750000
  0
TEXT
  8
1
 62
7
  6
CONTINUOUS
 10
897.543403
 20
1124.375000
 40
20.000000
 41
0.500000
  1
460
  7
KANJI
 50
0.000000
 51
30.000000
  0
ENDBLK
  0
BLOCK
  8
1
 62
7
  6
CONTINUOUS
  2
*D8
 70
    65
 10
0.0
 20
0.0
  0
LINE
  8
1
 62
7
  6
CONTINUOUS
 10
1142.543403
 20
1124.375000
 11
1367.543403
 21
1124.375000
  0
LINE
  8
1
 62
7
  6
CONTINUOUS
 10
1367.543403
 20
1134.375000
 11
1367.543403
 21
1063.446181
  0
CIRCLE
  8
1
 62
7
  6
CONTINUOUS
 10
1367.543403
 20
1124.375000
 40
1.500000
  0
CIRCLE
  8
1
 62
7
  6
CONTINUOUS
 10
1367.543403
 20
1124.375000
 40
0.750000
  0
TEXT
  8
1
 62
7
  6
CONTINUOUS
 10
1240.043403
 20
1124.375000
 40
20.000000
 41
0.500000
  1
225
  7
KANJI
 50
0.000000
 51
30.000000
  0
ENDBLK
  0
BLOCK
  8
1
 62
7
  6
CONTINUOUS
  2
*D9
 70
    65
 10
0.0
 20
0.0
  0
LINE
  8
1
 62
7
  6
CONTINUOUS
 10
1367.543403
 20
1124.375000
 11
1392.543403
 21
1124.375000
  0
LINE
  8
1
 62
7
  6
CONTINUOUS
 10
1392.543403
 20
1134.375000
 11
1392.543403
 21
1063.446181
  0
CIRCLE
  8
1
 62
7
  6
CONTINUOUS
 10
1392.543403
 20
1124.375000
 40
1.500000
  0
CIRCLE
  8
1
 62
7
  6
CONTINUOUS
 10
1392.543403
 20
1124.375000
 40
0.750000
  0
TEXT
  8
1
 62
7
  6
CONTINUOUS
 10
1370.043403
 20
1124.375000
 40
20.000000
 41
0.500000
  1
25
  7
KANJI
 50
0.000000
 51
30.000000
  0
ENDBLK
  0
BLOCK
  8
1
 62
7
  6
CONTINUOUS
  2
*D10
 70
    65
 10
0.0
 20
0.0
  0
LINE
  8
1
 62
7
  6
CONTINUOUS
 10
399.718263
 20
1028.446181
 11
399.718263
 21
938.446181
  0
LINE
  8
1
 62
7
  6
CONTINUOUS
 10
389.718263
 20
1028.446181
 11
422.543403
 21
1028.446181
  0
LINE
  8
1
 62
7
  6
CONTINUOUS
 10
389.718263
 20
938.446181
 11
422.543403
 21
938.446181
  0
CIRCLE
  8
1
 62
7
  6
CONTINUOUS
 10
399.718263
 20
1028.446181
 40
1.500000
  0
CIRCLE
  8
1
 62
7
  6
CONTINUOUS
 10
399.718263
 20
1028.446181
 40
0.750000
  0
CIRCLE
  8
1
 62
7
  6
CONTINUOUS
 10
399.718263
 20
938.446181
 40
1.500000
  0
CIRCLE
  8
1
 62
7
  6
CONTINUOUS
 10
399.718263
 20
938.446181
 40
0.750000
  0
TEXT
  8
1
 62
7
  6
CONTINUOUS
 10
399.718263
 20
973.446181
 40
20.000000
 41
0.500000
  1
90
  7
KANJI
 50
90.000000
 51
30.000000
  0
ENDBLK
  0
BLOCK
  8
1
 62
7
  6
CONTINUOUS
  2
*D11
 70
    65
 10
0.0
 20
0.0
  0
LINE
  8
1
 62
7
  6
CONTINUOUS
 10
379.437005
 20
1053.446181
 11
379.437005
 21
1028.446181
  0
LINE
  8
1
 62
7
  6
CONTINUOUS
 10
369.437005
 20
1053.446181
 11
422.543403
 21
1053.446181
  0
LINE
  8
1
 62
7
  6
CONTINUOUS
 10
369.437005
 20
1028.446181
 11
422.543403
 21
1028.446181
  0
CIRCLE
  8
1
 62
7
  6
CONTINUOUS
 10
379.437005
 20
1053.446181
 40
1.500000
  0
CIRCLE
  8
1
 62
7
  6
CONTINUOUS
 10
379.437005
 20
1053.446181
 40
0.750000
  0
CIRCLE
  8
1
 62
7
  6
CONTINUOUS
 10
379.437005
 20
1028.446181
 40
1.500000
  0
CIRCLE
  8
1
 62
7
  6
CONTINUOUS
 10
379.437005
 20
1028.446181
 40
0.750000
  0
TEXT
  8
1
 62
7
  6
CONTINUOUS
 10
379.437005
 20
1030.946181
 40
20.000000
 41
0.500000
  1
25
  7
KANJI
 50
90.000000
 51
30.000000
  0
ENDBLK
  0
BLOCK
  8
1
 62
7
  6
CONTINUOUS
  2
*D12
 70
    65
 10
0.0
 20
0.0
  0
LINE
  8
1
 62
7
  6
CONTINUOUS
 10
379.437005
 20
1028.446181
 11
379.437005
 21
673.446181
  0
LINE
  8
1
 62
7
  6
CONTINUOUS
 10
369.437005
 20
673.446181
 11
422.543403
 21
673.446181
  0
CIRCLE
  8
1
 62
7
  6
CONTINUOUS
 10
379.437005
 20
673.446181
 40
1.500000
  0
CIRCLE
  8
1
 62
7
  6
CONTINUOUS
 10
379.437005
 20
673.446181
 40
0.750000
  0
TEXT
  8
1
 62
7
  6
CONTINUOUS
 10
379.437005
 20
835.946181
 40
20.000000
 41
0.500000
  1
355
  7
KANJI
 50
90.000000
 51
30.000000
  0
ENDBLK
  0
BLOCK
  8
1
 62
7
  6
CONTINUOUS
  2
*D13
 70
    65
 10
0.0
 20
0.0
  0
LINE
  8
1
 62
7
  6
CONTINUOUS
 10
379.437005
 20
673.446181
 11
379.437005
 21
648.446181
  0
LINE
  8
1
 62
7
  6
CONTINUOUS
 10
369.437005
 20
648.446181
 11
422.543403
 21
648.446181
  0
CIRCLE
  8
1
 62
7
  6
CONTINUOUS
 10
379.437005
 20
648.446181
 40
1.500000
  0
CIRCLE
  8
1
 62
7
  6
CONTINUOUS
 10
379.437005
 20
648.446181
 40
0.750000
  0
TEXT
  8
1
 62
7
  6
CONTINUOUS
 10
379.437005
 20
650.946181
 40
20.000000
 41
0.500000
  1
25
  7
KANJI
 50
90.000000
 51
30.000000
  0
ENDBLK
  0
BLOCK
  8
1
 62
7
  6
CONTINUOUS
  2
*D14
 70
    65
 10
0.0
 20
0.0
  0
LINE
  8
1
 62
7
  6
CONTINUOUS
 10
354.326876
 20
1053.446181
 11
354.326876
 21
648.446181
  0
LINE
  8
1
 62
7
  6
CONTINUOUS
 10
344.326876
 20
1053.446181
 11
422.543403
 21
1053.446181
  0
LINE
  8
1
 62
7
  6
CONTINUOUS
 10
344.326876
 20
648.446181
 11
422.543403
 21
648.446181
  0
CIRCLE
  8
1
 62
7
  6
CONTINUOUS
 10
354.326876
 20
1053.446181
 40
1.500000
  0
CIRCLE
  8
1
 62
7
  6
CONTINUOUS
 10
354.326876
 20
1053.446181
 40
0.750000
  0
CIRCLE
  8
1
 62
7
  6
CONTINUOUS
 10
354.326876
 20
648.446181
 40
1.500000
  0
CIRCLE
  8
1
 62
7
  6
CONTINUOUS
 10
354.326876
 20
648.446181
 40
0.750000
  0
TEXT
  8
1
 62
7
  6
CONTINUOUS
 10
354.326876
 20
835.946181
 40
20.000000
 41
0.500000
  1
405
  7
KANJI
 50
90.000000
 51
30.000000
  0
ENDBLK
  0
BLOCK
  8
1
 62
7
  6
CONTINUOUS
  2
*D15
 70
    65
 10
0.0
 20
0.0
  0
LINE
  8
1
 62
7
  6
CONTINUOUS
 10
652.543403
 20
225.164376
 11
712.543403
 21
225.164376
  0
LINE
  8
1
 62
7
  6
CONTINUOUS
 10
652.543403
 20
215.164376
 11
652.543403
 21
293.633128
  0
LINE
  8
1
 62
7
  6
CONTINUOUS
 10
712.543403
 20
215.164376
 11
712.543403
 21
293.633128
  0
CIRCLE
  8
1
 62
7
  6
CONTINUOUS
 10
652.543403
 20
225.164376
 40
1.500000
  0
CIRCLE
  8
1
 62
7
  6
CONTINUOUS
 10
652.543403
 20
225.164376
 40
0.750000
  0
CIRCLE
  8
1
 62
7
  6
CONTINUOUS
 10
712.543403
 20
225.164376
 40
1.500000
  0
CIRCLE
  8
1
 62
7
  6
CONTINUOUS
 10
712.543403
 20
225.164376
 40
0.750000
  0
TEXT
  8
1
 62
7
  6
CONTINUOUS
 10
672.543403
 20
225.164376
 40
20.000000
 41
0.500000
  1
60
  7
KANJI
 50
0.000000
 51
30.000000
  0
ENDBLK
  0
BLOCK
  8
1
 62
7
  6
CONTINUOUS
  2
*D16
 70
    65
 10
0.0
 20
0.0
  0
LINE
  8
1
 62
7
  6
CONTINUOUS
 10
661.543403
 20
250.288760
 11
703.543403
 21
250.288760
  0
LINE
  8
1
 62
7
  6
CONTINUOUS
 10
661.543403
 20
240.288760
 11
661.543403
 21
293.633128
  0
LINE
  8
1
 62
7
  6
CONTINUOUS
 10
703.543403
 20
240.288760
 11
703.543403
 21
293.633128
  0
CIRCLE
  8
1
 62
7
  6
CONTINUOUS
 10
661.543403
 20
250.288760
 40
1.500000
  0
CIRCLE
  8
1
 62
7
  6
CONTINUOUS
 10
661.543403
 20
250.288760
 40
0.750000
  0
CIRCLE
  8
1
 62
7
  6
CONTINUOUS
 10
703.543403
 20
250.288760
 40
1.500000
  0
CIRCLE
  8
1
 62
7
  6
CONTINUOUS
 10
703.543403
 20
250.288760
 40
0.750000
  0
TEXT
  8
1
 62
7
  6
CONTINUOUS
 10
672.543403
 20
250.288760
 40
20.000000
 41
0.500000
  1
42
  7
KANJI
 50
0.000000
 51
30.000000
  0
ENDBLK
  0
BLOCK
  8
1
 62
7
  6
CONTINUOUS
  2
*D17
 70
    65
 10
0.0
 20
0.0
  0
LINE
  8
1
 62
7
  6
CONTINUOUS
 10
1112.543403
 20
225.164376
 11
1172.543403
 21
225.164376
  0
LINE
  8
1
 62
7
  6
CONTINUOUS
 10
1112.543403
 20
215.164376
 11
1112.543403
 21
293.633128
  0
LINE
  8
1
 62
7
  6
CONTINUOUS
 10
1172.543403
 20
215.164376
 11
1172.543403
 21
293.633128
  0
CIRCLE
  8
1
 62
7
  6
CONTINUOUS
 10
1112.543403
 20
225.164376
 40
1.500000
  0
CIRCLE
  8
1
 62
7
  6
CONTINUOUS
 10
1112.543403
 20
225.164376
 40
0.750000
  0
CIRCLE
  8
1
 62
7
  6
CONTINUOUS
 10
1172.543403
 20
225.164376
 40
1.500000
  0
CIRCLE
  8
1
 62
7
  6
CONTINUOUS
 10
1172.543403
 20
225.164376
 40
0.750000
  0
TEXT
  8
1
 62
7
  6
CONTINUOUS
 10
1132.543403
 20
225.164376
 40
20.000000
 41
0.500000
  1
60
  7
KANJI
 50
0.000000
 51
30.000000
  0
ENDBLK
  0
BLOCK
  8
1
 62
7
  6
CONTINUOUS
  2
*D18
 70
    65
 10
0.0
 20
0.0
  0
LINE
  8
1
 62
7
  6
CONTINUOUS
 10
1121.543403
 20
250.288760
 11
1163.543403
 21
250.288760
  0
LINE
  8
1
 62
7
  6
CONTINUOUS
 10
1121.543403
 20
240.288760
 11
1121.543403
 21
293.633128
  0
LINE
  8
1
 62
7
  6
CONTINUOUS
 10
1163.543403
 20
240.288760
 11
1163.543403
 21
293.633128
  0
CIRCLE
  8
1
 62
7
  6
CONTINUOUS
 10
1121.543403
 20
250.288760
 40
1.500000
  0
CIRCLE
  8
1
 62
7
  6
CONTINUOUS
 10
1121.543403
 20
250.288760
 40
0.750000
  0
CIRCLE
  8
1
 62
7
  6
CONTINUOUS
 10
1163.543403
 20
250.288760
 40
1.500000
  0
CIRCLE
  8
1
 62
7
  6
CONTINUOUS
 10
1163.543403
 20
250.288760
 40
0.750000
  0
TEXT
  8
1
 62
7
  6
CONTINUOUS
 10
1132.543403
 20
250.288760
 40
20.000000
 41
0.500000
  1
42
  7
KANJI
 50
0.000000
 51
30.000000
  0
ENDBLK
  0
BLOCK
  8
1
 62
7
  6
CONTINUOUS
  2
*D19
 70
    65
 10
0.0
 20
0.0
  0
LINE
  8
1
 62
7
  6
CONTINUOUS
 10
348.650049
 20
472.951389
 11
348.650049
 21
302.951389
  0
LINE
  8
1
 62
7
  6
CONTINUOUS
 10
338.650049
 20
472.951389
 11
422.543403
 21
472.951389
  0
LINE
  8
1
 62
7
  6
CONTINUOUS
 10
338.650049
 20
302.951389
 11
422.543403
 21
302.951389
  0
CIRCLE
  8
1
 62
7
  6
CONTINUOUS
 10
348.650049
 20
472.951389
 40
1.500000
  0
CIRCLE
  8
1
 62
7
  6
CONTINUOUS
 10
348.650049
 20
472.951389
 40
0.750000
  0
CIRCLE
  8
1
 62
7
  6
CONTINUOUS
 10
348.650049
 20
302.951389
 40
1.500000
  0
CIRCLE
  8
1
 62
7
  6
CONTINUOUS
 10
348.650049
 20
302.951389
 40
0.750000
  0
TEXT
  8
1
 62
7
  6
CONTINUOUS
 10
348.650049
 20
372.951389
 40
20.000000
 41
0.500000
  1
170
  7
KANJI
 50
90.000000
 51
30.000000
  0
ENDBLK
  0
BLOCK
  8
1
 62
7
  6
CONTINUOUS
  2
*D20
 70
    65
 10
0.0
 20
0.0
  0
LINE
  8
1
 62
7
  6
CONTINUOUS
 10
361.272825
 20
477.951389
 11
361.272825
 21
455.951389
  0
LINE
  8
1
 62
7
  6
CONTINUOUS
 10
351.272825
 20
472.951389
 11
422.543403
 21
472.951389
  0
LINE
  8
1
 62
7
  6
CONTINUOUS
 10
351.272825
 20
460.951389
 11
422.543403
 21
460.951389
  0
CIRCLE
  8
1
 62
7
  6
CONTINUOUS
 10
361.272825
 20
472.951389
 40
1.500000
  0
CIRCLE
  8
1
 62
7
  6
CONTINUOUS
 10
361.272825
 20
472.951389
 40
0.750000
  0
CIRCLE
  8
1
 62
7
  6
CONTINUOUS
 10
361.272825
 20
460.951389
 40
1.500000
  0
CIRCLE
  8
1
 62
7
  6
CONTINUOUS
 10
361.272825
 20
460.951389
 40
0.750000
  0
TEXT
  8
1
 62
7
  6
CONTINUOUS
 10
361.272825
 20
441.951389
 40
20.000000
 41
0.500000
  1
   12
  7
KANJI
 50
90.000000
 51
30.000000
  0
ENDBLK
  0
BLOCK
  8
1
 62
7
  6
CONTINUOUS
  2
*D21
 70
    65
 10
0.0
 20
0.0
  0
LINE
  8
1
 62
7
  6
CONTINUOUS
 10
432.543403
 20
535.355735
 11
1392.543403
 21
535.355735
  0
LINE
  8
1
 62
7
  6
CONTINUOUS
 10
432.543403
 20
545.355735
 11
432.543403
 21
482.951389
  0
LINE
  8
1
 62
7
  6
CONTINUOUS
 10
1392.543403
 20
545.355735
 11
1392.543403
 21
482.951389
  0
CIRCLE
  8
1
 62
7
  6
CONTINUOUS
 10
432.543403
 20
535.355735
 40
1.500000
  0
CIRCLE
  8
1
 62
7
  6
CONTINUOUS
 10
432.543403
 20
535.355735
 40
0.750000
  0
CIRCLE
  8
1
 62
7
  6
CONTINUOUS
 10
1392.543403
 20
535.355735
 40
1.500000
  0
CIRCLE
  8
1
 62
7
  6
CONTINUOUS
 10
1392.543403
 20
535.355735
 40
0.750000
  0
TEXT
  8
1
 62
7
  6
CONTINUOUS
 10
897.543403
 20
535.355735
 40
20.000000
 41
0.500000
  1
960
  7
KANJI
 50
0.000000
 51
30.000000
  0
ENDBLK
  0
BLOCK
  8
1
 62
7
  6
CONTINUOUS
  2
*D22
 70
    65
 10
0.0
 20
0.0
  0
LINE
  8
1
 62
7
  6
CONTINUOUS
 10
432.543403
 20
1147.838542
 11
1392.543403
 21
1147.838542
  0
LINE
  8
1
 62
7
  6
CONTINUOUS
 10
432.543403
 20
1157.838542
 11
432.543403
 21
1053.446181
  0
LINE
  8
1
 62
7
  6
CONTINUOUS
 10
1392.543403
 20
1157.838542
 11
1392.543403
 21
1053.446181
  0
CIRCLE
  8
1
 62
7
  6
CONTINUOUS
 10
432.543403
 20
1147.838542
 40
1.500000
  0
CIRCLE
  8
1
 62
7
  6
CONTINUOUS
 10
432.543403
 20
1147.838542
 40
0.750000
  0
CIRCLE
  8
1
 62
7
  6
CONTINUOUS
 10
1392.543403
 20
1147.838542
 40
1.500000
  0
CIRCLE
  8
1
 62
7
  6
CONTINUOUS
 10
1392.543403
 20
1147.838542
 40
0.750000
  0
TEXT
  8
1
 62
7
  6
CONTINUOUS
 10
897.543403
 20
1147.838542
 40
20.000000
 41
0.500000
  1
960
  7
KANJI
 50
0.000000
 51
30.000000
  0
ENDBLK
  0
BLOCK
  8
1
 62
7
  6
CONTINUOUS
  2
*D23
 70
    65
 10
0.0
 20
0.0
  0
LINE
  8
1
 62
7
  6
CONTINUOUS
 10
1545.054722
 20
1160.069444
 11
1715.054722
 21
1160.069444
  0
LINE
  8
1
 62
7
  6
CONTINUOUS
 10
1545.054722
 20
1170.069444
 11
1545.054722
 21
1063.446181
  0
LINE
  8
1
 62
7
  6
CONTINUOUS
 10
1715.054722
 20
1170.069444
 11
1715.054722
 21
1063.446181
  0
CIRCLE
  8
1
 62
7
  6
CONTINUOUS
 10
1545.054722
 20
1160.069444
 40
1.500000
  0
CIRCLE
  8
1
 62
7
  6
CONTINUOUS
 10
1545.054722
 20
1160.069444
 40
0.750000
  0
CIRCLE
  8
1
 62
7
  6
CONTINUOUS
 10
1715.054722
 20
1160.069444
 40
1.500000
  0
CIRCLE
  8
1
 62
7
  6
CONTINUOUS
 10
1715.054722
 20
1160.069444
 40
0.750000
  0
TEXT
  8
1
 62
7
  6
CONTINUOUS
 10
1615.054722
 20
1160.069444
 40
20.000000
 41
0.500000
  1
170
  7
KANJI
 50
0.000000
 51
30.000000
  0
ENDBLK
  0
BLOCK
  8
1
 62
7
  6
CONTINUOUS
  2
*D24
 70
    65
 10
0.0
 20
0.0
  0
LINE
  8
1
 62
7
  6
CONTINUOUS
 10
1540.054722
 20
1129.848908
 11
1562.054722
 21
1129.848908
  0
LINE
  8
1
 62
7
  6
CONTINUOUS
 10
1545.054722
 20
1139.848908
 11
1545.054722
 21
1063.446181
  0
LINE
  8
1
 62
7
  6
CONTINUOUS
 10
1557.054722
 20
1139.848908
 11
1557.054722
 21
1063.446181
  0
CIRCLE
  8
1
 62
7
  6
CONTINUOUS
 10
1545.054722
 20
1129.848908
 40
1.500000
  0
CIRCLE
  8
1
 62
7
  6
CONTINUOUS
 10
1545.054722
 20
1129.848908
 40
0.750000
  0
CIRCLE
  8
1
 62
7
  6
CONTINUOUS
 10
1557.054722
 20
1129.848908
 40
1.500000
  0
CIRCLE
  8
1
 62
7
  6
CONTINUOUS
 10
1557.054722
 20
1129.848908
 40
0.750000
  0
TEXT
  8
1
 62
7
  6
CONTINUOUS
 10
1531.054722
 20
1129.848908
 40
20.000000
 41
0.500000
  1
  12
  7
KANJI
 50
0.000000
 51
30.000000
  0
ENDBLK
  0
BLOCK
  8
1
 62
7
  6
CONTINUOUS
  2
*D25
 70
    65
 10
0.0
 20
0.0
  0
LINE
  8
1
 62
7
  6
CONTINUOUS
 10
1594.671447
 20
1019.615073
 11
1596.402308
 21
1037.531750
  0
CIRCLE
  8
1
 62
7
  6
CONTINUOUS
 10
1595.152239
 20
1024.591904
 40
1.500000
  0
CIRCLE
  8
1
 62
7
  6
CONTINUOUS
 10
1595.152239
 20
1024.591904
 40
0.750000
  0
CIRCLE
  8
1
 62
7
  6
CONTINUOUS
 10
1595.921516
 20
1032.554920
 40
1.500000
  0
CIRCLE
  8
1
 62
7
  6
CONTINUOUS
 10
1595.921516
 20
1032.554920
 40
0.750000
  0
TEXT
  8
1
 62
7
  6
CONTINUOUS
 10
1593.613708
 20
1008.666091
 40
20.000000
 41
0.500000
  1
   8
  7
KANJI
 50
84.482000
 51
30.000000
  0
ENDBLK
  0
BLOCK
  8
1
 62
7
  6
CONTINUOUS
  2
*D26
 70
    65
 10
0.0
 20
0.0
  0
LINE
  8
1
 62
7
  6
CONTINUOUS
 10
1740.162494
 20
917.446181
 11
1740.162494
 21
959.446181
  0
LINE
  8
1
 62
7
  6
CONTINUOUS
 10
1750.162494
 20
917.446181
 11
1725.054722
 21
917.446181
  0
LINE
  8
1
 62
7
  6
CONTINUOUS
 10
1750.162494
 20
959.446181
 11
1725.054722
 21
959.446181
  0
CIRCLE
  8
1
 62
7
  6
CONTINUOUS
 10
1740.162494
 20
917.446181
 40
1.500000
  0
CIRCLE
  8
1
 62
7
  6
CONTINUOUS
 10
1740.162494
 20
917.446181
 40
0.750000
  0
CIRCLE
  8
1
 62
7
  6
CONTINUOUS
 10
1740.162494
 20
959.446181
 40
1.500000
  0
CIRCLE
  8
1
 62
7
  6
CONTINUOUS
 10
1740.162494
 20
959.446181
 40
0.750000
  0
TEXT
  8
1
 62
7
  6
CONTINUOUS
 10
1740.162494
 20
928.446181
 40
20.000000
 41
0.500000
  1
42
  7
KANJI
 50
90.000000
 51
30.000000
  0
ENDBLK
  0
BLOCK
  8
1
 62
7
  6
CONTINUOUS
  2
*D27
 70
    65
 10
0.0
 20
0.0
  0
LINE
  8
1
 62
7
  6
CONTINUOUS
 10
1759.367502
 20
908.446181
 11
1759.367502
 21
968.446181
  0
LINE
  8
1
 62
7
  6
CONTINUOUS
 10
1769.367502
 20
908.446181
 11
1725.054722
 21
908.446181
  0
LINE
  8
1
 62
7
  6
CONTINUOUS
 10
1769.367502
 20
968.446181
 11
1725.054722
 21
968.446181
  0
CIRCLE
  8
1
 62
7
  6
CONTINUOUS
 10
1759.367502
 20
908.446181
 40
1.500000
  0
CIRCLE
  8
1
 62
7
  6
CONTINUOUS
 10
1759.367502
 20
908.446181
 40
0.750000
  0
CIRCLE
  8
1
 62
7
  6
CONTINUOUS
 10
1759.367502
 20
968.446181
 40
1.500000
  0
CIRCLE
  8
1
 62
7
  6
CONTINUOUS
 10
1759.367502
 20
968.446181
 40
0.750000
  0
TEXT
  8
1
 62
7
  6
CONTINUOUS
 10
1759.367502
 20
928.446181
 40
20.000000
 41
0.500000
  1
60
  7
KANJI
 50
90.000000
 51
30.000000
  0
ENDBLK
  0
BLOCK
  8
1
 62
7
  6
CONTINUOUS
  2
*D28
 70
    65
 10
0.0
 20
0.0
  0
LINE
  8
1
 62
7
  6
CONTINUOUS
 10
1501.627095
 20
1053.446181
 11
1501.627095
 21
1029.662397
  0
LINE
  8
1
 62
7
  6
CONTINUOUS
 10
1491.627095
 20
1053.446181
 11
1535.054722
 21
1053.446181
  0
LINE
  8
1
 62
7
  6
CONTINUOUS
 10
1491.627095
 20
1029.662397
 11
1535.054722
 21
1029.662397
  0
CIRCLE
  8
1
 62
7
  6
CONTINUOUS
 10
1501.627095
 20
1053.446181
 40
1.500000
  0
CIRCLE
  8
1
 62
7
  6
CONTINUOUS
 10
1501.627095
 20
1053.446181
 40
0.750000
  0
CIRCLE
  8
1
 62
7
  6
CONTINUOUS
 10
1501.627095
 20
1029.662397
 40
1.500000
  0
CIRCLE
  8
1
 62
7
  6
CONTINUOUS
 10
1501.627095
 20
1029.662397
 40
0.750000
  0
TEXT
  8
1
 62
7
  6
CONTINUOUS
 10
1501.627095
 20
1031.554289
 40
20.000000
 41
0.500000
  1
25
  7
KANJI
 50
90.000000
 51
30.000000
  0
ENDBLK
  0
BLOCK
  8
1
 62
7
  6
CONTINUOUS
  2
*D29
 70
    65
 10
0.0
 20
0.0
  0
LINE
  8
1
 62
7
  6
CONTINUOUS
 10
1501.627095
 20
1029.662397
 11
1501.627095
 21
672.229964
  0
LINE
  8
1
 62
7
  6
CONTINUOUS
 10
1491.627095
 20
672.229964
 11
1535.054722
 21
672.229964
  0
CIRCLE
  8
1
 62
7
  6
CONTINUOUS
 10
1501.627095
 20
672.229964
 40
1.500000
  0
CIRCLE
  8
1
 62
7
  6
CONTINUOUS
 10
1501.627095
 20
672.229964
 40
0.750000
  0
TEXT
  8
1
 62
7
  6
CONTINUOUS
 10
1501.627095
 20
835.946181
 40
20.000000
 41
0.500000
  1
355
  7
KANJI
 50
90.000000
 51
30.000000
  0
ENDBLK
  0
BLOCK
  8
1
 62
7
  6
CONTINUOUS
  2
*D30
 70
    65
 10
0.0
 20
0.0
  0
LINE
  8
1
 62
7
  6
CONTINUOUS
 10
1501.627095
 20
672.229964
 11
1501.627095
 21
648.446181
  0
LINE
  8
1
 62
7
  6
CONTINUOUS
 10
1491.627095
 20
648.446181
 11
1535.054722
 21
648.446181
  0
CIRCLE
  8
1
 62
7
  6
CONTINUOUS
 10
1501.627095
 20
648.446181
 40
1.500000
  0
CIRCLE
  8
1
 62
7
  6
CONTINUOUS
 10
1501.627095
 20
648.446181
 40
0.750000
  0
TEXT
  8
1
 62
7
  6
CONTINUOUS
 10
1501.627095
 20
650.338073
 40
20.000000
 41
0.500000
  1
25
  7
KANJI
 50
90.000000
 51
30.000000
  0
ENDBLK
  0
ENDSEC
  0
SECTION
  2
ENTITIES
  0
TEXT
  8
1
 62
7
  6
CONTINUOUS
 10
39.900000
 20
144.259375
 40
24.750000
 41
0.800000
  1
取引先：
  7
KANJI
 50
0.000000
 51
0.000000
  0
TEXT
  8
1
 62
7
  6
CONTINUOUS
 10
119.100000
 20
156.634375
 40
12.375000
 41
0.400000
  1

  7
KANJI
 50
0.000000
 51
0.000000
  0
TEXT
  8
1
 62
7
  6
CONTINUOUS
 10
119.100000
 20
144.259375
 40
12.375000
 41
0.400000
  1

  7
KANJI
 50
0.000000
 51
0.000000
  0
TEXT
  8
1
 62
7
  6
CONTINUOUS
 10
39.900000
 20
94.759375
 40
24.750000
 41
0.800000
  1
物件名：
  7
KANJI
 50
0.000000
 51
0.000000
  0
TEXT
  8
1
 62
7
  6
CONTINUOUS
 10
119.100000
 20
107.134375
 40
12.375000
 41
0.400000
  1

  7
KANJI
 50
0.000000
 51
0.000000
  0
TEXT
  8
1
 62
7
  6
CONTINUOUS
 10
119.100000
 20
94.759375
 40
12.375000
 41
0.400000
  1

  7
KANJI
 50
0.000000
 51
0.000000
  0
TEXT
  8
1
 62
7
  6
CONTINUOUS
 10
39.900000
 20
45.259375
 40
24.750000
 41
0.700000
  1
納 期：
  7
KANJI
 50
0.000000
 51
0.000000
  0
TEXT
  8
1
 62
7
  6
CONTINUOUS
 10
109.200000
 20
57.634375
 40
12.375000
 41
0.400000
  1

  7
KANJI
 50
0.000000
 51
0.000000
  0
TEXT
  8
1
 62
7
  6
CONTINUOUS
 10
109.200000
 20
45.259375
 40
12.375000
 41
0.400000
  1

  7
KANJI
 50
0.000000
 51
0.000000
  0
LINE
  8
1
 62
7
  6
CONTINUOUS
 10
30.000000
 20
188.500000
 11
30.000000
 21
40.000000
  0
LINE
  8
1
 62
7
  6
CONTINUOUS
 10
30.000000
 20
188.500000
 11
327.000000
 21
188.500000
  0
LINE
  8
1
 62
7
  6
CONTINUOUS
 10
327.000000
 20
188.500000
 11
327.000000
 21
139.000000
  0
LINE
  8
1
 62
7
  6
CONTINUOUS
 10
327.000000
 20
139.000000
 11
30.000000
 21
139.000000
  0
LINE
  8
1
 62
7
  6
CONTINUOUS
 10
30.000000
 20
139.000000
 11
30.000000
 21
89.500000
  0
LINE
  8
1
 62
7
  6
CONTINUOUS
 10
30.000000
 20
89.500000
 11
327.000000
 21
89.500000
  0
LINE
  8
1
 62
7
  6
CONTINUOUS
 10
327.000000
 20
89.500000
 11
327.000000
 21
139.000000
  0
LINE
  8
1
 62
7
  6
CONTINUOUS
 10
327.000000
 20
139.000000
 11
327.000000
 21
40.000000
  0
LINE
  8
1
 62
7
  6
CONTINUOUS
 10
327.000000
 20
40.000000
 11
30.000000
 21
40.000000
  0
TEXT
  8
1
 62
7
  6
CONTINUOUS
 10
341.850000
 20
144.259375
 40
24.750000
 41
0.800000
  1
　色柄：
  7
KANJI
 50
0.000000
 51
0.000000
  0
TEXT
  8
1
 62
7
  6
CONTINUOUS
 10
421.050000
 20
156.634375
 40
12.375000
 41
0.400000
  1

  7
KANJI
 50
0.000000
 51
0.000000
  0
TEXT
  8
1
 62
7
  6
CONTINUOUS
 10
421.050000
 20
144.259375
 40
12.375000
 41
0.400000
  1

  7
KANJI
 50
0.000000
 51
0.000000
  0
TEXT
  8
1
 62
7
  6
CONTINUOUS
 10
341.850000
 20
94.759375
 40
24.750000
 41
0.800000
  1
　厚み：
  7
KANJI
 50
0.000000
 51
0.000000
  0
TEXT
  8
1
 62
7
  6
CONTINUOUS
 10
421.050000
 20
107.134375
 40
12.375000
 41
0.400000
  1

  7
KANJI
 50
0.000000
 51
0.000000
  0
TEXT
  8
1
 62
7
  6
CONTINUOUS
 10
421.050000
 20
94.759375
 40
12.375000
 41
0.400000
  1

  7
KANJI
 50
0.000000
 51
0.000000
  0
TEXT
  8
1
 62
7
  6
CONTINUOUS
 10
341.850000
 20
45.259375
 40
24.750000
 41
0.800000
  1
付属品：
  7
KANJI
 50
0.000000
 51
0.000000
  0
TEXT
  8
1
 62
7
  6
CONTINUOUS
 10
421.050000
 20
57.634375
 40
12.375000
 41
0.400000
  1

  7
KANJI
 50
0.000000
 51
0.000000
  0
TEXT
  8
1
 62
7
  6
CONTINUOUS
 10
421.050000
 20
45.259375
 40
12.375000
 41
0.400000
  1

  7
KANJI
 50
0.000000
 51
0.000000
  0
LINE
  8
1
 62
7
  6
CONTINUOUS
 10
429.073950
 20
40.000000
 11
429.073950
 21
188.500000
  0
TEXT
  8
1
 62
7
  6
CONTINUOUS
 10
438.973950
 20
164.987500
 40
19.800000
 41
1.000000
  1
単色シリーズ
  7
KANJI
 50
0.000000
 51
0.000000
  0
TEXT
  8
1
 62
7
  6
CONTINUOUS
 10
557.773950
 20
174.887500
 40
9.900000
 41
0.500000
  1

  7
KANJI
 50
0.000000
 51
0.000000
  0
TEXT
  8
1
 62
7
  6
CONTINUOUS
 10
557.773950
 20
164.987500
 40
9.900000
 41
0.500000
  1

  7
KANJI
 50
0.000000
 51
0.000000
  0
LINE
  8
1
 62
7
  6
CONTINUOUS
 10
1615.489950
 20
40.000000
 11
1615.489950
 21
188.500000
  0
TEXT
  8
1
 62
7
  6
CONTINUOUS
 10
1235.923950
 20
94.759375
 40
24.750000
 41
0.800000
  1
埼玉県比企郡川島町表２１－５
  7
KANJI
 50
0.000000
 51
0.000000
  0
TEXT
  8
1
 62
7
  6
CONTINUOUS
 10
1513.123950
 20
107.134375
 40
12.375000
 41
0.400000
  1

  7
KANJI
 50
0.000000
 51
0.000000
  0
TEXT
  8
1
 62
7
  6
CONTINUOUS
 10
1513.123950
 20
94.759375
 40
12.375000
 41
0.400000
  1

  7
KANJI
 50
0.000000
 51
0.000000
  0
TEXT
  8
1
 62
7
  6
CONTINUOUS
 10
1235.923950
 20
70.009375
 40
24.750000
 41
0.647059
  1
  TEL ０４９２－９７－７２７１
  7
KANJI
 50
0.000000
 51
0.000000
  0
TEXT
  8
1
 62
7
  6
CONTINUOUS
 10
1495.798950
 20
82.384375
 40
12.375000
 41
0.388235
  1

  7
KANJI
 50
0.000000
 51
0.000000
  0
TEXT
  8
1
 62
7
  6
CONTINUOUS
 10
1495.798950
 20
70.009375
 40
12.375000
 41
0.388235
  1

  7
KANJI
 50
0.000000
 51
0.000000
  0
TEXT
  8
1
 62
7
  6
CONTINUOUS
 10
1235.923950
 20
45.259375
 40
24.750000
 41
0.647059
  1
  FAX ０４９２－９７－７２７３
  7
KANJI
 50
0.000000
 51
0.000000
  0
TEXT
  8
1
 62
7
  6
CONTINUOUS
 10
1495.798950
 20
57.634375
 40
12.375000
 41
0.388235
  1

  7
KANJI
 50
0.000000
 51
0.000000
  0
TEXT
  8
1
 62
7
  6
CONTINUOUS
 10
1495.798950
 20
45.259375
 40
12.375000
 41
0.388235
  1

  7
KANJI
 50
0.000000
 51
0.000000
  0
TEXT
  8
1
 62
7
  6
CONTINUOUS
 10
1235.923950
 20
117.653125
 40
34.650000
 41
1.285714
  1
㈱三井ＰＣＯ
  7
KANJI
 50
0.000000
 51
0.000000
  0
TEXT
  8
1
 62
7
  6
CONTINUOUS
 10
1468.573950
 20
134.978125
 40
17.325000
 41
0.642857
  1

  7
KANJI
 50
0.000000
 51
0.000000
  0
TEXT
  8
1
 62
7
  6
CONTINUOUS
 10
1468.573950
 20
117.653125
 40
17.325000
 41
0.642857
  1

  7
KANJI
 50
0.000000
 51
0.000000
  0
LINE
  8
1
 62
7
  6
CONTINUOUS
 10
429.073950
 20
188.500000
 11
578.420400
 21
188.500000
  0
LINE
  8
1
 62
7
  6
CONTINUOUS
 10
578.420400
 20
188.500000
 11
722.960400
 21
188.500000
  0
LINE
  8
1
 62
7
  6
CONTINUOUS
 10
722.960400
 20
188.500000
 11
872.851350
 21
188.500000
  0
LINE
  8
1
 62
7
  6
CONTINUOUS
 10
872.851350
 20
40.000000
 11
429.073950
 21
40.000000
  0
LINE
  8
1
 62
7
  6
CONTINUOUS
 10
429.073950
 20
139.000000
 11
872.851350
 21
139.000000
  0
LINE
  8
1
 62
7
  6
CONTINUOUS
 10
872.851350
 20
89.500000
 11
429.073950
 21
89.500000
  0
LINE
  8
1
 62
7
  6
CONTINUOUS
 10
578.420400
 20
188.500000
 11
578.420400
 21
89.500000
  0
LINE
  8
1
 62
7
  6
CONTINUOUS
 10
906.348000
 20
139.000000
 11
872.851350
 21
139.000000
  0
LINE
  8
1
 62
7
  6
CONTINUOUS
 10
872.851350
 20
139.000000
 11
906.348000
 21
139.000000
  0
LINE
  8
1
 62
7
  6
CONTINUOUS
 10
906.348000
 20
89.500000
 11
872.851350
 21
89.500000
  0
LINE
  8
1
 62
7
  6
CONTINUOUS
 10
872.851350
 20
89.500000
 11
906.348000
 21
89.500000
  0
LINE
  8
1
 62
7
  6
CONTINUOUS
 10
578.420400
 20
89.500000
 11
578.420400
 21
40.000000
  0
LINE
  8
1
 62
7
  6
CONTINUOUS
 10
872.851350
 20
188.500000
 11
906.348000
 21
188.500000
  0
LINE
  8
1
 62
7
  6
CONTINUOUS
 10
906.348000
 20
40.000000
 11
872.851350
 21
40.000000
  0
LINE
  8
1
 62
7
  6
CONTINUOUS
 10
1129.098000
 20
188.500000
 11
1129.098000
 21
40.000000
  0
LINE
  8
1
 62
7
  6
CONTINUOUS
 10
1129.098000
 20
40.000000
 11
1615.489950
 21
40.000000
  0
LINE
  8
1
 62
7
  6
CONTINUOUS
 10
1615.489950
 20
188.500000
 11
1129.098000
 21
188.500000
  0
LINE
  8
1
 62
7
  6
CONTINUOUS
 10
906.348000
 20
188.500000
 11
1121.673000
 21
188.500000
  0
LINE
  8
1
 62
7
  6
CONTINUOUS
 10
1121.673000
 20
188.500000
 11
1121.673000
 21
40.000000
  0
LINE
  8
1
 62
7
  6
CONTINUOUS
 10
1121.673000
 20
40.000000
 11
906.348000
 21
40.000000
  0
LINE
  8
1
 62
7
  6
CONTINUOUS
 10
906.348000
 20
139.000000
 11
1121.673000
 21
139.000000
  0
LINE
  8
1
 62
7
  6
CONTINUOUS
 10
1121.673000
 20
89.500000
 11
906.348000
 21
89.500000
  0
TEXT
  8
1
 62
7
  6
CONTINUOUS
 10
931.360845
 20
164.987500
 40
19.800000
 41
1.000000
  1
モンタナシリーズ
  7
KANJI
 50
0.000000
 51
0.000000
  0
TEXT
  8
1
 62
7
  6
CONTINUOUS
 10
1089.760845
 20
174.887500
 40
9.900000
 41
0.500000
  1

  7
KANJI
 50
0.000000
 51
0.000000
  0
TEXT
  8
1
 62
7
  6
CONTINUOUS
 10
1089.760845
 20
164.987500
 40
9.900000
 41
0.500000
  1

  7
KANJI
 50
0.000000
 51
0.000000
  0
TEXT
  8
1
 62
7
  6
CONTINUOUS
 10
755.473485
 20
164.987500
 40
19.800000
 41
1.000000
  1
シエラシリーズ
  7
KANJI
 50
0.000000
 51
0.000000
  0
TEXT
  8
1
 62
7
  6
CONTINUOUS
 10
894.073485
 20
174.887500
 40
9.900000
 41
0.500000
  1

  7
KANJI
 50
0.000000
 51
0.000000
  0
TEXT
  8
1
 62
7
  6
CONTINUOUS
 10
894.073485
 20
164.987500
 40
9.900000
 41
0.500000
  1

  7
KANJI
 50
0.000000
 51
0.000000
  0
LINE
  8
1
 62
7
  6
CONTINUOUS
 10
919.192260
 20
188.500000
 11
919.192260
 21
40.000000
  0
TEXT
  8
1
 62
7
  6
CONTINUOUS
 10
588.320400
 20
161.275000
 40
19.800000
 41
1.000000
  1
ベナーロシリーズ
  7
KANJI
 50
0.000000
 51
0.000000
  0
TEXT
  8
1
 62
7
  6
CONTINUOUS
 10
746.720400
 20
171.175000
 40
9.900000
 41
0.500000
  1

  7
KANJI
 50
0.000000
 51
0.000000
  0
TEXT
  8
1
 62
7
  6
CONTINUOUS
 10
746.720400
 20
161.275000
 40
9.900000
 41
0.500000
  1

  7
KANJI
 50
0.000000
 51
0.000000
  0
LINE
  8
1
 62
7
  6
CONTINUOUS
 10
749.190450
 20
188.500000
 11
749.190450
 21
40.000000
  0
TEXT
  8
1
 62
7
  6
CONTINUOUS
 10
429.073950
 20
48.380350
 40
24.750000
 41
0.800000
  1
シーム剤  本
  7
KANJI
 50
0.000000
 51
0.000000
  0
TEXT
  8
1
 62
7
  6
CONTINUOUS
 10
557.773950
 20
60.755350
 40
12.375000
 41
0.466667
  1

  7
KANJI
 50
0.000000
 51
0.000000
  0
TEXT
  8
1
 62
7
  6
CONTINUOUS
 10
557.773950
 20
48.380350
 40
12.375000
 41
0.466667
  1

  7
KANJI
 50
0.000000
 51
0.000000
  0
TEXT
  8
1
 62
7
  6
CONTINUOUS
 10
924.142260
 20
52.589335
 40
24.750000
 41
1.000000
  1
梱包個数　　梱
  7
KANJI
 50
0.000000
 51
0.000000
  0
TEXT
  8
1
 62
7
  6
CONTINUOUS
 10
1097.392260
 20
64.964335
 40
12.375000
 41
0.500000
  1

  7
KANJI
 50
0.000000
 51
0.000000
  0
TEXT
  8
1
 62
7
  6
CONTINUOUS
 10
1097.392260
 20
52.589335
 40
12.375000
 41
0.500000
  1

  7
KANJI
 50
0.000000
 51
0.000000
  0
TEXT
  8
1
 62
7
  6
CONTINUOUS
 10
735.879900
 20
52.271050
 40
24.750000
 41
0.746667
  1
 断熱テープ   本
  7
KANJI
 50
0.000000
 51
0.000000
  0
TEXT
  8
1
 62
7
  6
CONTINUOUS
 10
900.467400
 20
64.646050
 40
12.375000
 41
0.466667
  1

  7
KANJI
 50
0.000000
 51
0.000000
  0
TEXT
  8
1
 62
7
  6
CONTINUOUS
 10
900.467400
 20
52.271050
 40
12.375000
 41
0.466667
  1

  7
KANJI
 50
0.000000
 51
0.000000
  0
TEXT
  8
1
 62
7
  6
CONTINUOUS
 10
583.370400
 20
47.910595
 40
24.750000
 41
0.656250
  1
瞬間接着剤 　本
  7
KANJI
 50
0.000000
 51
0.000000
  0
TEXT
  8
1
 62
7
  6
CONTINUOUS
 10
713.307900
 20
60.285595
 40
12.375000
 41
0.350000
  1

  7
KANJI
 50
0.000000
 51
0.000000
  0
TEXT
  8
1
 62
7
  6
CONTINUOUS
 10
713.307900
 20
47.910595
 40
12.375000
 41
0.350000
  1

  7
KANJI
 50
0.000000
 51
0.000000
  0
TEXT
  8
1
 62
7
  6
CONTINUOUS
 10
438.973950
 20
97.234375
 40
24.750000
 41
1.041667
  1
   ㎜
  7
KANJI
 50
0.000000
 51
0.000000
  0
TEXT
  8
1
 62
7
  6
CONTINUOUS
 10
525.598950
 20
109.609375
 40
12.375000
 41
0.833333
  1

  7
KANJI
 50
0.000000
 51
0.000000
  0
TEXT
  8
1
 62
7
  6
CONTINUOUS
 10
525.598950
 20
97.234375
 40
12.375000
 41
0.833333
  1

  7
KANJI
 50
0.000000
 51
0.000000
  0
TEXT
  8
1
 62
7
  6
CONTINUOUS
 10
588.320400
 20
97.234375
 40
24.750000
 41
1.041667
  1
   ㎜
  7
KANJI
 50
0.000000
 51
0.000000
  0
TEXT
  8
1
 62
7
  6
CONTINUOUS
 10
674.945400
 20
109.609375
 40
12.375000
 41
0.833333
  1

  7
KANJI
 50
0.000000
 51
0.000000
  0
TEXT
  8
1
 62
7
  6
CONTINUOUS
 10
674.945400
 20
97.234375
 40
12.375000
 41
0.833333
  1

  7
KANJI
 50
0.000000
 51
0.000000
  0
TEXT
  8
1
 62
7
  6
CONTINUOUS
 10
755.473485
 20
97.234375
 40
24.750000
 41
1.041667
  1
   ㎜
  7
KANJI
 50
0.000000
 51
0.000000
  0
TEXT
  8
1
 62
7
  6
CONTINUOUS
 10
842.098485
 20
109.609375
 40
12.375000
 41
0.833333
  1

  7
KANJI
 50
0.000000
 51
0.000000
  0
TEXT
  8
1
 62
7
  6
CONTINUOUS
 10
842.098485
 20
97.234375
 40
12.375000
 41
0.833333
  1

  7
KANJI
 50
0.000000
 51
0.000000
  0
TEXT
  8
1
 62
7
  6
CONTINUOUS
 10
924.142260
 20
97.234375
 40
24.750000
 41
1.050000
  1
    ㎜
  7
KANJI
 50
0.000000
 51
0.000000
  0
TEXT
  8
1
 62
7
  6
CONTINUOUS
 10
1035.517260
 20
109.609375
 40
12.375000
 41
0.875000
  1

  7
KANJI
 50
0.000000
 51
0.000000
  0
TEXT
  8
1
 62
7
  6
CONTINUOUS
 10
1035.517260
 20
97.234375
 40
12.375000
 41
0.875000
  1

  7
KANJI
 50
0.000000
 51
0.000000
  0
TEXT
  8
1
 62
7
  6
CONTINUOUS
 10
1138.998000
 20
159.109375
 40
24.750000
 41
0.800000
  1
デュポンコーリアン認定加工／施工工場　　Ｍｐｃｏ　
  7
KANJI
 50
0.000000
 51
0.000000
  0
TEXT
  8
1
 62
7
  6
CONTINUOUS
 10
1633.998000
 20
171.484375
 40
12.375000
 41
0.400000
  1

  7
KANJI
 50
0.000000
 51
0.000000
  0
TEXT
  8
1
 62
7
  6
CONTINUOUS
 10
1633.998000
 20
159.109375
 40
12.375000
 41
0.400000
  1

  7
KANJI
 50
0.000000
 51
0.000000
  0
LINE
  8
1
 62
7
  6
CONTINUOUS
 10
1622.914950
 20
40.000000
 11
1734.473100
 21
40.000000
  0
TEXT
  8
1
 62
7
  6
CONTINUOUS
 10
1627.864950
 20
95.378125
 40
34.650000
 41
0.714286
  1
図面番号
  7
KANJI
 50
0.000000
 51
0.000000
  0
TEXT
  8
1
 62
7
  6
CONTINUOUS
 10
1726.864950
 20
112.703125
 40
17.325000
 41
0.357143
  1

  7
KANJI
 50
0.000000
 51
0.000000
  0
TEXT
  8
1
 62
7
  6
CONTINUOUS
 10
1726.864950
 20
95.378125
 40
17.325000
 41
0.357143
  1

  7
KANJI
 50
0.000000
 51
0.000000
  0
LINE
  8
1
 62
7
  6
CONTINUOUS
 10
1622.914950
 20
139.000000
 11
1622.914950
 21
40.000000
  0
LINE
  8
1
 62
7
  6
CONTINUOUS
 10
1622.914950
 20
40.000000
 11
1734.473100
 21
40.000000
  0
LINE
  8
1
 62
7
  6
CONTINUOUS
 10
1734.473100
 20
40.000000
 11
1734.473100
 21
139.000000
  0
LINE
  8
1
 62
7
  6
CONTINUOUS
 10
1734.473100
 20
139.000000
 11
1622.914950
 21
139.000000
  0
LINE
  8
1
 62
7
  6
CONTINUOUS
 10
1622.914950
 20
139.000000
 11
1622.914950
 21
188.500000
  0
LINE
  8
1
 62
7
  6
CONTINUOUS
 10
1622.914950
 20
188.500000
 11
1734.473100
 21
188.500000
  0
LINE
  8
1
 62
7
  6
CONTINUOUS
 10
1734.473100
 20
188.500000
 11
1734.473100
 21
139.000000
  0
TEXT
  8
1
 62
7
  6
CONTINUOUS
 10
1627.864950
 20
161.275000
 40
19.800000
 41
0.875000
  1
CAD-NO
  7
KANJI
 50
0.000000
 51
0.000000
  0
TEXT
  8
1
 62
7
  6
CONTINUOUS
 10
1723.152450
 20
171.175000
 40
9.900000
 41
0.875000
  1

  7
KANJI
 50
0.000000
 51
0.000000
  0
TEXT
  8
1
 62
7
  6
CONTINUOUS
 10
1723.152450
 20
161.275000
 40
9.900000
 41
0.875000
  1

  7
KANJI
 50
0.000000
 51
0.000000
  0
LINE
  8
1
 62
7
  6
CONTINUOUS
 10
466.494400
 20
682.397177
 11
492.295893
 21
708.198671
  0
LINE
  8
1
 62
7
  6
CONTINUOUS
 10
492.295893
 20
708.198671
 11
524.413629
 21
708.198671
  0
TEXT
  8
1
 62
7
  6
CONTINUOUS
 10
494.413629
 20
708.198671
 40
20.000000
 41
0.375000
  1
6R*4
  7
KANJI
 50
0.000000
 51
30.000000
  0
LINE
  8
1
 62
7
  6
CONTINUOUS
 10
466.494400
 20
682.397177
 11
476.494400
 21
699.717685
  0
LINE
  8
1
 62
7
  6
CONTINUOUS
 10
466.494400
 20
682.397177
 11
483.814908
 21
692.397177
  0
LINE
  8
1
 62
7
  6
CONTINUOUS
 10
476.494400
 20
699.717685
 11
483.814908
 21
692.397177
  0
LINE
  8
1
 62
7
  6
CONTINUOUS
 10
469.909464
 20
685.812240
 11
474.909463
 21
694.472495
  0
LINE
  8
1
 62
7
  6
CONTINUOUS
 10
469.909464
 20
685.812240
 11
478.569718
 21
690.812241
  0
LINE
  8
1
 62
7
  6
CONTINUOUS
 10
474.909463
 20
694.472495
 11
478.569718
 21
690.812241
  0
LINE
  8
1
 62
7
  6
CONTINUOUS
 10
682.543403
 20
995.946181
 11
682.543403
 21
880.946181
  0
LINE
  8
1
 62
7
  6
CONTINUOUS
 10
617.543403
 20
938.446181
 11
747.543403
 21
938.446181
  0
LINE
  8
1
 62
7
  6
CONTINUOUS
 10
682.543403
 20
1003.086589
 11
682.543403
 21
875.287221
  0
CIRCLE
  8
1
 62
7
  6
CONTINUOUS
 10
682.543403
 20
938.446181
 40
21.000000
  0
CIRCLE
  8
1
 62
7
  6
CONTINUOUS
 10
682.543403
 20
938.446181
 40
30.000000
  0
CIRCLE
  8
1
 62
7
  6
CONTINUOUS
 10
682.543403
 20
938.446181
 40
35.000000
  0
DIMENSION
  8
1
 62
7
  6
CONTINUOUS
  2
*D1
 10
661.543403
 20
826.809632
 11
682.543403
 21
826.809632
 70
     0
  1
42
 13
661.543403
 23
898.446181
 14
703.543403
 24
898.446181
 50
0.000000
  0
DIMENSION
  8
1
 62
7
  6
CONTINUOUS
  2
*D2
 10
652.543403
 20
801.015264
 11
682.543403
 21
801.015264
 70
     0
  1
60
 13
652.543403
 23
898.446181
 14
712.543403
 24
898.446181
 50
0.000000
  0
LINE
  8
1
 62
7
  6
CONTINUOUS
 10
1142.543403
 20
995.946181
 11
1142.543403
 21
880.946181
  0
LINE
  8
1
 62
7
  6
CONTINUOUS
 10
1077.543403
 20
938.446181
 11
1207.543403
 21
938.446181
  0
LINE
  8
1
 62
7
  6
CONTINUOUS
 10
1142.543403
 20
1003.086589
 11
1142.543403
 21
875.287221
  0
CIRCLE
  8
1
 62
7
  6
CONTINUOUS
 10
1142.543403
 20
938.446181
 40
21.000000
  0
CIRCLE
  8
1
 62
7
  6
CONTINUOUS
 10
1142.543403
 20
938.446181
 40
30.000000
  0
CIRCLE
  8
1
 62
7
  6
CONTINUOUS
 10
1142.543403
 20
938.446181
 40
35.000000
  0
DIMENSION
  8
1
 62
7
  6
CONTINUOUS
  2
*D3
 10
1121.543403
 20
826.809632
 11
1142.543403
 21
826.809632
 70
     0
  1
42
 13
1121.543403
 23
898.446181
 14
1163.543403
 24
898.446181
 50
0.000000
  0
DIMENSION
  8
1
 62
7
  6
CONTINUOUS
  2
*D4
 10
1112.543403
 20
801.015264
 11
1142.543403
 21
801.015264
 70
     0
  1
60
 13
1112.543403
 23
898.446181
 14
1172.543403
 24
898.446181
 50
0.000000
  0
LINE
  8
1
 62
7
  6
CONTINUOUS
 10
457.543403
 20
648.446181
 11
1367.543403
 21
648.446181
  0
ARC
  8
1
 62
7
  6
CONTINUOUS
 10
457.543403
 20
673.446181
 40
25.000000
 50
180.000000
 51
-90.000000
  0
LINE
  8
1
 62
7
  6
CONTINUOUS
 10
432.543403
 20
673.446181
 11
432.543403
 21
1028.446181
  0
ARC
  8
1
 62
7
  6
CONTINUOUS
 10
457.543403
 20
1028.446181
 40
25.000000
 50
90.000000
 51
180.000000
  0
LINE
  8
1
 62
7
  6
CONTINUOUS
 10
1367.543403
 20
1053.446181
 11
457.543403
 21
1053.446181
  0
ARC
  8
1
 62
7
  6
CONTINUOUS
 10
1367.543403
 20
673.446181
 40
25.000000
 50
-90.000000
 51
0.000000
  0
LINE
  8
1
 62
7
  6
CONTINUOUS
 10
1392.543403
 20
1028.446181
 11
1392.543403
 21
673.446181
  0
ARC
  8
1
 62
7
  6
CONTINUOUS
 10
1367.543403
 20
1028.446181
 40
25.000000
 50
0.000000
 51
90.000000
  0
LINE
  8
1
 62
7
  6
CONTINUOUS
 10
463.543403
 20
672.229964
 11
1361.543403
 21
672.229964
  0
ARC
  8
1
 62
7
  6
CONTINUOUS
 10
463.543403
 20
678.229964
 40
6.000000
 50
180.000000
 51
-90.000000
  0
LINE
  8
1
 62
7
  6
CONTINUOUS
 10
457.543403
 20
678.229964
 11
457.543403
 21
1023.662397
  0
ARC
  8
1
 62
7
  6
CONTINUOUS
 10
463.543403
 20
1023.662397
 40
6.000000
 50
90.000000
 51
180.000000
  0
LINE
  8
1
 62
7
  6
CONTINUOUS
 10
1361.543403
 20
1029.662397
 11
463.543403
 21
1029.662397
  0
ARC
  8
1
 62
7
  6
CONTINUOUS
 10
1361.543403
 20
678.229964
 40
6.000000
 50
-90.000000
 51
0.000000
  0
LINE
  8
1
 62
7
  6
CONTINUOUS
 10
1367.543403
 20
1023.662397
 11
1367.543403
 21
678.229964
  0
ARC
  8
1
 62
7
  6
CONTINUOUS
 10
1361.543403
 20
1023.662397
 40
6.000000
 50
0.000000
 51
90.000000
  0
LINE
  8
1
 62
7
  6
CONTINUOUS
 10
1392.543403
 20
1053.446181
 11
1427.883682
 21
1110.989583
  0
LINE
  8
1
 62
7
  6
CONTINUOUS
 10
1427.883682
 20
1110.989583
 11
1477.866320
 21
1110.989583
  0
TEXT
  8
1
 62
7
  6
CONTINUOUS
 10
1440.366320
 20
1110.989583
 40
20.000000
 41
0.375000
  1
25R*4
  7
KANJI
 50
0.000000
 51
30.000000
  0
LINE
  8
1
 62
7
  6
CONTINUOUS
 10
1392.543403
 20
1053.446181
 11
1398.242505
 21
1072.616998
  0
LINE
  8
1
 62
7
  6
CONTINUOUS
 10
1392.543403
 20
1053.446181
 11
1407.064378
 21
1067.199044
  0
LINE
  8
1
 62
7
  6
CONTINUOUS
 10
1398.242505
 20
1072.616998
 11
1407.064378
 21
1067.199044
  0
LINE
  8
1
 62
7
  6
CONTINUOUS
 10
1395.070912
 20
1057.561641
 11
1397.920463
 21
1067.147049
  0
LINE
  8
1
 62
7
  6
CONTINUOUS
 10
1395.070912
 20
1057.561641
 11
1402.331400
 21
1064.438073
  0
LINE
  8
1
 62
7
  6
CONTINUOUS
 10
1397.920463
 20
1067.147049
 11
1402.331400
 21
1064.438073
  0
DIMENSION
  8
1
 62
7
  6
CONTINUOUS
  2
*D5
 10
432.543403
 20
1124.375000
 11
445.043403
 21
1124.375000
 70
     0
  1
25
 13
432.543403
 23
1063.446181
 14
457.543403
 24
1063.446181
 50
0.000000
  0
DIMENSION
  8
1
 62
7
  6
CONTINUOUS
  2
*D6
 10
457.543403
 20
1124.375000
 11
570.043403
 21
1124.375000
 70
     0
  1
225
 13
457.543403
 23
1124.375000
 14
682.543403
 24
1063.446181
 50
0.000000
  0
DIMENSION
  8
1
 62
7
  6
CONTINUOUS
  2
*D7
 10
682.543403
 20
1124.375000
 11
912.543403
 21
1124.375000
 70
     0
  1
460
 13
682.543403
 23
1124.375000
 14
1142.543403
 24
1063.446181
 50
0.000000
  0
DIMENSION
  8
1
 62
7
  6
CONTINUOUS
  2
*D8
 10
1142.543403
 20
1124.375000
 11
1255.043403
 21
1124.375000
 70
     0
  1
225
 13
1142.543403
 23
1124.375000
 14
1367.543403
 24
1063.446181
 50
0.000000
  0
DIMENSION
  8
1
 62
7
  6
CONTINUOUS
  2
*D9
 10
1367.543403
 20
1124.375000
 11
1380.043403
 21
1124.375000
 70
     0
  1
25
 13
1367.543403
 23
1124.375000
 14
1392.543403
 24
1063.446181
 50
0.000000
  0
DIMENSION
  8
1
 62
7
  6
CONTINUOUS
  2
*D10
 10
399.718263
 20
1028.446181
 11
399.718263
 21
983.446181
 70
     0
  1
90
 13
422.543403
 23
1028.446181
 14
422.543403
 24
938.446181
 50
-90.000000
  0
DIMENSION
  8
1
 62
7
  6
CONTINUOUS
  2
*D11
 10
379.437005
 20
1053.446181
 11
379.437005
 21
1040.946181
 70
     0
  1
25
 13
422.543403
 23
1053.446181
 14
422.543403
 24
1028.446181
 50
-90.000000
  0
DIMENSION
  8
1
 62
7
  6
CONTINUOUS
  2
*D12
 10
379.437005
 20
1028.446181
 11
379.437005
 21
850.946181
 70
     0
  1
355
 13
379.437005
 23
1028.446181
 14
422.543403
 24
673.446181
 50
-90.000000
  0
DIMENSION
  8
1
 62
7
  6
CONTINUOUS
  2
*D13
 10
379.437005
 20
673.446181
 11
379.437005
 21
660.946181
 70
     0
  1
25
 13
379.437005
 23
673.446181
 14
422.543403
 24
648.446181
 50
-90.000000
  0
DIMENSION
  8
1
 62
7
  6
CONTINUOUS
  2
*D14
 10
354.326876
 20
1053.446181
 11
354.326876
 21
850.946181
 70
     0
  1
405
 13
422.543403
 23
1053.446181
 14
422.543403
 24
648.446181
 50
-90.000000
  0
LINE
  8
1
 62
7
  6
DOT
 10
662.543403
 20
1029.662397
 11
662.543403
 21
1044.662397
  0
LINE
  8
1
 62
7
  6
DOT
 10
662.543403
 20
1044.662397
 11
702.543403
 21
1044.662397
  0
LINE
  8
1
 62
7
  6
DOT
 10
702.543403
 20
1044.662397
 11
702.543403
 21
1029.662397
  0
LINE
  8
1
 62
7
  6
DOT
 10
1122.543403
 20
1029.662397
 11
1122.543403
 21
1044.662397
  0
LINE
  8
1
 62
7
  6
DOT
 10
1122.543403
 20
1044.662397
 11
1162.543403
 21
1044.662397
  0
LINE
  8
1
 62
7
  6
DOT
 10
1162.543403
 20
1044.662397
 11
1162.543403
 21
1029.662397
  0
LINE
  8
1
 62
7
  6
DOT
 10
1122.543403
 20
1029.662397
 11
1122.543403
 21
1044.662397
  0
LINE
  8
1
 62
7
  6
DOT
 10
1122.543403
 20
1044.662397
 11
1162.543403
 21
1044.662397
  0
LINE
  8
1
 62
7
  6
DOT
 10
1162.543403
 20
1044.662397
 11
1162.543403
 21
1029.662397
  0
LINE
  8
1
 62
7
  6
DOT
 10
662.543403
 20
1029.662397
 11
662.543403
 21
1044.662397
  0
LINE
  8
1
 62
7
  6
DOT
 10
662.543403
 20
1044.662397
 11
702.543403
 21
1044.662397
  0
LINE
  8
1
 62
7
  6
DOT
 10
702.543403
 20
1044.662397
 11
702.543403
 21
1029.662397
  0
LINE
  8
1
 62
7
  6
CONTINUOUS
 10
682.543403
 20
1044.662397
 11
702.543403
 21
1083.673617
  0
LINE
  8
1
 62
7
  6
CONTINUOUS
 10
702.543403
 20
1083.673617
 11
792.543403
 21
1083.673617
  0
TEXT
  8
1
 62
7
  6
CONTINUOUS
 10
702.543403
 20
1083.673617
 40
20.000000
 41
0.450000
  1
ｵｰﾊﾞｰﾌﾛｰ付き
  7
KANJI
 50
0.000000
 51
30.000000
  0
LINE
  8
1
 62
7
  6
CONTINUOUS
 10
682.543403
 20
1044.662397
 11
686.750446
 21
1064.214910
  0
LINE
  8
1
 62
7
  6
CONTINUOUS
 10
682.543403
 20
1044.662397
 11
695.963066
 21
1059.491849
  0
LINE
  8
1
 62
7
  6
CONTINUOUS
 10
686.750446
 20
1064.214910
 11
695.963066
 21
1059.491849
  0
LINE
  8
1
 62
7
  6
CONTINUOUS
 10
684.746741
 20
1048.960142
 11
686.850263
 21
1058.736399
  0
LINE
  8
1
 62
7
  6
CONTINUOUS
 10
684.746741
 20
1048.960142
 11
691.456573
 21
1056.374868
  0
LINE
  8
1
 62
7
  6
CONTINUOUS
 10
686.850263
 20
1058.736399
 11
691.456573
 21
1056.374868
  0
LINE
  8
1
 62
7
  6
CONTINUOUS
 10
1142.543403
 20
1044.662397
 11
1099.784699
 21
1083.673617
  0
LINE
  8
1
 62
7
  6
CONTINUOUS
 10
1099.784699
 20
1083.673617
 11
1009.784699
 21
1083.673617
  0
TEXT
  8
1
 62
7
  6
CONTINUOUS
 10
1009.784699
 20
1083.673617
 40
20.000000
 41
0.450000
  1
ｵｰﾊﾞｰﾌﾛｰ付き
  7
KANJI
 50
0.000000
 51
30.000000
  0
LINE
  8
1
 62
7
  6
CONTINUOUS
 10
1142.543403
 20
1044.662397
 11
1124.783240
 21
1053.858952
  0
LINE
  8
1
 62
7
  6
CONTINUOUS
 10
1142.543403
 20
1044.662397
 11
1131.760928
 21
1061.506928
  0
LINE
  8
1
 62
7
  6
CONTINUOUS
 10
1124.783240
 20
1053.858952
 11
1131.760928
 21
1061.506928
  0
LINE
  8
1
 62
7
  6
CONTINUOUS
 10
1138.975573
 20
1047.917532
 11
1130.095492
 21
1052.515810
  0
LINE
  8
1
 62
7
  6
CONTINUOUS
 10
1138.975573
 20
1047.917532
 11
1133.584336
 21
1056.339798
  0
LINE
  8
1
 62
7
  6
CONTINUOUS
 10
1130.095492
 20
1052.515810
 11
1133.584336
 21
1056.339798
  0
LINE
  8
1
 62
7
  6
CONTINUOUS
 10
682.543403
 20
274.401042
 11
682.543403
 21
339.097222
  0
LINE
  8
1
 62
7
  6
CONTINUOUS
 10
652.543403
 20
308.633128
 11
652.543403
 21
303.633128
  0
LINE
  8
1
 62
7
  6
CONTINUOUS
 10
652.543403
 20
303.633128
 11
712.543403
 21
303.633128
  0
LINE
  8
1
 62
7
  6
CONTINUOUS
 10
712.543403
 20
308.633128
 11
712.543403
 21
303.633128
  0
DIMENSION
  8
1
 62
7
  6
CONTINUOUS
  2
*D15
 10
652.543403
 20
225.164376
 11
682.543403
 21
225.164376
 70
     0
  1
60
 13
652.543403
 23
293.633128
 14
712.543403
 24
293.633128
 50
0.000000
  0
DIMENSION
  8
1
 62
7
  6
CONTINUOUS
  2
*D16
 10
661.543403
 20
250.288760
 11
682.543403
 21
250.288760
 70
     0
  1
42
 13
661.543403
 23
293.633128
 14
703.543403
 24
293.633128
 50
0.000000
  0
LINE
  8
1
 62
7
  6
CONTINUOUS
 10
608.241332
 20
309.669851
 11
625.043403
 21
308.633128
  0
LINE
  8
1
 62
7
  6
CONTINUOUS
 10
1142.543403
 20
274.401042
 11
1142.543403
 21
339.097222
  0
LINE
  8
1
 62
7
  6
CONTINUOUS
 10
1112.543403
 20
308.633128
 11
1112.543403
 21
303.633128
  0
LINE
  8
1
 62
7
  6
CONTINUOUS
 10
1112.543403
 20
303.633128
 11
1172.543403
 21
303.633128
  0
LINE
  8
1
 62
7
  6
CONTINUOUS
 10
1172.543403
 20
308.633128
 11
1172.543403
 21
303.633128
  0
DIMENSION
  8
1
 62
7
  6
CONTINUOUS
  2
*D17
 10
1112.543403
 20
225.164376
 11
1142.543403
 21
225.164376
 70
     0
  1
60
 13
1112.543403
 23
293.633128
 14
1172.543403
 24
293.633128
 50
0.000000
  0
DIMENSION
  8
1
 62
7
  6
CONTINUOUS
  2
*D18
 10
1121.543403
 20
250.288760
 11
1142.543403
 21
250.288760
 70
     0
  1
42
 13
1121.543403
 23
293.633128
 14
1163.543403
 24
293.633128
 50
0.000000
  0
LINE
  8
1
 62
7
  6
CONTINUOUS
 10
1392.543403
 20
472.951389
 11
1389.543403
 21
460.951389
  0
LINE
  8
1
 62
7
  6
CONTINUOUS
 10
1375.592324
 20
460.951389
 11
1360.962180
 21
328.862092
  0
ARC
  8
1
 62
7
  6
CONTINUOUS
 10
1346.053350
 20
330.513386
 40
15.000000
 50
-90.614907
 51
-6.320290
  0
LINE
  8
1
 62
7
  6
CONTINUOUS
 10
1289.496604
 20
312.753829
 11
1346.053350
 21
315.513386
  0
LINE
  8
1
 62
7
  6
CONTINUOUS
 10
1289.496604
 20
312.753829
 11
1281.450272
 21
312.361227
  0
LINE
  8
1
 62
7
  6
CONTINUOUS
 10
1156.992926
 20
472.951389
 11
1392.543403
 21
472.951389
  0
LINE
  8
1
 62
7
  6
CONTINUOUS
 10
1389.543403
 20
460.951389
 11
1178.945580
 21
460.951389
  0
LINE
  8
1
 62
7
  6
CONTINUOUS
 10
747.543403
 20
308.633128
 11
1112.543403
 21
308.633128
  0
LINE
  8
1
 62
7
  6
CONTINUOUS
 10
1112.543403
 20
308.633128
 11
1172.543403
 21
308.633128
  0
LINE
  8
1
 62
7
  6
CONTINUOUS
 10
1172.543403
 20
308.633128
 11
1281.450272
 21
312.361227
  0
LINE
  8
1
 62
7
  6
CONTINUOUS
 10
645.161579
 20
460.951389
 11
671.680468
 21
460.951389
  0
LINE
  8
1
 62
7
  6
CONTINUOUS
 10
720.601095
 20
460.951389
 11
1178.945580
 21
460.951389
  0
LINE
  8
1
 62
7
  6
CONTINUOUS
 10
640.771048
 20
472.951389
 11
694.259219
 21
472.951389
  0
LINE
  8
1
 62
7
  6
CONTINUOUS
 10
764.817816
 20
472.951389
 11
1156.992926
 21
472.951389
  0
LINE
  8
1
 62
7
  6
CONTINUOUS
 10
435.543403
 20
460.951389
 11
432.543403
 21
472.951389
  0
LINE
  8
1
 62
7
  6
CONTINUOUS
 10
449.494482
 20
460.951389
 11
463.854594
 21
331.300094
  0
ARC
  8
1
 62
7
  6
CONTINUOUS
 10
478.763424
 20
332.951389
 40
15.000000
 50
-173.679710
 51
-96.656785
  0
DIMENSION
  8
1
 62
7
  6
CONTINUOUS
  2
*D19
 10
348.650049
 20
472.951389
 11
348.650049
 21
387.951389
 70
     0
  1
170
 13
422.543403
 23
472.951389
 14
422.543403
 24
302.951389
 50
-90.000000
  0
DIMENSION
  8
1
 62
7
  6
CONTINUOUS
  2
*D20
 10
361.272825
 20
472.951389
 11
361.272825
 21
466.951389
 70
     0
  1
   12
 13
422.543403
 23
472.951389
 14
422.543403
 24
460.951389
 50
-90.000000
  0
LINE
  8
1
 62
7
  6
CONTINUOUS
 10
670.161579
 20
460.951389
 11
435.543403
 21
460.951389
  0
LINE
  8
1
 62
7
  6
CONTINUOUS
 10
477.024600
 20
318.052513
 11
633.241332
 21
309.669851
  0
LINE
  8
1
 62
7
  6
CONTINUOUS
 10
432.543403
 20
472.951389
 11
665.771048
 21
472.951389
  0
LINE
  8
1
 62
7
  6
CONTINUOUS
 10
682.543403
 20
472.951389
 11
764.817816
 21
472.951389
  0
LINE
  8
1
 62
7
  6
CONTINUOUS
 10
720.601095
 20
460.951389
 11
670.161579
 21
460.951389
  0
LINE
  8
1
 62
7
  6
CONTINUOUS
 10
625.043403
 20
308.633128
 11
747.543403
 21
308.633128
  0
DIMENSION
  8
1
 62
7
  6
CONTINUOUS
  2
*D21
 10
432.543403
 20
535.355735
 11
912.543403
 21
535.355735
 70
     0
  1
960
 13
432.543403
 23
482.951389
 14
1392.543403
 24
482.951389
 50
0.000000
  0
DIMENSION
  8
1
 62
7
  6
CONTINUOUS
  2
*D22
 10
432.543403
 20
1147.838542
 11
912.543403
 21
1147.838542
 70
     0
  1
960
 13
432.543403
 23
1053.446181
 14
1392.543403
 24
1053.446181
 50
0.000000
  0
TEXT
  8
1
 62
7
  6
CONTINUOUS
 10
54.560220
 20
1140.920864
 40
30.000000
 41
0.833333
  1
100％アクリル製
  7
KANJI
 50
0.000000
 51
0.000000
  0
TEXT
  8
1
 62
7
  6
CONTINUOUS
 10
279.560220
 20
1155.920864
 40
15.000000
 41
0.500000
  1

  7
KANJI
 50
0.000000
 51
0.000000
  0
TEXT
  8
1
 62
7
  6
CONTINUOUS
 10
279.560220
 20
1140.920864
 40
15.000000
 41
0.500000
  1

  7
KANJI
 50
0.000000
 51
0.000000
  0
TEXT
  8
1
 62
7
  6
CONTINUOUS
 10
54.079792
 20
1110.136178
 40
25.000000
 41
1.000000
  1
色：ホワイト　
  7
KANJI
 50
0.000000
 51
0.000000
  0
TEXT
  8
1
 62
7
  6
CONTINUOUS
 10
229.079792
 20
1122.636178
 40
12.500000
 41
0.500000
  1

  7
KANJI
 50
0.000000
 51
0.000000
  0
TEXT
  8
1
 62
7
  6
CONTINUOUS
 10
229.079792
 20
1110.136178
 40
12.500000
 41
0.500000
  1

  7
KANJI
 50
0.000000
 51
0.000000
  0
TEXT
  8
1
 62
7
  6
CONTINUOUS
 10
54.560220
 20
1075.001241
 40
25.000000
 41
0.562500
  1
ｵｰﾊﾞｰﾌﾛｰ ﾁｭｰﾌﾞ付き
  7
KANJI
 50
0.000000
 51
0.000000
  0
TEXT
  8
1
 62
7
  6
CONTINUOUS
 10
279.560220
 20
1087.501241
 40
12.500000
 41
0.500000
  1

  7
KANJI
 50
0.000000
 51
0.000000
  0
TEXT
  8
1
 62
7
  6
CONTINUOUS
 10
279.560220
 20
1075.001241
 40
12.500000
 41
0.500000
  1

  7
KANJI
 50
0.000000
 51
0.000000
  0
TEXT
  8
1
 62
7
  6
CONTINUOUS
 10
54.560220
 20
1040.219115
 40
30.000000
 41
1.000000
  1
排水金具：別売
  7
KANJI
 50
0.000000
 51
0.000000
  0
TEXT
  8
1
 62
7
  6
CONTINUOUS
 10
264.560220
 20
1055.219115
 40
15.000000
 41
0.500000
  1

  7
KANJI
 50
0.000000
 51
0.000000
  0
TEXT
  8
1
 62
7
  6
CONTINUOUS
 10
264.560220
 20
1040.219115
 40
15.000000
 41
0.500000
  1

  7
KANJI
 50
0.000000
 51
0.000000
  0
TEXT
  8
1
 62
7
  6
CONTINUOUS
 10
54.560220
 20
1175.920864
 40
35.000000
 41
0.675000
  1
U-105 洗面ﾎﾞｳﾙ 2人用 詳細図
  7
KANJI
 50
0.345083
 51
0.000000
  0
TEXT
  8
1
 62
7
  6
CONTINUOUS
 10
526.946251
 20
1196.266316
 40
17.500000
 41
0.500000
  1

  7
KANJI
 50
0.345083
 51
0.000000
  0
TEXT
  8
1
 62
7
  6
CONTINUOUS
 10
527.051650
 20
1178.766633
 40
17.500000
 41
0.500000
  1

  7
KANJI
 50
0.345083
 51
0.000000
  0
DIMENSION
  8
1
 62
7
  6
CONTINUOUS
  2
*D23
 10
1545.054722
 20
1160.069444
 11
1630.054722
 21
1160.069444
 70
     0
  1
170
 13
1545.054722
 23
1063.446181
 14
1715.054722
 24
1063.446181
 50
0.000000
  0
LINE
  8
1
 62
7
  6
CONTINUOUS
 10
1545.054722
 20
1053.446181
 11
1545.054722
 21
648.446181
  0
LINE
  8
1
 62
7
  6
CONTINUOUS
 10
1545.054722
 20
1053.446181
 11
1557.054722
 21
1050.446181
  0
LINE
  8
1
 62
7
  6
CONTINUOUS
 10
1545.054722
 20
648.446181
 11
1557.054722
 21
651.446181
  0
LINE
  8
1
 62
7
  6
CONTINUOUS
 10
1557.054722
 20
1050.446181
 11
1557.054722
 21
1036.487164
  0
LINE
  8
1
 62
7
  6
CONTINUOUS
 10
1557.054722
 20
1036.487164
 11
1705.054722
 21
1021.487164
  0
LINE
  8
1
 62
7
  6
CONTINUOUS
 10
1557.054722
 20
651.446181
 11
1557.054722
 21
665.405197
  0
LINE
  8
1
 62
7
  6
CONTINUOUS
 10
1695.046367
 20
679.390837
 11
1557.054722
 21
665.405197
  0
ARC
  8
1
 62
7
  6
CONTINUOUS
 10
1694.441358
 20
685.360256
 40
6.000000
 50
-84.212757
 51
-5.759386
  0
LINE
  8
1
 62
7
  6
CONTINUOUS
 10
1545.054722
 20
672.229964
 11
1689.216250
 21
686.840930
  0
ARC
  8
1
 62
7
  6
CONTINUOUS
 10
1688.611242
 20
692.810349
 40
6.000000
 50
-84.212757
 51
-1.457323
  0
LINE
  8
1
 62
7
  6
CONTINUOUS
 10
1700.411071
 20
684.758150
 11
1710.054722
 21
873.446181
  0
LINE
  8
1
 62
7
  6
CONTINUOUS
 10
1692.728769
 20
688.446181
 11
1694.609301
 21
692.657755
  0
LINE
  8
1
 62
7
  6
CONTINUOUS
 10
1694.609301
 20
692.657755
 11
1705.054722
 21
873.446181
  0
LINE
  8
1
 62
7
  6
CONTINUOUS
 10
1704.659731
 20
1021.527197
 11
1705.054722
 21
1021.487164
  0
LINE
  8
1
 62
7
  6
CONTINUOUS
 10
1710.054722
 20
1003.446181
 11
1710.054722
 21
1015.557778
  0
ARC
  8
1
 62
7
  6
CONTINUOUS
 10
1704.054722
 20
1015.557778
 40
6.000000
 50
0.000000
 51
84.212757
  0
LINE
  8
1
 62
7
  6
CONTINUOUS
 10
1545.054722
 20
1029.662397
 11
1700.627528
 21
1013.894883
  0
ARC
  8
1
 62
7
  6
CONTINUOUS
 10
1700.325023
 20
1010.910173
 40
3.000000
 50
6.519802
 51
84.212757
  0
DIMENSION
  8
1
 62
7
  6
CONTINUOUS
  2
*D24
 10
1545.054722
 20
1129.848908
 11
1551.054722
 21
1129.848908
 70
     0
  1
  12
 13
1545.054722
 23
1063.446181
 14
1557.054722
 24
1063.446181
 50
0.000000
  0
DIMENSION
  8
1
 62
7
  6
CONTINUOUS
  2
*D25
 10
1595.152239
 20
1024.591904
 11
1595.536878
 21
1028.573412
 70
     0
  1
   8
 13
1595.152239
 23
1024.591904
 14
1595.921516
 24
1032.554920
 50
84.482000
  0
LINE
  8
1
 62
7
  6
CONTINUOUS
 10
1705.054722
 20
873.446181
 11
1705.054722
 21
879.446181
  0
LINE
  8
1
 62
7
  6
CONTINUOUS
 10
1704.902759
 20
997.275861
 11
1703.305621
 21
1011.250813
  0
LINE
  8
1
 62
7
  6
CONTINUOUS
 10
1562.658538
 20
665.973151
 11
1563.386301
 21
673.446181
  0
LINE
  8
1
 62
7
  6
CONTINUOUS
 10
1578.024710
 20
667.530534
 11
1578.815590
 21
675.651674
  0
LINE
  8
1
 62
7
  6
CONTINUOUS
 10
1595.757528
 20
669.327779
 11
1596.548408
 21
677.448919
  0
LINE
  8
1
 62
7
  6
CONTINUOUS
 10
1620.502493
 20
671.835714
 11
1621.293373
 21
679.956855
  0
LINE
  8
1
 62
7
  6
CONTINUOUS
 10
1641.239942
 20
673.446181
 11
1642.079143
 21
682.063521
  0
LINE
  8
1
 62
7
  6
CONTINUOUS
 10
1667.014294
 20
676.549748
 11
1667.805174
 21
684.670889
  0
LINE
  8
1
 62
7
  6
CONTINUOUS
 10
1681.121776
 20
677.979561
 11
1681.776098
 21
686.086861
  0
LINE
  8
1
 62
7
  6
CONTINUOUS
 10
1699.244293
 20
772.879791
 11
1705.284335
 21
780.108608
  0
LINE
  8
1
 62
7
  6
CONTINUOUS
 10
1698.046217
 20
752.143589
 11
1705.054722
 21
757.557691
  0
LINE
  8
1
 62
7
  6
CONTINUOUS
 10
1697.135240
 20
736.376485
 11
1703.281222
 21
740.915637
  0
LINE
  8
1
 62
7
  6
CONTINUOUS
 10
1696.157854
 20
719.459978
 11
1703.054722
 21
724.643740
  0
LINE
  8
1
 62
7
  6
CONTINUOUS
 10
1694.947546
 20
698.512070
 11
1701.413076
 21
704.363416
  0
LINE
  8
1
 62
7
  6
CONTINUOUS
 10
1704.285504
 20
860.132617
 11
1710.054722
 21
863.738999
  0
LINE
  8
1
 62
7
  6
CONTINUOUS
 10
1703.438686
 20
845.475972
 11
1708.775774
 21
848.422235
  0
LINE
  8
1
 62
7
  6
CONTINUOUS
 10
1702.436837
 20
828.136053
 11
1707.924200
 21
831.760300
  0
LINE
  8
1
 62
7
  6
CONTINUOUS
 10
1701.002088
 20
803.303540
 11
1707.164926
 21
808.265341
  0
LINE
  8
1
 62
7
  6
CONTINUOUS
 10
1699.874171
 20
1013.971236
 11
1700.649591
 21
1021.933630
  0
LINE
  8
1
 62
7
  6
CONTINUOUS
 10
1674.651016
 20
1016.527637
 11
1675.426436
 21
1024.490031
  0
LINE
  8
1
 62
7
  6
CONTINUOUS
 10
1654.271551
 20
1018.593123
 11
1655.046971
 21
1026.555517
  0
LINE
  8
1
 62
7
  6
CONTINUOUS
 10
1568.847321
 20
1027.250985
 11
1569.622741
 21
1035.213378
  0
LINE
  8
1
 62
7
  6
CONTINUOUS
 10
1557.054722
 20
1028.446181
 11
1559.577600
 21
1036.231467
  0
LINE
  8
1
 62
7
  6
CONTINUOUS
 10
1578.413626
 20
1026.281427
 11
1579.189046
 21
1034.243820
  0
LINE
  8
1
 62
7
  6
CONTINUOUS
 10
1606.180653
 20
1023.467201
 11
1607.930511
 21
1031.330834
  0
LINE
  8
1
 62
7
  6
CONTINUOUS
 10
1616.668351
 20
1022.404259
 11
1618.775927
 21
1030.231636
  0
LINE
  8
1
 62
7
  6
CONTINUOUS
 10
1630.010284
 20
1021.052036
 11
1632.150082
 21
1028.446181
  0
LINE
  8
1
 62
7
  6
CONTINUOUS
 10
1642.291782
 20
1019.807289
 11
1644.739823
 21
1027.600160
  0
LINE
  8
1
 62
7
  6
CONTINUOUS
 10
1687.188284
 20
1015.256968
 11
1688.580424
 21
1023.156856
  0
LINE
  8
1
 62
7
  6
CONTINUOUS
 10
1663.982614
 20
1017.608894
 11
1665.732472
 21
1025.472527
  0
LINE
  8
1
 62
7
  6
CONTINUOUS
 10
1545.054722
 20
1036.024649
 11
1557.054722
 21
1044.967665
  0
LINE
  8
1
 62
7
  6
CONTINUOUS
 10
1608.276360
 20
670.596579
 11
1609.778173
 21
678.789773
  0
LINE
  8
1
 62
7
  6
CONTINUOUS
 10
1630.596363
 20
672.858742
 11
1631.163046
 21
680.957159
  0
LINE
  8
1
 62
7
  6
CONTINUOUS
 10
1653.819286
 20
675.212416
 11
1654.521695
 21
683.324590
  0
LINE
  8
1
 62
7
  6
CONTINUOUS
 10
1715.054722
 20
968.446181
 11
1715.054722
 21
908.446181
  0
LINE
  8
1
 62
7
  6
CONTINUOUS
 10
1709.920762
 20
870.825104
 11
1710.044078
 21
905.456863
  0
LINE
  8
1
 62
7
  6
CONTINUOUS
 10
1715.054722
 20
908.446181
 11
1713.044059
 21
908.446181
  0
ARC
  8
1
 62
7
  6
CONTINUOUS
 10
1713.044059
 20
905.446181
 40
3.000000
 50
90.000000
 51
179.795983
  0
ARC
  8
1
 62
7
  6
CONTINUOUS
 10
1715.004609
 20
907.446306
 40
10.000000
 50
119.669005
 51
174.261553
  0
LINE
  8
1
 62
7
  6
CONTINUOUS
 10
1710.054722
 20
916.135300
 11
1715.054722
 21
917.446181
  0
LINE
  8
1
 62
7
  6
CONTINUOUS
 10
1705.054722
 20
908.446181
 11
1705.054722
 21
879.446181
  0
ARC
  8
1
 62
7
  6
CONTINUOUS
 10
1715.054722
 20
969.446181
 40
10.000000
 50
-174.260830
 51
-120.000000
  0
LINE
  8
1
 62
7
  6
CONTINUOUS
 10
1710.054722
 20
960.785927
 11
1715.054722
 21
959.446181
  0
LINE
  8
1
 62
7
  6
CONTINUOUS
 10
1710.054722
 20
971.446181
 11
1710.054722
 21
1003.446181
  0
LINE
  8
1
 62
7
  6
CONTINUOUS
 10
1715.054722
 20
968.446181
 11
1713.054722
 21
968.446181
  0
ARC
  8
1
 62
7
  6
CONTINUOUS
 10
1713.054722
 20
971.446181
 40
3.000000
 50
180.000000
 51
-90.000000
  0
LINE
  8
1
 62
7
  6
CONTINUOUS
 10
1704.902759
 20
997.275861
 11
1705.104848
 21
968.446181
  0
LINE
  8
1
 62
7
  6
CONTINUOUS
 10
1710.054722
 20
1010.877739
 11
1704.198836
 21
1003.435187
  0
LINE
  8
1
 62
7
  6
CONTINUOUS
 10
1710.054722
 20
994.533994
 11
1705.054722
 21
988.048382
  0
LINE
  8
1
 62
7
  6
CONTINUOUS
 10
1710.054722
 20
983.465215
 11
1705.054722
 21
978.446181
  0
LINE
  8
1
 62
7
  6
CONTINUOUS
 10
1710.054722
 20
975.423055
 11
1705.091807
 21
970.306597
  0
LINE
  8
1
 62
7
  6
CONTINUOUS
 10
1710.054722
 20
916.135300
 11
1710.054722
 21
960.785927
  0
LINE
  8
1
 62
7
  6
CONTINUOUS
 10
1707.054722
 20
963.446181
 11
1707.054722
 21
913.512549
  0
LINE
  8
1
 62
7
  6
CONTINUOUS
 10
1705.054722
 20
874.939295
 11
1710.054722
 21
878.311814
  0
LINE
  8
1
 62
7
  6
CONTINUOUS
 10
1705.054722
 20
891.542464
 11
1710.005308
 21
894.568908
  0
LINE
  8
1
 62
7
  6
CONTINUOUS
 10
1705.054722
 20
901.141171
 11
1710.054722
 21
904.686639
  0
DIMENSION
  8
1
 62
7
  6
CONTINUOUS
  2
*D26
 10
1740.162494
 20
917.446181
 11
1740.162494
 21
938.446181
 70
     0
  1
42
 13
1725.054722
 23
917.446181
 14
1725.054722
 24
959.446181
 50
90.000000
  0
DIMENSION
  8
1
 62
7
  6
CONTINUOUS
  2
*D27
 10
1759.367502
 20
908.446181
 11
1759.367502
 21
938.446181
 70
     0
  1
60
 13
1725.054722
 23
908.446181
 14
1725.054722
 24
968.446181
 50
90.000000
  0
DIMENSION
  8
1
 62
7
  6
CONTINUOUS
  2
*D28
 10
1501.627095
 20
1053.446181
 11
1501.627095
 21
1041.554289
 70
     0
  1
25
 13
1535.054722
 23
1053.446181
 14
1535.054722
 24
1029.662397
 50
-90.000000
  0
DIMENSION
  8
1
 62
7
  6
CONTINUOUS
  2
*D29
 10
1501.627095
 20
1029.662397
 11
1501.627095
 21
850.946181
 70
     0
  1
355
 13
1501.627095
 23
1029.662397
 14
1535.054722
 24
672.229964
 50
-90.000000
  0
DIMENSION
  8
1
 62
7
  6
CONTINUOUS
  2
*D30
 10
1501.627095
 20
672.229964
 11
1501.627095
 21
660.338073
 70
     0
  1
25
 13
1501.627095
 23
672.229964
 14
1535.054722
 24
648.446181
 50
-90.000000
  0
LINE
  8
1
 62
7
  6
CONTINUOUS
 10
1694.700306
 20
938.446181
 11
1715.054722
 21
938.446181
  0
ENDSEC
  0
EOF
