  0
SECTION
  2
HEADER
  9
$ACADVER
  1
AC1003
  9
$INSBASE
 10
0.000000
 20
0.000000
  9
$EXTMIN
 10
0.000000
 20
0.000000
  9
$EXTMAX
 10
1820.000000
 20
1285.000000
  9
$LIMMIN
 10
0.000000
 20
0.000000
  9
$LIMMAX
 10
1820.000000
 20
1285.000000
  9
$VIEWCTR
 10
910.000000
 20
642.500000
  9
$VIEWSIZE
 40
1285.000000
  9
$PEXTMIN
 10
0.000000
 20
0.000000
 30
0.000000
  9
$PEXTMAX
 10
364.000000
 20
257.000000
 30
0.000000
  9
$SNAPMODE
 70
     0
  9
$SNAPUNIT
 10
1.000000
 20
1.000000
  9
$SNAPBASE
 10
0.000000
 20
0.000000
  9
$SNAPANG
 50
0.000000
  9
$SNAPISOPAIR
 70
     0
  9
$SNAPSTYLE
 70
     0
  9
$GRIDMODE
 70
     0
  9
$GRIDUNIT
 10
0.000000
 20
0.000000
  9
$ORTHOMODE
 70
     0
  9
$REGENMODE
 70
     1
  9
$FILLMODE
 70
     1
  9
$QTEXTMODE
 70
     0
  9
$DRAGMODE
 70
     2
  9
$LTSCALE
 40
1.250000
  9
$OSMODE
 70
     0
  9
$ATTMODE
 70
     1
  9
$TEXTSIZE
 40
0.200000
  9
$TRACEWID
 40
0.050000
  9
$TEXTSTYLE
  7
STANDARD
  9
$CLAYER
  8
0
  9
$CELTYPE
  6
BYLAYER
  9
$CECOLOR
 62
   256
  9
$DIMSCALE
 40
1.000000
  9
$DIMASZ
 40
1.000000
  9
$DIMEXO
 40
0.000000
  9
$DIMDLI
 40
0.500000
  9
$DIMRND
 40
0.000000
  9
$DIMDLE
 40
0.000000
  9
$DIMEXE
 40
0.000000
  9
$DIMTP
 40
0.000000
  9
$DIMTM
 40
0.000000
  9
$DIMTXT
 40
0.180000
  9
$DIMCEN
 40
0.000000
  9
$DIMTSZ
 40
0.000000
  9
$DIMTOL
 70
     0
  9
$DIMLIM
 70
     0
  9
$DIMTIH
 70
     1
  9
$DIMTOH
 70
     1
  9
$DIMSE1
 70
     0
  9
$DIMSE2
 70
     0
  9
$DIMTAD
 70
     0
  9
$DIMZIN
 70
     0
  9
$DIMBLK
  1

  9
$DIMASO
 70
     0
  9
$DIMSHO
 70
     0
  9
$DIMPOST
  1

  9
$DIMAPOST
  1

  9
$DIMALT
 70
     0
  9
$DIMALTD
 70
     0
  9
$DIMALTF
 40
25.400000
  9
$DIMLFAC
 40
1.000000
  9
$DIMTOFL
 70
     0
  9
$DIMTVP
 40
0.000000
  9
$DIMTIX
 70
     0
  9
$DIMSOXD
 70
     0
  9
$DIMSAH
 70
     0
  9
$DIMBLKL
  1

  9
$DIMBLKR
  1

  9
$LUNITS
 70
     2
  9
$LUPREC
 70
     2
  9
$AXISMODE
 70
     0
  9
$AXISUNIT
 10
1.000000
 20
1.000000
  9
$SKETCHINC
 40
0.000000
  9
$FILLETRAD
 40
0.000000
  9
$AUNITS
 70
     1
  9
$AUPREC
 70
     2
  9
$MENU
  1
ACAD
  9
$ELEVATION
 40
0.000000
  9
$THICKNESS
 40
0.000000
  9
$VIEWDIR
 10
0.000000
 20
0.000000
 30
1.000000
  9
$LIMCHECK
 70
     1
  9
$BLIPMODE
 70
     1
  9
$CHAMFERA
 40
0.000000
  9
$CHAMFERB
 40
0.000000
  9
$FASTZOOM
 70
     1
  9
$SKPOLY
 70
     0
  9
$TDCREATE
 40
0.000000
  9
$TDUPDATE
 40
0.000000
  9
$TDINDWG
 40
0.000000
  9
$TDUSRTIMER
 40
0.000000
  9
$USRTIMER
 70
     1
  9
$ANGBASE
 50
0.000000
  9
$ANGDIR
 70
     0
  9
$PDMODE
 70
     0
  9
$PDSIZE
 40
0.000000
  9
$PLINEWID
 40
0.000000
  9
$COORDS
 70
     2
  9
$USERI1
 70
     0
  9
$USERI2
 70
     0
  9
$USERI3
 70
     0
  9
$USERI4
 70
     0
  9
$USERI5
 70
     0
  9
$USERR1
 40
0.000000
  9
$USERR2
 40
0.000000
  9
$USERR3
 40
0.000000
  9
$USERR4
 40
0.000000
  9
$USERR5
 40
0.000000
  0
ENDSEC
  0
SECTION
  2
TABLES
  0
TABLE
  2
LTYPE
 70
     5
  0
LTYPE
  2
CONTINUOUS
 70
    64
  3
Solid line
 72
    65
 73
     0
 40
0.0
  0
LTYPE
  2
HIDDEN
 70
    64
  3
------------------------
 72
    65
 73
     2
 40
12.6
 49
8.4
 49
-4.2
  0
LTYPE
  2
DOT
 70
    64
  3
････････････････････････
 72
    65
 73
     2
 40
8.0
 49
6.0
 49
-2.0
  0
LTYPE
  2
DASHDOT
 70
    64
  3
--･--･--･--･--･--･--･--
 72
    65
 73
     4
 40
50.5
 49
30.0
 49
-9.0
 49
2.5
 49
-9.0
  0
LTYPE
  2
DIVIDE
 70
    64
  3
--･･--･･--･･--･･--･･--
 72
    65
 73
     6
 40
58.0
 49
30.0
 49
-9.0
 49
2.5
 49
-5.0
 49
2.5
 49
-9.0
  0
ENDTAB
  0
TABLE
  2
LAYER
 70
1
  0
LAYER
  2
1
 70
64
 62
7
  6
CONTINUOUS
  0
ENDTAB
  0
TABLE
  2
STYLE
 70
     2
  0
STYLE
  2
STANDARD
 70
    64
 40
0.0
 41
1.0
 50
0.0
 71
     0
 42
0.2
  3
TXT
  4

  0
STYLE
  2
KANJI
 70
    64
 40
0.0
 41
1.0
 50
0.0
 71
     0
 42
0.2
  3
TXT
  4
BIGFONT
  0
ENDTAB
  0
TABLE
  2
VIEW
 70
     0
  0
ENDTAB
  0
ENDSEC
  0
SECTION
  2
BLOCKS
  0
BLOCK
  8
1
 62
7
  6
CONTINUOUS
  2
*D1
 70
    65
 10
0.0
 20
0.0
  0
LINE
  8
1
 62
7
  6
CONTINUOUS
 10
786.725694
 20
914.702408
 11
841.725694
 21
914.702408
  0
LINE
  8
1
 62
7
  6
CONTINUOUS
 10
786.725694
 20
904.702408
 11
786.725694
 21
999.218738
  0
LINE
  8
1
 62
7
  6
CONTINUOUS
 10
841.725694
 20
904.702408
 11
841.725694
 21
999.218738
  0
CIRCLE
  8
1
 62
7
  6
CONTINUOUS
 10
786.725694
 20
914.702408
 40
1.500000
  0
CIRCLE
  8
1
 62
7
  6
CONTINUOUS
 10
786.725694
 20
914.702408
 40
0.750000
  0
CIRCLE
  8
1
 62
7
  6
CONTINUOUS
 10
841.725694
 20
914.702408
 40
1.500000
  0
CIRCLE
  8
1
 62
7
  6
CONTINUOUS
 10
841.725694
 20
914.702408
 40
0.750000
  0
TEXT
  8
1
 62
7
  6
CONTINUOUS
 10
804.225694
 20
914.702408
 40
20.000000
 41
0.500000
  1
60
  7
KANJI
 50
0.000000
 51
30.000000
  0
ENDBLK
  0
BLOCK
  8
1
 62
7
  6
CONTINUOUS
  2
*D2
 70
    65
 10
0.0
 20
0.0
  0
LINE
  8
1
 62
7
  6
CONTINUOUS
 10
791.725694
 20
938.401296
 11
836.725694
 21
938.401296
  0
LINE
  8
1
 62
7
  6
CONTINUOUS
 10
791.725694
 20
928.401296
 11
791.725694
 21
999.218738
  0
LINE
  8
1
 62
7
  6
CONTINUOUS
 10
836.725694
 20
928.401296
 11
836.725694
 21
999.218738
  0
CIRCLE
  8
1
 62
7
  6
CONTINUOUS
 10
791.725694
 20
938.401296
 40
1.500000
  0
CIRCLE
  8
1
 62
7
  6
CONTINUOUS
 10
791.725694
 20
938.401296
 40
0.750000
  0
CIRCLE
  8
1
 62
7
  6
CONTINUOUS
 10
836.725694
 20
938.401296
 40
1.500000
  0
CIRCLE
  8
1
 62
7
  6
CONTINUOUS
 10
836.725694
 20
938.401296
 40
0.750000
  0
TEXT
  8
1
 62
7
  6
CONTINUOUS
 10
804.225694
 20
938.401296
 40
20.000000
 41
0.500000
  1
44
  7
KANJI
 50
0.000000
 51
30.000000
  0
ENDBLK
  0
BLOCK
  8
1
 62
7
  6
CONTINUOUS
  2
*D3
 70
    65
 10
0.0
 20
0.0
  0
LINE
  8
1
 62
7
  6
CONTINUOUS
 10
564.225694
 20
1209.149306
 11
1064.225694
 21
1209.149306
  0
LINE
  8
1
 62
7
  6
CONTINUOUS
 10
564.225694
 20
1219.149306
 11
564.225694
 21
1094.218750
  0
LINE
  8
1
 62
7
  6
CONTINUOUS
 10
1064.225694
 20
1219.149306
 11
1064.225694
 21
1094.218750
  0
CIRCLE
  8
1
 62
7
  6
CONTINUOUS
 10
564.225694
 20
1209.149306
 40
1.500000
  0
CIRCLE
  8
1
 62
7
  6
CONTINUOUS
 10
564.225694
 20
1209.149306
 40
0.750000
  0
CIRCLE
  8
1
 62
7
  6
CONTINUOUS
 10
1064.225694
 20
1209.149306
 40
1.500000
  0
CIRCLE
  8
1
 62
7
  6
CONTINUOUS
 10
1064.225694
 20
1209.149306
 40
0.750000
  0
TEXT
  8
1
 62
7
  6
CONTINUOUS
 10
799.225694
 20
1209.149306
 40
20.000000
 41
0.500000
  1
500
  7
KANJI
 50
0.000000
 51
30.000000
  0
ENDBLK
  0
BLOCK
  8
1
 62
7
  6
CONTINUOUS
  2
*D4
 70
    65
 10
0.0
 20
0.0
  0
LINE
  8
1
 62
7
  6
CONTINUOUS
 10
564.225694
 20
1173.454861
 11
589.225694
 21
1173.454861
  0
LINE
  8
1
 62
7
  6
CONTINUOUS
 10
564.225694
 20
1183.454861
 11
564.225694
 21
1094.218750
  0
LINE
  8
1
 62
7
  6
CONTINUOUS
 10
589.225694
 20
1183.454861
 11
589.225694
 21
1094.218750
  0
CIRCLE
  8
1
 62
7
  6
CONTINUOUS
 10
564.225694
 20
1173.454861
 40
1.500000
  0
CIRCLE
  8
1
 62
7
  6
CONTINUOUS
 10
564.225694
 20
1173.454861
 40
0.750000
  0
CIRCLE
  8
1
 62
7
  6
CONTINUOUS
 10
589.225694
 20
1173.454861
 40
1.500000
  0
CIRCLE
  8
1
 62
7
  6
CONTINUOUS
 10
589.225694
 20
1173.454861
 40
0.750000
  0
TEXT
  8
1
 62
7
  6
CONTINUOUS
 10
566.725694
 20
1173.454861
 40
20.000000
 41
0.500000
  1
25
  7
KANJI
 50
0.000000
 51
30.000000
  0
ENDBLK
  0
BLOCK
  8
1
 62
7
  6
CONTINUOUS
  2
*D5
 70
    65
 10
0.0
 20
0.0
  0
LINE
  8
1
 62
7
  6
CONTINUOUS
 10
589.225694
 20
1173.454861
 11
1039.225694
 21
1173.454861
  0
LINE
  8
1
 62
7
  6
CONTINUOUS
 10
1039.225694
 20
1183.454861
 11
1039.225694
 21
1094.218750
  0
CIRCLE
  8
1
 62
7
  6
CONTINUOUS
 10
1039.225694
 20
1173.454861
 40
1.500000
  0
CIRCLE
  8
1
 62
7
  6
CONTINUOUS
 10
1039.225694
 20
1173.454861
 40
0.750000
  0
TEXT
  8
1
 62
7
  6
CONTINUOUS
 10
799.225694
 20
1173.454861
 40
20.000000
 41
0.500000
  1
450
  7
KANJI
 50
0.000000
 51
30.000000
  0
ENDBLK
  0
BLOCK
  8
1
 62
7
  6
CONTINUOUS
  2
*D6
 70
    65
 10
0.0
 20
0.0
  0
LINE
  8
1
 62
7
  6
CONTINUOUS
 10
1039.225694
 20
1173.454861
 11
1064.225694
 21
1173.454861
  0
LINE
  8
1
 62
7
  6
CONTINUOUS
 10
1064.225694
 20
1183.454861
 11
1064.225694
 21
1094.218750
  0
CIRCLE
  8
1
 62
7
  6
CONTINUOUS
 10
1064.225694
 20
1173.454861
 40
1.500000
  0
CIRCLE
  8
1
 62
7
  6
CONTINUOUS
 10
1064.225694
 20
1173.454861
 40
0.750000
  0
TEXT
  8
1
 62
7
  6
CONTINUOUS
 10
1041.725694
 20
1173.454861
 40
20.000000
 41
0.500000
  1
25
  7
KANJI
 50
0.000000
 51
30.000000
  0
ENDBLK
  0
BLOCK
  8
1
 62
7
  6
CONTINUOUS
  2
*D7
 70
    65
 10
0.0
 20
0.0
  0
LINE
  8
1
 62
7
  6
CONTINUOUS
 10
423.871528
 20
1084.218750
 11
423.871528
 21
643.218750
  0
LINE
  8
1
 62
7
  6
CONTINUOUS
 10
413.871528
 20
1084.218750
 11
554.225694
 21
1084.218750
  0
LINE
  8
1
 62
7
  6
CONTINUOUS
 10
413.871528
 20
643.218750
 11
554.225694
 21
643.218750
  0
CIRCLE
  8
1
 62
7
  6
CONTINUOUS
 10
423.871528
 20
1084.218750
 40
1.500000
  0
CIRCLE
  8
1
 62
7
  6
CONTINUOUS
 10
423.871528
 20
1084.218750
 40
0.750000
  0
CIRCLE
  8
1
 62
7
  6
CONTINUOUS
 10
423.871528
 20
643.218750
 40
1.500000
  0
CIRCLE
  8
1
 62
7
  6
CONTINUOUS
 10
423.871528
 20
643.218750
 40
0.750000
  0
TEXT
  8
1
 62
7
  6
CONTINUOUS
 10
423.871528
 20
848.718750
 40
20.000000
 41
0.500000
  1
441
  7
KANJI
 50
90.000000
 51
30.000000
  0
ENDBLK
  0
BLOCK
  8
1
 62
7
  6
CONTINUOUS
  2
*D8
 70
    65
 10
0.0
 20
0.0
  0
LINE
  8
1
 62
7
  6
CONTINUOUS
 10
459.565972
 20
1084.218750
 11
459.565972
 21
1059.218750
  0
LINE
  8
1
 62
7
  6
CONTINUOUS
 10
449.565972
 20
1084.218750
 11
554.225694
 21
1084.218750
  0
LINE
  8
1
 62
7
  6
CONTINUOUS
 10
449.565972
 20
1059.218750
 11
554.225694
 21
1059.218750
  0
CIRCLE
  8
1
 62
7
  6
CONTINUOUS
 10
459.565972
 20
1084.218750
 40
1.500000
  0
CIRCLE
  8
1
 62
7
  6
CONTINUOUS
 10
459.565972
 20
1084.218750
 40
0.750000
  0
CIRCLE
  8
1
 62
7
  6
CONTINUOUS
 10
459.565972
 20
1059.218750
 40
1.500000
  0
CIRCLE
  8
1
 62
7
  6
CONTINUOUS
 10
459.565972
 20
1059.218750
 40
0.750000
  0
TEXT
  8
1
 62
7
  6
CONTINUOUS
 10
459.565972
 20
1061.718750
 40
20.000000
 41
0.500000
  1
25
  7
KANJI
 50
90.000000
 51
30.000000
  0
ENDBLK
  0
BLOCK
  8
1
 62
7
  6
CONTINUOUS
  2
*D9
 70
    65
 10
0.0
 20
0.0
  0
LINE
  8
1
 62
7
  6
CONTINUOUS
 10
459.565972
 20
1059.218750
 11
459.565972
 21
668.218750
  0
LINE
  8
1
 62
7
  6
CONTINUOUS
 10
449.565972
 20
668.218750
 11
554.225694
 21
668.218750
  0
CIRCLE
  8
1
 62
7
  6
CONTINUOUS
 10
459.565972
 20
668.218750
 40
1.500000
  0
CIRCLE
  8
1
 62
7
  6
CONTINUOUS
 10
459.565972
 20
668.218750
 40
0.750000
  0
TEXT
  8
1
 62
7
  6
CONTINUOUS
 10
459.565972
 20
848.718750
 40
20.000000
 41
0.500000
  1
391
  7
KANJI
 50
90.000000
 51
30.000000
  0
ENDBLK
  0
BLOCK
  8
1
 62
7
  6
CONTINUOUS
  2
*D10
 70
    65
 10
0.0
 20
0.0
  0
LINE
  8
1
 62
7
  6
CONTINUOUS
 10
459.565972
 20
668.218750
 11
459.565972
 21
643.218750
  0
LINE
  8
1
 62
7
  6
CONTINUOUS
 10
449.565972
 20
643.218750
 11
554.225694
 21
643.218750
  0
CIRCLE
  8
1
 62
7
  6
CONTINUOUS
 10
459.565972
 20
643.218750
 40
1.500000
  0
CIRCLE
  8
1
 62
7
  6
CONTINUOUS
 10
459.565972
 20
643.218750
 40
0.750000
  0
TEXT
  8
1
 62
7
  6
CONTINUOUS
 10
459.565972
 20
645.718750
 40
20.000000
 41
0.500000
  1
25
  7
KANJI
 50
90.000000
 51
30.000000
  0
ENDBLK
  0
BLOCK
  8
1
 62
7
  6
CONTINUOUS
  2
*D11
 70
    65
 10
0.0
 20
0.0
  0
LINE
  8
1
 62
7
  6
CONTINUOUS
 10
493.029514
 20
1059.218750
 11
493.029514
 21
1009.218738
  0
LINE
  8
1
 62
7
  6
CONTINUOUS
 10
483.029514
 20
1059.218750
 11
554.225694
 21
1059.218750
  0
LINE
  8
1
 62
7
  6
CONTINUOUS
 10
483.029514
 20
1009.218738
 11
554.225694
 21
1009.218738
  0
CIRCLE
  8
1
 62
7
  6
CONTINUOUS
 10
493.029514
 20
1059.218750
 40
1.500000
  0
CIRCLE
  8
1
 62
7
  6
CONTINUOUS
 10
493.029514
 20
1059.218750
 40
0.750000
  0
CIRCLE
  8
1
 62
7
  6
CONTINUOUS
 10
493.029514
 20
1009.218738
 40
1.500000
  0
CIRCLE
  8
1
 62
7
  6
CONTINUOUS
 10
493.029514
 20
1009.218738
 40
0.750000
  0
TEXT
  8
1
 62
7
  6
CONTINUOUS
 10
493.029514
 20
1024.218744
 40
20.000000
 41
0.500000
  1
50
  7
KANJI
 50
90.000000
 51
30.000000
  0
ENDBLK
  0
BLOCK
  8
1
 62
7
  6
CONTINUOUS
  2
*D12
 70
    65
 10
0.0
 20
0.0
  0
LINE
  8
1
 62
7
  6
CONTINUOUS
 10
493.029514
 20
1009.218738
 11
493.029514
 21
668.218750
  0
LINE
  8
1
 62
7
  6
CONTINUOUS
 10
483.029514
 20
668.218750
 11
554.225694
 21
668.218750
  0
CIRCLE
  8
1
 62
7
  6
CONTINUOUS
 10
493.029514
 20
668.218750
 40
1.500000
  0
CIRCLE
  8
1
 62
7
  6
CONTINUOUS
 10
493.029514
 20
668.218750
 40
0.750000
  0
TEXT
  8
1
 62
7
  6
CONTINUOUS
 10
493.029514
 20
823.718744
 40
20.000000
 41
0.500000
  1
341
  7
KANJI
 50
90.000000
 51
30.000000
  0
ENDBLK
  0
BLOCK
  8
1
 62
7
  6
CONTINUOUS
  2
*D13
 70
    65
 10
0.0
 20
0.0
  0
LINE
  8
1
 62
7
  6
CONTINUOUS
 10
784.225693
 20
254.998262
 11
844.225693
 21
254.998262
  0
LINE
  8
1
 62
7
  6
CONTINUOUS
 10
784.225693
 20
244.998262
 11
784.225693
 21
304.875000
  0
LINE
  8
1
 62
7
  6
CONTINUOUS
 10
844.225693
 20
244.998262
 11
844.225693
 21
304.875000
  0
CIRCLE
  8
1
 62
7
  6
CONTINUOUS
 10
784.225693
 20
254.998262
 40
1.500000
  0
CIRCLE
  8
1
 62
7
  6
CONTINUOUS
 10
784.225693
 20
254.998262
 40
0.750000
  0
CIRCLE
  8
1
 62
7
  6
CONTINUOUS
 10
844.225693
 20
254.998262
 40
1.500000
  0
CIRCLE
  8
1
 62
7
  6
CONTINUOUS
 10
844.225693
 20
254.998262
 40
0.750000
  0
TEXT
  8
1
 62
7
  6
CONTINUOUS
 10
804.225693
 20
254.998262
 40
20.000000
 41
0.500000
  1
60
  7
KANJI
 50
0.000000
 51
30.000000
  0
ENDBLK
  0
BLOCK
  8
1
 62
7
  6
CONTINUOUS
  2
*D14
 70
    65
 10
0.0
 20
0.0
  0
LINE
  8
1
 62
7
  6
CONTINUOUS
 10
791.725694
 20
286.579649
 11
836.725694
 21
286.579649
  0
LINE
  8
1
 62
7
  6
CONTINUOUS
 10
791.725694
 20
276.579649
 11
791.725694
 21
304.875000
  0
LINE
  8
1
 62
7
  6
CONTINUOUS
 10
836.725694
 20
276.579649
 11
836.725694
 21
304.875000
  0
CIRCLE
  8
1
 62
7
  6
CONTINUOUS
 10
791.725694
 20
286.579649
 40
1.500000
  0
CIRCLE
  8
1
 62
7
  6
CONTINUOUS
 10
791.725694
 20
286.579649
 40
0.750000
  0
CIRCLE
  8
1
 62
7
  6
CONTINUOUS
 10
836.725694
 20
286.579649
 40
1.500000
  0
CIRCLE
  8
1
 62
7
  6
CONTINUOUS
 10
836.725694
 20
286.579649
 40
0.750000
  0
TEXT
  8
1
 62
7
  6
CONTINUOUS
 10
804.225694
 20
286.579649
 40
20.000000
 41
0.500000
  1
44
  7
KANJI
 50
0.000000
 51
30.000000
  0
ENDBLK
  0
BLOCK
  8
1
 62
7
  6
CONTINUOUS
  2
*D15
 70
    65
 10
0.0
 20
0.0
  0
LINE
  8
1
 62
7
  6
CONTINUOUS
 10
464.246948
 20
481.875000
 11
464.246948
 21
314.875000
  0
LINE
  8
1
 62
7
  6
CONTINUOUS
 10
454.246948
 20
481.875000
 11
554.225694
 21
481.875000
  0
LINE
  8
1
 62
7
  6
CONTINUOUS
 10
454.246948
 20
314.875000
 11
554.225694
 21
314.875000
  0
CIRCLE
  8
1
 62
7
  6
CONTINUOUS
 10
464.246948
 20
481.875000
 40
1.500000
  0
CIRCLE
  8
1
 62
7
  6
CONTINUOUS
 10
464.246948
 20
481.875000
 40
0.750000
  0
CIRCLE
  8
1
 62
7
  6
CONTINUOUS
 10
464.246948
 20
314.875000
 40
1.500000
  0
CIRCLE
  8
1
 62
7
  6
CONTINUOUS
 10
464.246948
 20
314.875000
 40
0.750000
  0
TEXT
  8
1
 62
7
  6
CONTINUOUS
 10
464.246948
 20
383.375000
 40
20.000000
 41
0.500000
  1
167
  7
KANJI
 50
90.000000
 51
30.000000
  0
ENDBLK
  0
BLOCK
  8
1
 62
7
  6
CONTINUOUS
  2
*D16
 70
    65
 10
0.0
 20
0.0
  0
LINE
  8
1
 62
7
  6
CONTINUOUS
 10
484.328637
 20
481.875000
 11
484.328637
 21
324.875000
  0
LINE
  8
1
 62
7
  6
CONTINUOUS
 10
474.328637
 20
481.875000
 11
554.225694
 21
481.875000
  0
LINE
  8
1
 62
7
  6
CONTINUOUS
 10
474.328637
 20
324.875000
 11
554.225694
 21
324.875000
  0
CIRCLE
  8
1
 62
7
  6
CONTINUOUS
 10
484.328637
 20
481.875000
 40
1.500000
  0
CIRCLE
  8
1
 62
7
  6
CONTINUOUS
 10
484.328637
 20
481.875000
 40
0.750000
  0
CIRCLE
  8
1
 62
7
  6
CONTINUOUS
 10
484.328637
 20
324.875000
 40
1.500000
  0
CIRCLE
  8
1
 62
7
  6
CONTINUOUS
 10
484.328637
 20
324.875000
 40
0.750000
  0
TEXT
  8
1
 62
7
  6
CONTINUOUS
 10
484.328637
 20
388.375000
 40
20.000000
 41
0.500000
  1
157
  7
KANJI
 50
90.000000
 51
30.000000
  0
ENDBLK
  0
BLOCK
  8
1
 62
7
  6
CONTINUOUS
  2
*D17
 70
    65
 10
0.0
 20
0.0
  0
LINE
  8
1
 62
7
  6
CONTINUOUS
 10
509.895261
 20
481.875000
 11
509.895261
 21
444.940165
  0
LINE
  8
1
 62
7
  6
CONTINUOUS
 10
499.895261
 20
481.875000
 11
554.225694
 21
481.875000
  0
LINE
  8
1
 62
7
  6
CONTINUOUS
 10
499.895261
 20
469.875000
 11
554.225694
 21
469.875000
  0
CIRCLE
  8
1
 62
7
  6
CONTINUOUS
 10
509.895261
 20
481.875000
 40
1.500000
  0
CIRCLE
  8
1
 62
7
  6
CONTINUOUS
 10
509.895261
 20
481.875000
 40
0.750000
  0
CIRCLE
  8
1
 62
7
  6
CONTINUOUS
 10
509.895261
 20
469.875000
 40
1.500000
  0
CIRCLE
  8
1
 62
7
  6
CONTINUOUS
 10
509.895261
 20
469.875000
 40
0.750000
  0
TEXT
  8
1
 62
7
  6
CONTINUOUS
 10
509.895261
 20
449.940165
 40
20.000000
 41
0.500000
  1
12
  7
KANJI
 50
90.000000
 51
30.000000
  0
ENDBLK
  0
BLOCK
  8
1
 62
7
  6
CONTINUOUS
  2
*D18
 70
    65
 10
0.0
 20
0.0
  0
LINE
  8
1
 62
7
  6
CONTINUOUS
 10
1310.067295
 20
1123.287712
 11
1332.067295
 21
1123.287712
  0
LINE
  8
1
 62
7
  6
CONTINUOUS
 10
1315.067295
 20
1133.287712
 11
1315.067295
 21
1094.218750
  0
LINE
  8
1
 62
7
  6
CONTINUOUS
 10
1327.067295
 20
1133.287712
 11
1327.067295
 21
1094.218750
  0
CIRCLE
  8
1
 62
7
  6
CONTINUOUS
 10
1315.067295
 20
1123.287712
 40
1.500000
  0
CIRCLE
  8
1
 62
7
  6
CONTINUOUS
 10
1315.067295
 20
1123.287712
 40
0.750000
  0
CIRCLE
  8
1
 62
7
  6
CONTINUOUS
 10
1327.067295
 20
1123.287712
 40
1.500000
  0
CIRCLE
  8
1
 62
7
  6
CONTINUOUS
 10
1327.067295
 20
1123.287712
 40
0.750000
  0
TEXT
  8
1
 62
7
  6
CONTINUOUS
 10
1311.067295
 20
1123.287712
 40
20.000000
 41
0.500000
  1
12
  7
KANJI
 50
0.000000
 51
30.000000
  0
ENDBLK
  0
BLOCK
  8
1
 62
7
  6
CONTINUOUS
  2
*D19
 70
    65
 10
0.0
 20
0.0
  0
LINE
  8
1
 62
7
  6
CONTINUOUS
 10
1581.339622
 20
1039.218738
 11
1581.339622
 21
979.218738
  0
LINE
  8
1
 62
7
  6
CONTINUOUS
 10
1591.339622
 20
1039.218738
 11
1492.067295
 21
1039.218738
  0
LINE
  8
1
 62
7
  6
CONTINUOUS
 10
1591.339622
 20
979.218738
 11
1492.067295
 21
979.218738
  0
CIRCLE
  8
1
 62
7
  6
CONTINUOUS
 10
1581.339622
 20
1039.218738
 40
1.500000
  0
CIRCLE
  8
1
 62
7
  6
CONTINUOUS
 10
1581.339622
 20
1039.218738
 40
0.750000
  0
CIRCLE
  8
1
 62
7
  6
CONTINUOUS
 10
1581.339622
 20
979.218738
 40
1.500000
  0
CIRCLE
  8
1
 62
7
  6
CONTINUOUS
 10
1581.339622
 20
979.218738
 40
0.750000
  0
TEXT
  8
1
 62
7
  6
CONTINUOUS
 10
1581.339622
 20
999.218738
 40
20.000000
 41
0.500000
  1
60
  7
KANJI
 50
90.000000
 51
30.000000
  0
ENDBLK
  0
BLOCK
  8
1
 62
7
  6
CONTINUOUS
  2
*D20
 70
    65
 10
0.0
 20
0.0
  0
LINE
  8
1
 62
7
  6
CONTINUOUS
 10
1456.589933
 20
976.718738
 11
1456.589933
 21
1041.718738
  0
LINE
  8
1
 62
7
  6
CONTINUOUS
 10
1446.589933
 20
976.718738
 11
1459.067295
 21
976.718738
  0
LINE
  8
1
 62
7
  6
CONTINUOUS
 10
1446.589933
 20
1041.718738
 11
1459.067295
 21
1041.718738
  0
CIRCLE
  8
1
 62
7
  6
CONTINUOUS
 10
1456.589933
 20
976.718738
 40
1.500000
  0
CIRCLE
  8
1
 62
7
  6
CONTINUOUS
 10
1456.589933
 20
976.718738
 40
0.750000
  0
CIRCLE
  8
1
 62
7
  6
CONTINUOUS
 10
1456.589933
 20
1041.718738
 40
1.500000
  0
CIRCLE
  8
1
 62
7
  6
CONTINUOUS
 10
1456.589933
 20
1041.718738
 40
0.750000
  0
TEXT
  8
1
 62
7
  6
CONTINUOUS
 10
1456.589933
 20
999.218738
 40
20.000000
 41
0.500000
  1
70
  7
KANJI
 50
90.000000
 51
30.000000
  0
ENDBLK
  0
BLOCK
  8
1
 62
7
  6
CONTINUOUS
  2
*D21
 70
    65
 10
0.0
 20
0.0
  0
LINE
  8
1
 62
7
  6
CONTINUOUS
 10
1547.652123
 20
986.718738
 11
1547.652123
 21
1031.718738
  0
LINE
  8
1
 62
7
  6
CONTINUOUS
 10
1557.652123
 20
986.718738
 11
1492.067295
 21
986.718738
  0
LINE
  8
1
 62
7
  6
CONTINUOUS
 10
1557.652123
 20
1031.718738
 11
1492.067295
 21
1031.718738
  0
CIRCLE
  8
1
 62
7
  6
CONTINUOUS
 10
1547.652123
 20
986.718738
 40
1.500000
  0
CIRCLE
  8
1
 62
7
  6
CONTINUOUS
 10
1547.652123
 20
986.718738
 40
0.750000
  0
CIRCLE
  8
1
 62
7
  6
CONTINUOUS
 10
1547.652123
 20
1031.718738
 40
1.500000
  0
CIRCLE
  8
1
 62
7
  6
CONTINUOUS
 10
1547.652123
 20
1031.718738
 40
0.750000
  0
TEXT
  8
1
 62
7
  6
CONTINUOUS
 10
1547.652123
 20
999.218738
 40
20.000000
 41
0.500000
  1
44
  7
KANJI
 50
90.000000
 51
30.000000
  0
ENDBLK
  0
BLOCK
  8
1
 62
7
  6
CONTINUOUS
  2
*D22
 70
    65
 10
0.0
 20
0.0
  0
LINE
  8
1
 62
7
  6
CONTINUOUS
 10
1315.067295
 20
1209.149306
 11
1482.067295
 21
1209.149306
  0
LINE
  8
1
 62
7
  6
CONTINUOUS
 10
1315.067295
 20
1219.149306
 11
1315.067295
 21
1094.218750
  0
LINE
  8
1
 62
7
  6
CONTINUOUS
 10
1482.067295
 20
1219.149306
 11
1482.067295
 21
1094.218750
  0
CIRCLE
  8
1
 62
7
  6
CONTINUOUS
 10
1315.067295
 20
1209.149306
 40
1.500000
  0
CIRCLE
  8
1
 62
7
  6
CONTINUOUS
 10
1315.067295
 20
1209.149306
 40
0.750000
  0
CIRCLE
  8
1
 62
7
  6
CONTINUOUS
 10
1482.067295
 20
1209.149306
 40
1.500000
  0
CIRCLE
  8
1
 62
7
  6
CONTINUOUS
 10
1482.067295
 20
1209.149306
 40
0.750000
  0
TEXT
  8
1
 62
7
  6
CONTINUOUS
 10
1383.567295
 20
1209.149306
 40
20.000000
 41
0.500000
  1
167
  7
KANJI
 50
0.000000
 51
30.000000
  0
ENDBLK
  0
BLOCK
  8
1
 62
7
  6
CONTINUOUS
  2
*D23
 70
    65
 10
0.0
 20
0.0
  0
LINE
  8
1
 62
7
  6
CONTINUOUS
 10
1315.067295
 20
1173.454861
 11
1469.067295
 21
1173.454861
  0
LINE
  8
1
 62
7
  6
CONTINUOUS
 10
1315.067295
 20
1183.454861
 11
1315.067295
 21
1094.218750
  0
LINE
  8
1
 62
7
  6
CONTINUOUS
 10
1469.067295
 20
1183.454861
 11
1469.067295
 21
1094.218750
  0
CIRCLE
  8
1
 62
7
  6
CONTINUOUS
 10
1315.067295
 20
1173.454861
 40
1.500000
  0
CIRCLE
  8
1
 62
7
  6
CONTINUOUS
 10
1315.067295
 20
1173.454861
 40
0.750000
  0
CIRCLE
  8
1
 62
7
  6
CONTINUOUS
 10
1469.067295
 20
1173.454861
 40
1.500000
  0
CIRCLE
  8
1
 62
7
  6
CONTINUOUS
 10
1469.067295
 20
1173.454861
 40
0.750000
  0
TEXT
  8
1
 62
7
  6
CONTINUOUS
 10
1377.067295
 20
1173.454861
 40
20.000000
 41
0.500000
  1
157
  7
KANJI
 50
0.000000
 51
30.000000
  0
ENDBLK
  0
BLOCK
  8
1
 62
7
  6
CONTINUOUS
  2
*D24
 70
    65
 10
0.0
 20
0.0
  0
LINE
  8
1
 62
7
  6
CONTINUOUS
 10
1221.921759
 20
1084.218750
 11
1221.921759
 21
643.218750
  0
LINE
  8
1
 62
7
  6
CONTINUOUS
 10
1211.921759
 20
1084.218750
 11
1305.067295
 21
1084.218750
  0
LINE
  8
1
 62
7
  6
CONTINUOUS
 10
1211.921759
 20
643.218750
 11
1305.067295
 21
643.218750
  0
CIRCLE
  8
1
 62
7
  6
CONTINUOUS
 10
1221.921759
 20
1084.218750
 40
1.500000
  0
CIRCLE
  8
1
 62
7
  6
CONTINUOUS
 10
1221.921759
 20
1084.218750
 40
0.750000
  0
CIRCLE
  8
1
 62
7
  6
CONTINUOUS
 10
1221.921759
 20
643.218750
 40
1.500000
  0
CIRCLE
  8
1
 62
7
  6
CONTINUOUS
 10
1221.921759
 20
643.218750
 40
0.750000
  0
TEXT
  8
1
 62
7
  6
CONTINUOUS
 10
1221.921759
 20
848.718750
 40
20.000000
 41
0.500000
  1
441
  7
KANJI
 50
90.000000
 51
30.000000
  0
ENDBLK
  0
BLOCK
  8
1
 62
7
  6
CONTINUOUS
  2
*D25
 70
    65
 10
0.0
 20
0.0
  0
LINE
  8
1
 62
7
  6
CONTINUOUS
 10
1243.731862
 20
1084.218750
 11
1243.731862
 21
1059.218750
  0
LINE
  8
1
 62
7
  6
CONTINUOUS
 10
1233.731862
 20
1084.218750
 11
1305.067295
 21
1084.218750
  0
LINE
  8
1
 62
7
  6
CONTINUOUS
 10
1233.731862
 20
1059.218750
 11
1305.067295
 21
1059.218750
  0
CIRCLE
  8
1
 62
7
  6
CONTINUOUS
 10
1243.731862
 20
1084.218750
 40
1.500000
  0
CIRCLE
  8
1
 62
7
  6
CONTINUOUS
 10
1243.731862
 20
1084.218750
 40
0.750000
  0
CIRCLE
  8
1
 62
7
  6
CONTINUOUS
 10
1243.731862
 20
1059.218750
 40
1.500000
  0
CIRCLE
  8
1
 62
7
  6
CONTINUOUS
 10
1243.731862
 20
1059.218750
 40
0.750000
  0
TEXT
  8
1
 62
7
  6
CONTINUOUS
 10
1243.731862
 20
1061.718750
 40
20.000000
 41
0.500000
  1
25
  7
KANJI
 50
90.000000
 51
30.000000
  0
ENDBLK
  0
BLOCK
  8
1
 62
7
  6
CONTINUOUS
  2
*D26
 70
    65
 10
0.0
 20
0.0
  0
LINE
  8
1
 62
7
  6
CONTINUOUS
 10
1243.731862
 20
1059.218750
 11
1243.731862
 21
668.538538
  0
LINE
  8
1
 62
7
  6
CONTINUOUS
 10
1233.731862
 20
668.538538
 11
1305.067295
 21
668.538538
  0
CIRCLE
  8
1
 62
7
  6
CONTINUOUS
 10
1243.731862
 20
668.538538
 40
1.500000
  0
CIRCLE
  8
1
 62
7
  6
CONTINUOUS
 10
1243.731862
 20
668.538538
 40
0.750000
  0
TEXT
  8
1
 62
7
  6
CONTINUOUS
 10
1243.731862
 20
848.878644
 40
20.000000
 41
0.500000
  1
391
  7
KANJI
 50
90.000000
 51
30.000000
  0
ENDBLK
  0
BLOCK
  8
1
 62
7
  6
CONTINUOUS
  2
*D27
 70
    65
 10
0.0
 20
0.0
  0
LINE
  8
1
 62
7
  6
CONTINUOUS
 10
1243.731862
 20
668.538538
 11
1243.731862
 21
643.218750
  0
LINE
  8
1
 62
7
  6
CONTINUOUS
 10
1233.731862
 20
643.218750
 11
1305.067295
 21
643.218750
  0
CIRCLE
  8
1
 62
7
  6
CONTINUOUS
 10
1243.731862
 20
643.218750
 40
1.500000
  0
CIRCLE
  8
1
 62
7
  6
CONTINUOUS
 10
1243.731862
 20
643.218750
 40
0.750000
  0
TEXT
  8
1
 62
7
  6
CONTINUOUS
 10
1243.731862
 20
645.878644
 40
20.000000
 41
0.500000
  1
25
  7
KANJI
 50
90.000000
 51
30.000000
  0
ENDBLK
  0
ENDSEC
  0
SECTION
  2
ENTITIES
  0
TEXT
  8
1
 62
7
  6
CONTINUOUS
 10
39.900000
 20
144.259375
 40
24.750000
 41
0.800000
  1
取引先：
  7
KANJI
 50
0.000000
 51
0.000000
  0
TEXT
  8
1
 62
7
  6
CONTINUOUS
 10
119.100000
 20
156.634375
 40
12.375000
 41
0.400000
  1

  7
KANJI
 50
0.000000
 51
0.000000
  0
TEXT
  8
1
 62
7
  6
CONTINUOUS
 10
119.100000
 20
144.259375
 40
12.375000
 41
0.400000
  1

  7
KANJI
 50
0.000000
 51
0.000000
  0
TEXT
  8
1
 62
7
  6
CONTINUOUS
 10
39.900000
 20
94.759375
 40
24.750000
 41
0.800000
  1
物件名：
  7
KANJI
 50
0.000000
 51
0.000000
  0
TEXT
  8
1
 62
7
  6
CONTINUOUS
 10
119.100000
 20
107.134375
 40
12.375000
 41
0.400000
  1

  7
KANJI
 50
0.000000
 51
0.000000
  0
TEXT
  8
1
 62
7
  6
CONTINUOUS
 10
119.100000
 20
94.759375
 40
12.375000
 41
0.400000
  1

  7
KANJI
 50
0.000000
 51
0.000000
  0
TEXT
  8
1
 62
7
  6
CONTINUOUS
 10
39.900000
 20
45.259375
 40
24.750000
 41
0.700000
  1
納 期：
  7
KANJI
 50
0.000000
 51
0.000000
  0
TEXT
  8
1
 62
7
  6
CONTINUOUS
 10
109.200000
 20
57.634375
 40
12.375000
 41
0.400000
  1

  7
KANJI
 50
0.000000
 51
0.000000
  0
TEXT
  8
1
 62
7
  6
CONTINUOUS
 10
109.200000
 20
45.259375
 40
12.375000
 41
0.400000
  1

  7
KANJI
 50
0.000000
 51
0.000000
  0
LINE
  8
1
 62
7
  6
CONTINUOUS
 10
30.000000
 20
188.500000
 11
30.000000
 21
40.000000
  0
LINE
  8
1
 62
7
  6
CONTINUOUS
 10
30.000000
 20
188.500000
 11
327.000000
 21
188.500000
  0
LINE
  8
1
 62
7
  6
CONTINUOUS
 10
327.000000
 20
188.500000
 11
327.000000
 21
139.000000
  0
LINE
  8
1
 62
7
  6
CONTINUOUS
 10
327.000000
 20
139.000000
 11
30.000000
 21
139.000000
  0
LINE
  8
1
 62
7
  6
CONTINUOUS
 10
30.000000
 20
139.000000
 11
30.000000
 21
89.500000
  0
LINE
  8
1
 62
7
  6
CONTINUOUS
 10
30.000000
 20
89.500000
 11
327.000000
 21
89.500000
  0
LINE
  8
1
 62
7
  6
CONTINUOUS
 10
327.000000
 20
89.500000
 11
327.000000
 21
139.000000
  0
LINE
  8
1
 62
7
  6
CONTINUOUS
 10
327.000000
 20
139.000000
 11
327.000000
 21
40.000000
  0
LINE
  8
1
 62
7
  6
CONTINUOUS
 10
327.000000
 20
40.000000
 11
30.000000
 21
40.000000
  0
TEXT
  8
1
 62
7
  6
CONTINUOUS
 10
341.850000
 20
144.259375
 40
24.750000
 41
0.800000
  1
　色柄：
  7
KANJI
 50
0.000000
 51
0.000000
  0
TEXT
  8
1
 62
7
  6
CONTINUOUS
 10
421.050000
 20
156.634375
 40
12.375000
 41
0.400000
  1

  7
KANJI
 50
0.000000
 51
0.000000
  0
TEXT
  8
1
 62
7
  6
CONTINUOUS
 10
421.050000
 20
144.259375
 40
12.375000
 41
0.400000
  1

  7
KANJI
 50
0.000000
 51
0.000000
  0
TEXT
  8
1
 62
7
  6
CONTINUOUS
 10
341.850000
 20
94.759375
 40
24.750000
 41
0.800000
  1
　厚み：
  7
KANJI
 50
0.000000
 51
0.000000
  0
TEXT
  8
1
 62
7
  6
CONTINUOUS
 10
421.050000
 20
107.134375
 40
12.375000
 41
0.400000
  1

  7
KANJI
 50
0.000000
 51
0.000000
  0
TEXT
  8
1
 62
7
  6
CONTINUOUS
 10
421.050000
 20
94.759375
 40
12.375000
 41
0.400000
  1

  7
KANJI
 50
0.000000
 51
0.000000
  0
TEXT
  8
1
 62
7
  6
CONTINUOUS
 10
341.850000
 20
45.259375
 40
24.750000
 41
0.800000
  1
付属品：
  7
KANJI
 50
0.000000
 51
0.000000
  0
TEXT
  8
1
 62
7
  6
CONTINUOUS
 10
421.050000
 20
57.634375
 40
12.375000
 41
0.400000
  1

  7
KANJI
 50
0.000000
 51
0.000000
  0
TEXT
  8
1
 62
7
  6
CONTINUOUS
 10
421.050000
 20
45.259375
 40
12.375000
 41
0.400000
  1

  7
KANJI
 50
0.000000
 51
0.000000
  0
LINE
  8
1
 62
7
  6
CONTINUOUS
 10
429.073950
 20
40.000000
 11
429.073950
 21
188.500000
  0
TEXT
  8
1
 62
7
  6
CONTINUOUS
 10
438.973950
 20
164.987500
 40
19.800000
 41
1.000000
  1
単色シリーズ
  7
KANJI
 50
0.000000
 51
0.000000
  0
TEXT
  8
1
 62
7
  6
CONTINUOUS
 10
557.773950
 20
174.887500
 40
9.900000
 41
0.500000
  1

  7
KANJI
 50
0.000000
 51
0.000000
  0
TEXT
  8
1
 62
7
  6
CONTINUOUS
 10
557.773950
 20
164.987500
 40
9.900000
 41
0.500000
  1

  7
KANJI
 50
0.000000
 51
0.000000
  0
LINE
  8
1
 62
7
  6
CONTINUOUS
 10
1615.489950
 20
40.000000
 11
1615.489950
 21
188.500000
  0
TEXT
  8
1
 62
7
  6
CONTINUOUS
 10
1235.923950
 20
94.759375
 40
24.750000
 41
0.800000
  1
埼玉県比企郡川島町表２１－５
  7
KANJI
 50
0.000000
 51
0.000000
  0
TEXT
  8
1
 62
7
  6
CONTINUOUS
 10
1513.123950
 20
107.134375
 40
12.375000
 41
0.400000
  1

  7
KANJI
 50
0.000000
 51
0.000000
  0
TEXT
  8
1
 62
7
  6
CONTINUOUS
 10
1513.123950
 20
94.759375
 40
12.375000
 41
0.400000
  1

  7
KANJI
 50
0.000000
 51
0.000000
  0
TEXT
  8
1
 62
7
  6
CONTINUOUS
 10
1235.923950
 20
70.009375
 40
24.750000
 41
0.647059
  1
  TEL ０４９２－９７－７２７１
  7
KANJI
 50
0.000000
 51
0.000000
  0
TEXT
  8
1
 62
7
  6
CONTINUOUS
 10
1495.798950
 20
82.384375
 40
12.375000
 41
0.388235
  1

  7
KANJI
 50
0.000000
 51
0.000000
  0
TEXT
  8
1
 62
7
  6
CONTINUOUS
 10
1495.798950
 20
70.009375
 40
12.375000
 41
0.388235
  1

  7
KANJI
 50
0.000000
 51
0.000000
  0
TEXT
  8
1
 62
7
  6
CONTINUOUS
 10
1235.923950
 20
45.259375
 40
24.750000
 41
0.647059
  1
  FAX ０４９２－９７－７２７３
  7
KANJI
 50
0.000000
 51
0.000000
  0
TEXT
  8
1
 62
7
  6
CONTINUOUS
 10
1495.798950
 20
57.634375
 40
12.375000
 41
0.388235
  1

  7
KANJI
 50
0.000000
 51
0.000000
  0
TEXT
  8
1
 62
7
  6
CONTINUOUS
 10
1495.798950
 20
45.259375
 40
12.375000
 41
0.388235
  1

  7
KANJI
 50
0.000000
 51
0.000000
  0
TEXT
  8
1
 62
7
  6
CONTINUOUS
 10
1235.923950
 20
117.653125
 40
34.650000
 41
1.285714
  1
㈱三井ＰＣＯ
  7
KANJI
 50
0.000000
 51
0.000000
  0
TEXT
  8
1
 62
7
  6
CONTINUOUS
 10
1468.573950
 20
134.978125
 40
17.325000
 41
0.642857
  1

  7
KANJI
 50
0.000000
 51
0.000000
  0
TEXT
  8
1
 62
7
  6
CONTINUOUS
 10
1468.573950
 20
117.653125
 40
17.325000
 41
0.642857
  1

  7
KANJI
 50
0.000000
 51
0.000000
  0
LINE
  8
1
 62
7
  6
CONTINUOUS
 10
429.073950
 20
188.500000
 11
578.420400
 21
188.500000
  0
LINE
  8
1
 62
7
  6
CONTINUOUS
 10
578.420400
 20
188.500000
 11
722.960400
 21
188.500000
  0
LINE
  8
1
 62
7
  6
CONTINUOUS
 10
722.960400
 20
188.500000
 11
872.851350
 21
188.500000
  0
LINE
  8
1
 62
7
  6
CONTINUOUS
 10
872.851350
 20
40.000000
 11
429.073950
 21
40.000000
  0
LINE
  8
1
 62
7
  6
CONTINUOUS
 10
429.073950
 20
139.000000
 11
872.851350
 21
139.000000
  0
LINE
  8
1
 62
7
  6
CONTINUOUS
 10
872.851350
 20
89.500000
 11
429.073950
 21
89.500000
  0
LINE
  8
1
 62
7
  6
CONTINUOUS
 10
578.420400
 20
188.500000
 11
578.420400
 21
89.500000
  0
LINE
  8
1
 62
7
  6
CONTINUOUS
 10
906.348000
 20
139.000000
 11
872.851350
 21
139.000000
  0
LINE
  8
1
 62
7
  6
CONTINUOUS
 10
872.851350
 20
139.000000
 11
906.348000
 21
139.000000
  0
LINE
  8
1
 62
7
  6
CONTINUOUS
 10
906.348000
 20
89.500000
 11
872.851350
 21
89.500000
  0
LINE
  8
1
 62
7
  6
CONTINUOUS
 10
872.851350
 20
89.500000
 11
906.348000
 21
89.500000
  0
LINE
  8
1
 62
7
  6
CONTINUOUS
 10
578.420400
 20
89.500000
 11
578.420400
 21
40.000000
  0
LINE
  8
1
 62
7
  6
CONTINUOUS
 10
872.851350
 20
188.500000
 11
906.348000
 21
188.500000
  0
LINE
  8
1
 62
7
  6
CONTINUOUS
 10
906.348000
 20
40.000000
 11
872.851350
 21
40.000000
  0
LINE
  8
1
 62
7
  6
CONTINUOUS
 10
1129.098000
 20
188.500000
 11
1129.098000
 21
40.000000
  0
LINE
  8
1
 62
7
  6
CONTINUOUS
 10
1129.098000
 20
40.000000
 11
1615.489950
 21
40.000000
  0
LINE
  8
1
 62
7
  6
CONTINUOUS
 10
1615.489950
 20
188.500000
 11
1129.098000
 21
188.500000
  0
LINE
  8
1
 62
7
  6
CONTINUOUS
 10
906.348000
 20
188.500000
 11
1121.673000
 21
188.500000
  0
LINE
  8
1
 62
7
  6
CONTINUOUS
 10
1121.673000
 20
188.500000
 11
1121.673000
 21
40.000000
  0
LINE
  8
1
 62
7
  6
CONTINUOUS
 10
1121.673000
 20
40.000000
 11
906.348000
 21
40.000000
  0
LINE
  8
1
 62
7
  6
CONTINUOUS
 10
906.348000
 20
139.000000
 11
1121.673000
 21
139.000000
  0
LINE
  8
1
 62
7
  6
CONTINUOUS
 10
1121.673000
 20
89.500000
 11
906.348000
 21
89.500000
  0
TEXT
  8
1
 62
7
  6
CONTINUOUS
 10
931.360845
 20
164.987500
 40
19.800000
 41
1.000000
  1
モンタナシリーズ
  7
KANJI
 50
0.000000
 51
0.000000
  0
TEXT
  8
1
 62
7
  6
CONTINUOUS
 10
1089.760845
 20
174.887500
 40
9.900000
 41
0.500000
  1

  7
KANJI
 50
0.000000
 51
0.000000
  0
TEXT
  8
1
 62
7
  6
CONTINUOUS
 10
1089.760845
 20
164.987500
 40
9.900000
 41
0.500000
  1

  7
KANJI
 50
0.000000
 51
0.000000
  0
TEXT
  8
1
 62
7
  6
CONTINUOUS
 10
755.473485
 20
164.987500
 40
19.800000
 41
1.000000
  1
シエラシリーズ
  7
KANJI
 50
0.000000
 51
0.000000
  0
TEXT
  8
1
 62
7
  6
CONTINUOUS
 10
894.073485
 20
174.887500
 40
9.900000
 41
0.500000
  1

  7
KANJI
 50
0.000000
 51
0.000000
  0
TEXT
  8
1
 62
7
  6
CONTINUOUS
 10
894.073485
 20
164.987500
 40
9.900000
 41
0.500000
  1

  7
KANJI
 50
0.000000
 51
0.000000
  0
LINE
  8
1
 62
7
  6
CONTINUOUS
 10
919.192260
 20
188.500000
 11
919.192260
 21
40.000000
  0
TEXT
  8
1
 62
7
  6
CONTINUOUS
 10
588.320400
 20
161.275000
 40
19.800000
 41
1.000000
  1
ベナーロシリーズ
  7
KANJI
 50
0.000000
 51
0.000000
  0
TEXT
  8
1
 62
7
  6
CONTINUOUS
 10
746.720400
 20
171.175000
 40
9.900000
 41
0.500000
  1

  7
KANJI
 50
0.000000
 51
0.000000
  0
TEXT
  8
1
 62
7
  6
CONTINUOUS
 10
746.720400
 20
161.275000
 40
9.900000
 41
0.500000
  1

  7
KANJI
 50
0.000000
 51
0.000000
  0
LINE
  8
1
 62
7
  6
CONTINUOUS
 10
749.190450
 20
188.500000
 11
749.190450
 21
40.000000
  0
TEXT
  8
1
 62
7
  6
CONTINUOUS
 10
429.073950
 20
48.380350
 40
24.750000
 41
0.800000
  1
シーム剤  本
  7
KANJI
 50
0.000000
 51
0.000000
  0
TEXT
  8
1
 62
7
  6
CONTINUOUS
 10
557.773950
 20
60.755350
 40
12.375000
 41
0.466667
  1

  7
KANJI
 50
0.000000
 51
0.000000
  0
TEXT
  8
1
 62
7
  6
CONTINUOUS
 10
557.773950
 20
48.380350
 40
12.375000
 41
0.466667
  1

  7
KANJI
 50
0.000000
 51
0.000000
  0
TEXT
  8
1
 62
7
  6
CONTINUOUS
 10
924.142260
 20
52.589335
 40
24.750000
 41
1.000000
  1
梱包個数　　梱
  7
KANJI
 50
0.000000
 51
0.000000
  0
TEXT
  8
1
 62
7
  6
CONTINUOUS
 10
1097.392260
 20
64.964335
 40
12.375000
 41
0.500000
  1

  7
KANJI
 50
0.000000
 51
0.000000
  0
TEXT
  8
1
 62
7
  6
CONTINUOUS
 10
1097.392260
 20
52.589335
 40
12.375000
 41
0.500000
  1

  7
KANJI
 50
0.000000
 51
0.000000
  0
TEXT
  8
1
 62
7
  6
CONTINUOUS
 10
735.879900
 20
52.271050
 40
24.750000
 41
0.746667
  1
 断熱テープ   本
  7
KANJI
 50
0.000000
 51
0.000000
  0
TEXT
  8
1
 62
7
  6
CONTINUOUS
 10
900.467400
 20
64.646050
 40
12.375000
 41
0.466667
  1

  7
KANJI
 50
0.000000
 51
0.000000
  0
TEXT
  8
1
 62
7
  6
CONTINUOUS
 10
900.467400
 20
52.271050
 40
12.375000
 41
0.466667
  1

  7
KANJI
 50
0.000000
 51
0.000000
  0
TEXT
  8
1
 62
7
  6
CONTINUOUS
 10
583.370400
 20
47.910595
 40
24.750000
 41
0.656250
  1
瞬間接着剤 　本
  7
KANJI
 50
0.000000
 51
0.000000
  0
TEXT
  8
1
 62
7
  6
CONTINUOUS
 10
713.307900
 20
60.285595
 40
12.375000
 41
0.350000
  1

  7
KANJI
 50
0.000000
 51
0.000000
  0
TEXT
  8
1
 62
7
  6
CONTINUOUS
 10
713.307900
 20
47.910595
 40
12.375000
 41
0.350000
  1

  7
KANJI
 50
0.000000
 51
0.000000
  0
TEXT
  8
1
 62
7
  6
CONTINUOUS
 10
438.973950
 20
97.234375
 40
24.750000
 41
1.041667
  1
   ㎜
  7
KANJI
 50
0.000000
 51
0.000000
  0
TEXT
  8
1
 62
7
  6
CONTINUOUS
 10
525.598950
 20
109.609375
 40
12.375000
 41
0.833333
  1

  7
KANJI
 50
0.000000
 51
0.000000
  0
TEXT
  8
1
 62
7
  6
CONTINUOUS
 10
525.598950
 20
97.234375
 40
12.375000
 41
0.833333
  1

  7
KANJI
 50
0.000000
 51
0.000000
  0
TEXT
  8
1
 62
7
  6
CONTINUOUS
 10
588.320400
 20
97.234375
 40
24.750000
 41
1.041667
  1
   ㎜
  7
KANJI
 50
0.000000
 51
0.000000
  0
TEXT
  8
1
 62
7
  6
CONTINUOUS
 10
674.945400
 20
109.609375
 40
12.375000
 41
0.833333
  1

  7
KANJI
 50
0.000000
 51
0.000000
  0
TEXT
  8
1
 62
7
  6
CONTINUOUS
 10
674.945400
 20
97.234375
 40
12.375000
 41
0.833333
  1

  7
KANJI
 50
0.000000
 51
0.000000
  0
TEXT
  8
1
 62
7
  6
CONTINUOUS
 10
755.473485
 20
97.234375
 40
24.750000
 41
1.041667
  1
   ㎜
  7
KANJI
 50
0.000000
 51
0.000000
  0
TEXT
  8
1
 62
7
  6
CONTINUOUS
 10
842.098485
 20
109.609375
 40
12.375000
 41
0.833333
  1

  7
KANJI
 50
0.000000
 51
0.000000
  0
TEXT
  8
1
 62
7
  6
CONTINUOUS
 10
842.098485
 20
97.234375
 40
12.375000
 41
0.833333
  1

  7
KANJI
 50
0.000000
 51
0.000000
  0
TEXT
  8
1
 62
7
  6
CONTINUOUS
 10
924.142260
 20
97.234375
 40
24.750000
 41
1.050000
  1
    ㎜
  7
KANJI
 50
0.000000
 51
0.000000
  0
TEXT
  8
1
 62
7
  6
CONTINUOUS
 10
1035.517260
 20
109.609375
 40
12.375000
 41
0.875000
  1

  7
KANJI
 50
0.000000
 51
0.000000
  0
TEXT
  8
1
 62
7
  6
CONTINUOUS
 10
1035.517260
 20
97.234375
 40
12.375000
 41
0.875000
  1

  7
KANJI
 50
0.000000
 51
0.000000
  0
TEXT
  8
1
 62
7
  6
CONTINUOUS
 10
1138.998000
 20
159.109375
 40
24.750000
 41
0.800000
  1
デュポンコーリアン認定加工／施工工場　　Ｍｐｃｏ　
  7
KANJI
 50
0.000000
 51
0.000000
  0
TEXT
  8
1
 62
7
  6
CONTINUOUS
 10
1633.998000
 20
171.484375
 40
12.375000
 41
0.400000
  1

  7
KANJI
 50
0.000000
 51
0.000000
  0
TEXT
  8
1
 62
7
  6
CONTINUOUS
 10
1633.998000
 20
159.109375
 40
12.375000
 41
0.400000
  1

  7
KANJI
 50
0.000000
 51
0.000000
  0
LINE
  8
1
 62
7
  6
CONTINUOUS
 10
1622.914950
 20
40.000000
 11
1734.473100
 21
40.000000
  0
TEXT
  8
1
 62
7
  6
CONTINUOUS
 10
1627.864950
 20
95.378125
 40
34.650000
 41
0.714286
  1
図面番号
  7
KANJI
 50
0.000000
 51
0.000000
  0
TEXT
  8
1
 62
7
  6
CONTINUOUS
 10
1726.864950
 20
112.703125
 40
17.325000
 41
0.357143
  1

  7
KANJI
 50
0.000000
 51
0.000000
  0
TEXT
  8
1
 62
7
  6
CONTINUOUS
 10
1726.864950
 20
95.378125
 40
17.325000
 41
0.357143
  1

  7
KANJI
 50
0.000000
 51
0.000000
  0
LINE
  8
1
 62
7
  6
CONTINUOUS
 10
1622.914950
 20
139.000000
 11
1622.914950
 21
40.000000
  0
LINE
  8
1
 62
7
  6
CONTINUOUS
 10
1622.914950
 20
40.000000
 11
1734.473100
 21
40.000000
  0
LINE
  8
1
 62
7
  6
CONTINUOUS
 10
1734.473100
 20
40.000000
 11
1734.473100
 21
139.000000
  0
LINE
  8
1
 62
7
  6
CONTINUOUS
 10
1734.473100
 20
139.000000
 11
1622.914950
 21
139.000000
  0
LINE
  8
1
 62
7
  6
CONTINUOUS
 10
1622.914950
 20
139.000000
 11
1622.914950
 21
188.500000
  0
LINE
  8
1
 62
7
  6
CONTINUOUS
 10
1622.914950
 20
188.500000
 11
1734.473100
 21
188.500000
  0
LINE
  8
1
 62
7
  6
CONTINUOUS
 10
1734.473100
 20
188.500000
 11
1734.473100
 21
139.000000
  0
TEXT
  8
1
 62
7
  6
CONTINUOUS
 10
1627.864950
 20
161.275000
 40
19.800000
 41
0.875000
  1
CAD-NO
  7
KANJI
 50
0.000000
 51
0.000000
  0
TEXT
  8
1
 62
7
  6
CONTINUOUS
 10
1723.152450
 20
171.175000
 40
9.900000
 41
0.875000
  1

  7
KANJI
 50
0.000000
 51
0.000000
  0
TEXT
  8
1
 62
7
  6
CONTINUOUS
 10
1723.152450
 20
161.275000
 40
9.900000
 41
0.875000
  1

  7
KANJI
 50
0.000000
 51
0.000000
  0
TEXT
  8
1
 62
7
  6
CONTINUOUS
 10
54.560220
 20
1166.500000
 40
45.000000
 41
0.607143
  1
U-102 ﾎﾞｳﾙ 詳細図
  7
KANJI
 50
0.345083
 51
0.000000
  0
TEXT
  8
1
 62
7
  6
CONTINUOUS
 10
436.917769
 20
1191.303310
 40
22.500000
 41
0.500000
  1

  7
KANJI
 50
0.345083
 51
0.000000
  0
TEXT
  8
1
 62
7
  6
CONTINUOUS
 10
437.053282
 20
1168.803718
 40
22.500000
 41
0.500000
  1

  7
KANJI
 50
0.345083
 51
0.000000
  0
TEXT
  8
1
 62
7
  6
CONTINUOUS
 10
54.079792
 20
1064.310536
 40
25.000000
 41
0.562500
  1
ｵｰﾊﾞｰﾌﾛｰ ﾁｭｰﾌﾞ付き
  7
KANJI
 50
0.000000
 51
0.000000
  0
TEXT
  8
1
 62
7
  6
CONTINUOUS
 10
279.079792
 20
1076.810536
 40
12.500000
 41
0.500000
  1

  7
KANJI
 50
0.000000
 51
0.000000
  0
TEXT
  8
1
 62
7
  6
CONTINUOUS
 10
279.079792
 20
1064.310536
 40
12.500000
 41
0.500000
  1

  7
KANJI
 50
0.000000
 51
0.000000
  0
TEXT
  8
1
 62
7
  6
CONTINUOUS
 10
54.560220
 20
1025.405268
 40
30.000000
 41
1.000000
  1
排水金具：別売
  7
KANJI
 50
0.000000
 51
0.000000
  0
TEXT
  8
1
 62
7
  6
CONTINUOUS
 10
264.560220
 20
1040.405268
 40
15.000000
 41
0.500000
  1

  7
KANJI
 50
0.000000
 51
0.000000
  0
TEXT
  8
1
 62
7
  6
CONTINUOUS
 10
264.560220
 20
1025.405268
 40
15.000000
 41
0.500000
  1

  7
KANJI
 50
0.000000
 51
0.000000
  0
TEXT
  8
1
 62
7
  6
CONTINUOUS
 10
54.560220
 20
1095.405268
 40
30.000000
 41
0.833333
  1
100％アクリル製
  7
KANJI
 50
0.000000
 51
0.000000
  0
TEXT
  8
1
 62
7
  6
CONTINUOUS
 10
279.560220
 20
1110.405268
 40
15.000000
 41
0.500000
  1

  7
KANJI
 50
0.000000
 51
0.000000
  0
TEXT
  8
1
 62
7
  6
CONTINUOUS
 10
279.560220
 20
1095.405268
 40
15.000000
 41
0.500000
  1

  7
KANJI
 50
0.000000
 51
0.000000
  0
TEXT
  8
1
 62
7
  6
CONTINUOUS
 10
51.159534
 20
988.956150
 40
25.000000
 41
1.000000
  1
カラー：白
  7
KANJI
 50
0.000000
 51
0.000000
  0
TEXT
  8
1
 62
7
  6
CONTINUOUS
 10
176.159534
 20
1001.456150
 40
12.500000
 41
0.500000
  1

  7
KANJI
 50
0.000000
 51
0.000000
  0
TEXT
  8
1
 62
7
  6
CONTINUOUS
 10
176.159534
 20
988.956150
 40
12.500000
 41
0.500000
  1

  7
KANJI
 50
0.000000
 51
0.000000
  0
TEXT
  8
1
 62
7
  6
CONTINUOUS
 10
59.890613
 20
1131.405268
 40
25.000000
 41
1.000000
  1
身障者車椅子適用
  7
KANJI
 50
0.000000
 51
0.000000
  0
TEXT
  8
1
 62
7
  6
CONTINUOUS
 10
259.890613
 20
1143.905268
 40
12.500000
 41
0.500000
  1

  7
KANJI
 50
0.000000
 51
0.000000
  0
TEXT
  8
1
 62
7
  6
CONTINUOUS
 10
259.890613
 20
1131.405268
 40
12.500000
 41
0.500000
  1

  7
KANJI
 50
0.000000
 51
0.000000
  0
CIRCLE
  8
1
 62
7
  6
CONTINUOUS
 10
814.225694
 20
1009.218738
 40
22.500000
  0
CIRCLE
  8
1
 62
7
  6
CONTINUOUS
 10
814.225694
 20
1009.218738
 40
27.500000
  0
LINE
  8
1
 62
7
  6
CONTINUOUS
 10
814.225694
 20
1058.085180
 11
814.225693
 21
986.718738
  0
LINE
  8
1
 62
7
  6
CONTINUOUS
 10
765.531081
 20
1009.218738
 11
860.611730
 21
1009.218738
  0
CIRCLE
  8
1
 62
7
  6
CONTINUOUS
 10
814.225694
 20
1009.218738
 40
35.000000
  0
DIMENSION
  8
1
 62
7
  6
CONTINUOUS
  2
*D1
 10
786.725694
 20
914.702408
 11
814.225694
 21
914.702408
 70
     0
  1
60
 13
786.725694
 23
999.218738
 14
841.725694
 24
999.218738
 50
0.000000
  0
DIMENSION
  8
1
 62
7
  6
CONTINUOUS
  2
*D2
 10
791.725694
 20
938.401296
 11
814.225694
 21
938.401296
 70
     0
  1
44
 13
791.725694
 23
999.218738
 14
836.725694
 24
999.218738
 50
0.000000
  0
LINE
  8
1
 62
7
  6
CONTINUOUS
 10
599.225694
 20
668.218750
 11
1029.225694
 21
668.218750
  0
ARC
  8
1
 62
7
  6
CONTINUOUS
 10
599.225694
 20
678.218750
 40
10.000000
 50
180.000000
 51
-90.000000
  0
LINE
  8
1
 62
7
  6
CONTINUOUS
 10
589.225694
 20
678.218750
 11
589.225694
 21
1049.218750
  0
ARC
  8
1
 62
7
  6
CONTINUOUS
 10
599.225694
 20
1049.218750
 40
10.000000
 50
90.000000
 51
180.000000
  0
LINE
  8
1
 62
7
  6
CONTINUOUS
 10
1029.225694
 20
1059.218750
 11
599.225694
 21
1059.218750
  0
ARC
  8
1
 62
7
  6
CONTINUOUS
 10
1029.225694
 20
678.218750
 40
10.000000
 50
-90.000000
 51
0.000000
  0
LINE
  8
1
 62
7
  6
CONTINUOUS
 10
1039.225694
 20
1049.218750
 11
1039.225694
 21
678.218750
  0
ARC
  8
1
 62
7
  6
CONTINUOUS
 10
1029.225694
 20
1049.218750
 40
10.000000
 50
0.000000
 51
90.000000
  0
LINE
  8
1
 62
7
  6
CONTINUOUS
 10
589.225694
 20
643.218750
 11
1039.225694
 21
643.218750
  0
ARC
  8
1
 62
7
  6
CONTINUOUS
 10
589.225694
 20
668.218750
 40
25.000000
 50
180.000000
 51
-90.000000
  0
LINE
  8
1
 62
7
  6
CONTINUOUS
 10
564.225694
 20
668.218750
 11
564.225694
 21
1059.218750
  0
ARC
  8
1
 62
7
  6
CONTINUOUS
 10
589.225694
 20
1059.218750
 40
25.000000
 50
90.000000
 51
180.000000
  0
LINE
  8
1
 62
7
  6
CONTINUOUS
 10
1039.225694
 20
1084.218750
 11
589.225694
 21
1084.218750
  0
ARC
  8
1
 62
7
  6
CONTINUOUS
 10
1039.225694
 20
668.218750
 40
25.000000
 50
-90.000000
 51
0.000000
  0
LINE
  8
1
 62
7
  6
CONTINUOUS
 10
1064.225694
 20
1059.218750
 11
1064.225694
 21
668.218750
  0
ARC
  8
1
 62
7
  6
CONTINUOUS
 10
1039.225694
 20
1059.218750
 40
25.000000
 50
0.000000
 51
90.000000
  0
DIMENSION
  8
1
 62
7
  6
CONTINUOUS
  2
*D3
 10
564.225694
 20
1209.149306
 11
814.225694
 21
1209.149306
 70
     0
  1
500
 13
564.225694
 23
1094.218750
 14
1064.225694
 24
1094.218750
 50
0.000000
  0
DIMENSION
  8
1
 62
7
  6
CONTINUOUS
  2
*D4
 10
564.225694
 20
1173.454861
 11
576.725694
 21
1173.454861
 70
     0
  1
25
 13
564.225694
 23
1094.218750
 14
589.225694
 24
1094.218750
 50
0.000000
  0
DIMENSION
  8
1
 62
7
  6
CONTINUOUS
  2
*D5
 10
589.225694
 20
1173.454861
 11
814.225694
 21
1173.454861
 70
     0
  1
450
 13
589.225694
 23
1173.454861
 14
1039.225694
 24
1094.218750
 50
0.000000
  0
DIMENSION
  8
1
 62
7
  6
CONTINUOUS
  2
*D6
 10
1039.225694
 20
1173.454861
 11
1051.725694
 21
1173.454861
 70
     0
  1
25
 13
1039.225694
 23
1173.454861
 14
1064.225694
 24
1094.218750
 50
0.000000
  0
DIMENSION
  8
1
 62
7
  6
CONTINUOUS
  2
*D7
 10
423.871528
 20
1084.218750
 11
423.871528
 21
863.718750
 70
     0
  1
441
 13
554.225694
 23
1084.218750
 14
554.225694
 24
643.218750
 50
-90.000000
  0
DIMENSION
  8
1
 62
7
  6
CONTINUOUS
  2
*D8
 10
459.565972
 20
1084.218750
 11
459.565972
 21
1071.718750
 70
     0
  1
25
 13
554.225694
 23
1084.218750
 14
554.225694
 24
1059.218750
 50
-90.000000
  0
DIMENSION
  8
1
 62
7
  6
CONTINUOUS
  2
*D9
 10
459.565972
 20
1059.218750
 11
459.565972
 21
863.718750
 70
     0
  1
391
 13
459.565972
 23
1059.218750
 14
554.225694
 24
668.218750
 50
-90.000000
  0
DIMENSION
  8
1
 62
7
  6
CONTINUOUS
  2
*D10
 10
459.565972
 20
668.218750
 11
459.565972
 21
655.718750
 70
     0
  1
25
 13
459.565972
 23
668.218750
 14
554.225694
 24
643.218750
 50
-90.000000
  0
DIMENSION
  8
1
 62
7
  6
CONTINUOUS
  2
*D11
 10
493.029514
 20
1059.218750
 11
493.029514
 21
1034.218744
 70
     0
  1
50
 13
554.225694
 23
1059.218750
 14
554.225694
 24
1009.218738
 50
-90.000000
  0
DIMENSION
  8
1
 62
7
  6
CONTINUOUS
  2
*D12
 10
493.029514
 20
1009.218738
 11
493.029514
 21
838.718744
 70
     0
  1
341
 13
493.029514
 23
1009.218738
 14
554.225694
 24
668.218750
 50
-90.000000
  0
LINE
  8
1
 62
7
  6
CONTINUOUS
 10
596.659121
 20
675.652176
 11
656.706398
 21
735.699453
  0
LINE
  8
1
 62
7
  6
CONTINUOUS
 10
656.706398
 20
735.699453
 11
694.206398
 21
735.699453
  0
TEXT
  8
1
 62
7
  6
CONTINUOUS
 10
656.706398
 20
735.699453
 40
20.000000
 41
0.375000
  1
10R*4
  7
KANJI
 50
0.000000
 51
30.000000
  0
LINE
  8
1
 62
7
  6
CONTINUOUS
 10
596.659121
 20
675.652176
 11
606.659121
 21
692.972684
  0
LINE
  8
1
 62
7
  6
CONTINUOUS
 10
596.659121
 20
675.652176
 11
613.979629
 21
685.652176
  0
LINE
  8
1
 62
7
  6
CONTINUOUS
 10
606.659121
 20
692.972684
 11
613.979629
 21
685.652176
  0
LINE
  8
1
 62
7
  6
CONTINUOUS
 10
600.074184
 20
679.067239
 11
605.074184
 21
687.727493
  0
LINE
  8
1
 62
7
  6
CONTINUOUS
 10
600.074184
 20
679.067239
 11
608.734438
 21
684.067239
  0
LINE
  8
1
 62
7
  6
CONTINUOUS
 10
605.074184
 20
687.727493
 11
608.734438
 21
684.067239
  0
LINE
  8
1
 62
7
  6
CONTINUOUS
 10
571.548024
 20
650.541080
 11
518.453137
 21
597.446193
  0
LINE
  8
1
 62
7
  6
CONTINUOUS
 10
518.453137
 20
597.446193
 11
480.953137
 21
597.446193
  0
TEXT
  8
1
 62
7
  6
CONTINUOUS
 10
480.953137
 20
597.446193
 40
20.000000
 41
0.375000
  1
35R*4
  7
KANJI
 50
0.000000
 51
30.000000
  0
LINE
  8
1
 62
7
  6
CONTINUOUS
 10
571.548024
 20
650.541080
 11
561.548024
 21
633.220572
  0
LINE
  8
1
 62
7
  6
CONTINUOUS
 10
571.548024
 20
650.541080
 11
554.227516
 21
640.541080
  0
LINE
  8
1
 62
7
  6
CONTINUOUS
 10
561.548024
 20
633.220572
 11
554.227516
 21
640.541080
  0
LINE
  8
1
 62
7
  6
CONTINUOUS
 10
568.132961
 20
647.126017
 11
563.132961
 21
638.465763
  0
LINE
  8
1
 62
7
  6
CONTINUOUS
 10
568.132961
 20
647.126017
 11
559.472707
 21
642.126017
  0
LINE
  8
1
 62
7
  6
CONTINUOUS
 10
563.132961
 20
638.465763
 11
559.472707
 21
642.126017
  0
LINE
  8
1
 62
7
  6
CONTINUOUS
 10
713.338836
 20
481.875000
 11
814.225694
 21
481.875001
  0
LINE
  8
1
 62
7
  6
CONTINUOUS
 10
713.338836
 20
469.875000
 11
829.977799
 21
469.875000
  0
LINE
  8
1
 62
7
  6
CONTINUOUS
 10
567.441084
 20
469.875000
 11
564.225693
 21
481.875002
  0
LINE
  8
1
 62
7
  6
CONTINUOUS
 10
567.441084
 20
469.875000
 11
579.225693
 21
469.875000
  0
LINE
  8
1
 62
7
  6
CONTINUOUS
 10
564.225694
 20
481.875000
 11
700.838835
 21
481.875001
  0
LINE
  8
1
 62
7
  6
CONTINUOUS
 10
579.225693
 20
469.875000
 11
700.838835
 21
469.875000
  0
LINE
  8
1
 62
7
  6
CONTINUOUS
 10
567.441084
 20
469.875000
 11
579.225693
 21
469.875000
  0
LINE
  8
1
 62
7
  6
CONTINUOUS
 10
1064.225694
 20
481.875000
 11
1061.010303
 21
469.875000
  0
LINE
  8
1
 62
7
  6
CONTINUOUS
 10
1049.225694
 20
469.875000
 11
1061.010303
 21
469.875000
  0
LINE
  8
1
 62
7
  6
CONTINUOUS
 10
911.409208
 20
481.875001
 11
1064.225694
 21
481.875002
  0
LINE
  8
1
 62
7
  6
CONTINUOUS
 10
911.409208
 20
469.875000
 11
1049.225694
 21
469.875000
  0
LINE
  8
1
 62
7
  6
CONTINUOUS
 10
700.838835
 20
481.875001
 11
925.094086
 21
481.875000
  0
LINE
  8
1
 62
7
  6
CONTINUOUS
 10
939.634155
 20
469.875000
 11
700.838835
 21
469.875000
  0
LINE
  8
1
 62
7
  6
CONTINUOUS
 10
784.225693
 20
319.875000
 11
784.225693
 21
317.875000
  0
LINE
  8
1
 62
7
  6
CONTINUOUS
 10
787.225693
 20
314.875000
 11
841.225693
 21
314.875000
  0
LINE
  8
1
 62
7
  6
CONTINUOUS
 10
844.225693
 20
319.875000
 11
844.225693
 21
317.875000
  0
LINE
  8
1
 62
7
  6
CONTINUOUS
 10
844.193300
 20
317.435327
 11
844.225693
 21
319.875000
  0
LINE
  8
1
 62
7
  6
CONTINUOUS
 10
844.225693
 20
318.716545
 11
844.225693
 21
319.875000
  0
ARC
  8
1
 62
7
  6
CONTINUOUS
 10
847.225693
 20
318.716545
 40
3.000000
 50
113.275450
 51
-180.000000
  0
LINE
  8
1
 62
7
  6
CONTINUOUS
 10
784.225693
 20
319.875000
 11
784.225693
 21
318.716545
  0
ARC
  8
1
 62
7
  6
CONTINUOUS
 10
781.225693
 20
318.716545
 40
3.000000
 50
0.000000
 51
66.724550
  0
LINE
  8
1
 62
7
  6
CONTINUOUS
 10
784.225693
 20
317.875000
 11
784.225693
 21
316.875000
  0
LINE
  8
1
 62
7
  6
CONTINUOUS
 10
786.225693
 20
314.875000
 11
787.225693
 21
314.875000
  0
ARC
  8
1
 62
7
  6
CONTINUOUS
 10
786.225693
 20
316.875000
 40
2.000000
 50
180.000000
 51
-90.000000
  0
LINE
  8
1
 62
7
  6
CONTINUOUS
 10
841.225693
 20
314.875000
 11
842.204999
 21
314.875000
  0
LINE
  8
1
 62
7
  6
CONTINUOUS
 10
844.204893
 20
316.895587
 11
844.196701
 21
317.691457
  0
ARC
  8
1
 62
7
  6
CONTINUOUS
 10
842.204999
 20
316.875000
 40
2.000000
 50
-90.000000
 51
0.589785
  0
DIMENSION
  8
1
 62
7
  6
CONTINUOUS
  2
*D13
 10
784.225693
 20
254.998262
 11
814.225693
 21
254.998262
 70
     0
  1
60
 13
784.225693
 23
304.875000
 14
844.225693
 24
304.875000
 50
0.000000
  0
LINE
  8
1
 62
7
  6
CONTINUOUS
 10
814.225693
 20
333.469333
 11
814.225693
 21
306.071281
  0
LINE
  8
1
 62
7
  6
CONTINUOUS
 10
784.225693
 20
319.875000
 11
844.458388
 21
319.875000
  0
DIMENSION
  8
1
 62
7
  6
CONTINUOUS
  2
*D14
 10
791.725694
 20
286.579649
 11
814.225694
 21
286.579649
 70
     0
  1
44
 13
791.725694
 23
304.875000
 14
836.725694
 24
304.875000
 50
0.000000
  0
DIMENSION
  8
1
 62
7
  6
CONTINUOUS
  2
*D15
 10
464.246948
 20
481.875000
 11
464.246948
 21
398.375000
 70
     0
  1
167
 13
554.225694
 23
481.875000
 14
554.225694
 24
314.875000
 50
-90.000000
  0
DIMENSION
  8
1
 62
7
  6
CONTINUOUS
  2
*D16
 10
484.328637
 20
481.875000
 11
484.328637
 21
403.375000
 70
     0
  1
157
 13
554.225694
 23
481.875000
 14
554.225694
 24
324.875000
 50
-90.000000
  0
DIMENSION
  8
1
 62
7
  6
CONTINUOUS
  2
*D17
 10
509.895261
 20
481.875000
 11
509.895261
 21
459.940165
 70
     0
  1
12
 13
554.225694
 23
481.875000
 14
554.225694
 24
469.875000
 50
-90.000000
  0
LINE
  8
1
 62
7
  6
CONTINUOUS
 10
1049.225694
 20
469.875000
 11
1049.225694
 21
339.625909
  0
LINE
  8
1
 62
7
  6
CONTINUOUS
 10
1034.476853
 20
324.628012
 11
846.040238
 21
321.472392
  0
ARC
  8
1
 62
7
  6
CONTINUOUS
 10
1034.225694
 20
339.625909
 40
15.000000
 50
-89.040596
 51
0.000000
  0
LINE
  8
1
 62
7
  6
CONTINUOUS
 10
579.225693
 20
469.875000
 11
579.225693
 21
339.625909
  0
LINE
  8
1
 62
7
  6
CONTINUOUS
 10
593.974534
 20
324.628012
 11
782.411149
 21
321.472392
  0
ARC
  8
1
 62
7
  6
CONTINUOUS
 10
594.225693
 20
339.625909
 40
15.000000
 50
180.000000
 51
-90.959404
  0
LINE
  8
1
 62
7
  6
CONTINUOUS
 10
1315.067295
 20
643.218750
 11
1327.067295
 21
646.434140
  0
LINE
  8
1
 62
7
  6
CONTINUOUS
 10
1327.067295
 20
661.161516
 11
1327.067295
 21
646.434140
  0
LINE
  8
1
 62
7
  6
CONTINUOUS
 10
1327.067295
 20
844.790902
 11
1327.067295
 21
671.745916
  0
LINE
  8
1
 62
7
  6
CONTINUOUS
 10
1315.067295
 20
847.153664
 11
1315.067295
 21
643.218750
  0
LINE
  8
1
 62
7
  6
CONTINUOUS
 10
1315.067295
 20
1084.218750
 11
1327.067295
 21
1081.003360
  0
DIMENSION
  8
1
 62
7
  6
CONTINUOUS
  2
*D18
 10
1315.067295
 20
1123.287712
 11
1321.067295
 21
1123.287712
 70
     0
  1
12
 13
1315.067295
 23
1094.218750
 14
1327.067295
 24
1094.218750
 50
0.000000
  0
LINE
  8
1
 62
7
  6
CONTINUOUS
 10
1327.067295
 20
1056.489418
 11
1327.067295
 21
916.611836
  0
LINE
  8
1
 62
7
  6
CONTINUOUS
 10
1315.067295
 20
1084.218750
 11
1315.067295
 21
909.446205
  0
LINE
  8
1
 62
7
  6
CONTINUOUS
 10
1482.067295
 20
1036.718738
 11
1482.067295
 21
1031.718738
  0
LINE
  8
1
 62
7
  6
CONTINUOUS
 10
1482.067295
 20
981.718738
 11
1482.067295
 21
986.718738
  0
ARC
  8
1
 62
7
  6
CONTINUOUS
 10
1487.810631
 20
1048.696370
 40
20.000000
 50
-159.581075
 51
-144.685014
  0
LINE
  8
1
 62
7
  6
CONTINUOUS
 10
1476.725090
 20
1033.353211
 11
1482.067295
 21
1031.718738
  0
ARC
  8
1
 62
7
  6
CONTINUOUS
 10
1479.650767
 20
1042.915659
 40
10.000000
 50
-144.685014
 51
-107.011745
  0
ARC
  8
1
 62
7
  6
CONTINUOUS
 10
1487.769207
 20
969.630826
 40
20.000000
 50
144.236795
 51
159.243593
  0
LINE
  8
1
 62
7
  6
CONTINUOUS
 10
1476.651597
 20
985.013572
 11
1482.067295
 21
986.718738
  0
ARC
  8
1
 62
7
  6
CONTINUOUS
 10
1479.654814
 20
975.475193
 40
10.000000
 50
107.476924
 51
144.236795
  0
LINE
  8
1
 62
7
  6
CONTINUOUS
 10
1468.715810
 20
925.218738
 11
1469.067295
 21
976.718738
  0
LINE
  8
1
 62
7
  6
CONTINUOUS
 10
1482.067295
 20
1039.218738
 11
1482.067295
 21
1036.718738
  0
LINE
  8
1
 62
7
  6
CONTINUOUS
 10
1482.067295
 20
979.218738
 11
1482.067295
 21
981.718738
  0
LINE
  8
1
 62
7
  6
CONTINUOUS
 10
1478.726518
 20
977.516817
 11
1482.067295
 21
979.218738
  0
ARC
  8
1
 62
7
  6
CONTINUOUS
 10
1480.088305
 20
974.843704
 40
3.000000
 50
116.996041
 51
179.975743
  0
DIMENSION
  8
1
 62
7
  6
CONTINUOUS
  2
*D19
 10
1581.339622
 20
1039.218738
 11
1581.339622
 21
1009.218738
 70
     0
  1
60
 13
1492.067295
 23
1039.218738
 14
1492.067295
 24
979.218738
 50
-90.000000
  0
LINE
  8
1
 62
7
  6
CONTINUOUS
 10
1477.794114
 20
1041.355328
 11
1482.067295
 21
1039.218738
  0
ARC
  8
1
 62
7
  6
CONTINUOUS
 10
1479.135755
 20
1044.038610
 40
3.000000
 50
-146.544170
 51
-116.565051
  0
LINE
  8
1
 62
7
  6
CONTINUOUS
 10
1482.067295
 20
986.718738
 11
1482.067295
 21
1031.718738
  0
LINE
  8
1
 62
7
  6
CONTINUOUS
 10
1477.067295
 20
985.144457
 11
1477.067295
 21
1031.718738
  0
LINE
  8
1
 62
7
  6
CONTINUOUS
 10
1469.067295
 20
976.718738
 11
1469.067295
 21
1041.718738
  0
DIMENSION
  8
1
 62
7
  6
CONTINUOUS
  2
*D20
 10
1456.589933
 20
976.718738
 11
1456.589933
 21
1009.218738
 70
     0
  1
70
 13
1459.067295
 23
976.718738
 14
1459.067295
 24
1041.718738
 50
90.000000
  0
LINE
  8
1
 62
7
  6
CONTINUOUS
 10
1424.089933
 20
1009.218738
 11
1501.166667
 21
1009.218738
  0
DIMENSION
  8
1
 62
7
  6
CONTINUOUS
  2
*D21
 10
1547.652123
 20
986.718738
 11
1547.652123
 21
1009.218738
 70
     0
  1
44
 13
1492.067295
 23
986.718738
 14
1492.067295
 24
1031.718738
 50
90.000000
  0
LINE
  8
1
 62
7
  6
CONTINUOUS
 10
1327.067295
 20
1056.489418
 11
1327.067295
 21
1059.218750
  0
LINE
  8
1
 62
7
  6
CONTINUOUS
 10
1476.632822
 20
1057.218750
 11
1476.632822
 21
1042.384728
  0
ARC
  8
1
 62
7
  6
CONTINUOUS
 10
1466.632822
 20
1057.218750
 40
10.000000
 50
0.000000
 51
90.000000
  0
LINE
  8
1
 62
7
  6
CONTINUOUS
 10
1327.067295
 20
1059.218750
 11
1459.067295
 21
1059.218750
  0
LINE
  8
1
 62
7
  6
CONTINUOUS
 10
1469.067295
 20
1049.218750
 11
1469.067295
 21
1041.718738
  0
ARC
  8
1
 62
7
  6
CONTINUOUS
 10
1459.067295
 20
1049.218750
 40
10.000000
 50
0.000000
 51
90.000000
  0
DIMENSION
  8
1
 62
7
  6
CONTINUOUS
  2
*D22
 10
1315.067295
 20
1209.149306
 11
1398.567295
 21
1209.149306
 70
     0
  1
167
 13
1315.067295
 23
1094.218750
 14
1482.067295
 24
1094.218750
 50
0.000000
  0
DIMENSION
  8
1
 62
7
  6
CONTINUOUS
  2
*D23
 10
1315.067295
 20
1173.454861
 11
1392.067295
 21
1173.454861
 70
     0
  1
157
 13
1315.067295
 23
1094.218750
 14
1469.067295
 24
1094.218750
 50
0.000000
  0
LINE
  8
1
 62
7
  6
CONTINUOUS
 10
1315.067295
 20
847.153664
 11
1315.067295
 21
909.446205
  0
LINE
  8
1
 62
7
  6
CONTINUOUS
 10
1327.067295
 20
844.790902
 11
1327.067295
 21
916.611836
  0
DIMENSION
  8
1
 62
7
  6
CONTINUOUS
  2
*D24
 10
1221.921759
 20
1084.218750
 11
1221.921759
 21
863.718750
 70
     0
  1
441
 13
1305.067295
 23
1084.218750
 14
1305.067295
 24
643.218750
 50
-90.000000
  0
DIMENSION
  8
1
 62
7
  6
CONTINUOUS
  2
*D25
 10
1243.731862
 20
1084.218750
 11
1243.731862
 21
1071.718750
 70
     0
  1
25
 13
1305.067295
 23
1084.218750
 14
1305.067295
 24
1059.218750
 50
-90.000000
  0
DIMENSION
  8
1
 62
7
  6
CONTINUOUS
  2
*D26
 10
1243.731862
 20
1059.218750
 11
1243.731862
 21
863.878644
 70
     0
  1
391
 13
1243.731862
 23
1059.218750
 14
1305.067295
 24
668.538538
 50
-90.000000
  0
DIMENSION
  8
1
 62
7
  6
CONTINUOUS
  2
*D27
 10
1243.731862
 20
668.538538
 11
1243.731862
 21
655.878644
 70
     0
  1
25
 13
1243.731862
 23
668.538538
 14
1305.067295
 24
643.218750
 50
-90.000000
  0
LINE
  8
1
 62
7
  6
CONTINUOUS
 10
1342.083469
 20
1059.218750
 11
1348.348938
 21
1067.218750
  0
LINE
  8
1
 62
7
  6
CONTINUOUS
 10
1357.506162
 20
1059.218750
 11
1362.325754
 21
1067.218750
  0
LINE
  8
1
 62
7
  6
CONTINUOUS
 10
1370.519059
 20
1059.218750
 11
1376.302569
 21
1067.218750
  0
LINE
  8
1
 62
7
  6
CONTINUOUS
 10
1386.423712
 20
1059.218750
 11
1391.243303
 21
1067.218750
  0
LINE
  8
1
 62
7
  6
CONTINUOUS
 10
1404.256201
 20
1059.218750
 11
1407.147956
 21
1067.218750
  0
LINE
  8
1
 62
7
  6
CONTINUOUS
 10
1421.124772
 20
1059.218750
 11
1424.980445
 21
1067.218750
  0
LINE
  8
1
 62
7
  6
CONTINUOUS
 10
1436.547465
 20
1059.218750
 11
1441.367056
 21
1067.218750
  0
LINE
  8
1
 62
7
  6
CONTINUOUS
 10
1451.488199
 20
1059.218750
 11
1456.307791
 21
1067.218750
  0
LINE
  8
1
 62
7
  6
CONTINUOUS
 10
1463.055219
 20
1059.218750
 11
1466.632822
 21
1067.218750
  0
LINE
  8
1
 62
7
  6
CONTINUOUS
 10
1469.067295
 20
1049.218750
 11
1476.430781
 21
1059.218750
  0
LINE
  8
1
 62
7
  6
CONTINUOUS
 10
1469.067295
 20
1041.718738
 11
1476.632822
 21
1042.384728
  0
LINE
  8
1
 62
7
  6
CONTINUOUS
 10
1315.067295
 20
1073.137948
 11
1327.067295
 21
1081.003360
  0
LINE
  8
1
 62
7
  6
CONTINUOUS
 10
1315.067295
 20
1063.980723
 11
1327.067295
 21
1071.692070
  0
LINE
  8
1
 62
7
  6
CONTINUOUS
 10
1315.067295
 20
1059.218750
 11
1327.067295
 21
1059.218750
  0
ARC
  8
1
 62
7
  6
CONTINUOUS
 10
1168.750241
 20
930.118196
 40
300.000000
 50
-60.808936
 51
-0.808936
  0
LINE
  8
1
 62
7
  6
CONTINUOUS
 10
1327.067295
 20
661.161516
 11
1327.067295
 21
662.544083
  0
ARC
  8
1
 62
7
  6
CONTINUOUS
 10
1168.750241
 20
930.118196
 40
308.000000
 50
-58.445947
 51
-0.846225
  0
ARC
  8
1
 62
7
  6
CONTINUOUS
 10
1333.067295
 20
662.544083
 40
6.000000
 50
121.554053
 51
180.000000
  0
LINE
  8
1
 62
7
  6
CONTINUOUS
 10
1477.088305
 20
974.844974
 11
1476.716649
 21
925.569384
  0
LINE
  8
1
 62
7
  6
CONTINUOUS
 10
1468.971183
 20
962.636286
 11
1477.033572
 21
967.588210
  0
LINE
  8
1
 62
7
  6
CONTINUOUS
 10
1468.835733
 20
942.790061
 11
1476.143196
 21
949.446193
  0
LINE
  8
1
 62
7
  6
CONTINUOUS
 10
1468.720342
 20
925.882759
 11
1476.750226
 21
930.021145
  0
LINE
  8
1
 62
7
  6
CONTINUOUS
 10
1467.792106
 20
906.160667
 11
1476.084182
 21
909.873475
  0
LINE
  8
1
 62
7
  6
CONTINUOUS
 10
1465.538889
 20
886.340364
 11
1473.962612
 21
888.773202
  0
LINE
  8
1
 62
7
  6
CONTINUOUS
 10
1462.477386
 20
869.090625
 11
1471.134162
 21
871.569374
  0
LINE
  8
1
 62
7
  6
CONTINUOUS
 10
1458.279166
 20
851.549745
 11
1466.851467
 21
852.660729
  0
LINE
  8
1
 62
7
  6
CONTINUOUS
 10
1452.900846
 20
833.897439
 11
1461.235345
 21
833.596363
  0
LINE
  8
1
 62
7
  6
CONTINUOUS
 10
1445.548988
 20
814.435639
 11
1454.848549
 21
816.049102
  0
LINE
  8
1
 62
7
  6
CONTINUOUS
 10
1438.951489
 20
799.767569
 11
1448.221969
 21
800.659501
  0
LINE
  8
1
 62
7
  6
CONTINUOUS
 10
1429.095241
 20
781.052838
 11
1437.900630
 21
780.378193
  0
LINE
  8
1
 62
7
  6
CONTINUOUS
 10
1421.762135
 20
768.919617
 11
1430.888051
 21
768.415479
  0
LINE
  8
1
 62
7
  6
CONTINUOUS
 10
1413.083399
 20
756.045487
 11
1421.633213
 21
754.293844
  0
LINE
  8
1
 62
7
  6
CONTINUOUS
 10
1401.721642
 20
741.109396
 11
1407.633796
 21
735.699453
  0
LINE
  8
1
 62
7
  6
CONTINUOUS
 10
1393.421381
 20
731.314577
 11
1400.362977
 21
727.092235
  0
LINE
  8
1
 62
7
  6
CONTINUOUS
 10
1382.075426
 20
719.186061
 11
1388.968421
 21
714.786003
  0
LINE
  8
1
 62
7
  6
CONTINUOUS
 10
1369.745871
 20
707.405923
 11
1378.289823
 21
704.381261
  0
LINE
  8
1
 62
7
  6
CONTINUOUS
 10
1355.611862
 20
695.421084
 11
1364.504875
 21
692.328113
  0
LINE
  8
1
 62
7
  6
CONTINUOUS
 10
1342.416788
 20
685.496180
 11
1351.557262
 21
682.235979
  0
LINE
  8
1
 62
7
  6
CONTINUOUS
 10
1332.874505
 20
678.994270
 11
1344.137619
 21
676.931964
  0
LINE
  8
1
 62
7
  6
CONTINUOUS
 10
1327.067295
 20
675.293334
 11
1336.580287
 21
671.860426
  0
LINE
  8
1
 62
7
  6
CONTINUOUS
 10
1315.067295
 20
668.218750
 11
1327.067295
 21
662.544085
  0
LINE
  8
1
 62
7
  6
CONTINUOUS
 10
1315.067295
 20
659.091777
 11
1327.067295
 21
652.585391
  0
LINE
  8
1
 62
7
  6
CONTINUOUS
 10
1327.067295
 20
1081.003360
 11
1327.067295
 21
1073.218750
  0
LINE
  8
1
 62
7
  6
CONTINUOUS
 10
1333.067295
 20
1067.218750
 11
1466.632822
 21
1067.218750
  0
ARC
  8
1
 62
7
  6
CONTINUOUS
 10
1333.067295
 20
1073.218750
 40
6.000000
 50
180.000000
 51
-90.000000
  0
ENDSEC
  0
EOF
