  0
SECTION
  2
HEADER
  9
$ACADVER
  1
AC1003
  9
$INSBASE
 10
0.000000
 20
0.000000
  9
$EXTMIN
 10
0.000000
 20
0.000000
  9
$EXTMAX
 10
1820.000000
 20
1285.000000
  9
$LIMMIN
 10
0.000000
 20
0.000000
  9
$LIMMAX
 10
1820.000000
 20
1285.000000
  9
$VIEWCTR
 10
910.000000
 20
642.500000
  9
$VIEWSIZE
 40
1285.000000
  9
$PEXTMIN
 10
0.000000
 20
0.000000
 30
0.000000
  9
$PEXTMAX
 10
364.000000
 20
257.000000
 30
0.000000
  9
$SNAPMODE
 70
     0
  9
$SNAPUNIT
 10
1.000000
 20
1.000000
  9
$SNAPBASE
 10
0.000000
 20
0.000000
  9
$SNAPANG
 50
0.000000
  9
$SNAPISOPAIR
 70
     0
  9
$SNAPSTYLE
 70
     0
  9
$GRIDMODE
 70
     0
  9
$GRIDUNIT
 10
0.000000
 20
0.000000
  9
$ORTHOMODE
 70
     0
  9
$REGENMODE
 70
     1
  9
$FILLMODE
 70
     1
  9
$QTEXTMODE
 70
     0
  9
$DRAGMODE
 70
     2
  9
$LTSCALE
 40
1.250000
  9
$OSMODE
 70
     0
  9
$ATTMODE
 70
     1
  9
$TEXTSIZE
 40
0.200000
  9
$TRACEWID
 40
0.050000
  9
$TEXTSTYLE
  7
STANDARD
  9
$CLAYER
  8
0
  9
$CELTYPE
  6
BYLAYER
  9
$CECOLOR
 62
   256
  9
$DIMSCALE
 40
1.000000
  9
$DIMASZ
 40
1.000000
  9
$DIMEXO
 40
0.000000
  9
$DIMDLI
 40
0.500000
  9
$DIMRND
 40
0.000000
  9
$DIMDLE
 40
0.000000
  9
$DIMEXE
 40
0.000000
  9
$DIMTP
 40
0.000000
  9
$DIMTM
 40
0.000000
  9
$DIMTXT
 40
0.180000
  9
$DIMCEN
 40
0.000000
  9
$DIMTSZ
 40
0.000000
  9
$DIMTOL
 70
     0
  9
$DIMLIM
 70
     0
  9
$DIMTIH
 70
     1
  9
$DIMTOH
 70
     1
  9
$DIMSE1
 70
     0
  9
$DIMSE2
 70
     0
  9
$DIMTAD
 70
     0
  9
$DIMZIN
 70
     0
  9
$DIMBLK
  1

  9
$DIMASO
 70
     0
  9
$DIMSHO
 70
     0
  9
$DIMPOST
  1

  9
$DIMAPOST
  1

  9
$DIMALT
 70
     0
  9
$DIMALTD
 70
     0
  9
$DIMALTF
 40
25.400000
  9
$DIMLFAC
 40
1.000000
  9
$DIMTOFL
 70
     0
  9
$DIMTVP
 40
0.000000
  9
$DIMTIX
 70
     0
  9
$DIMSOXD
 70
     0
  9
$DIMSAH
 70
     0
  9
$DIMBLKL
  1

  9
$DIMBLKR
  1

  9
$LUNITS
 70
     2
  9
$LUPREC
 70
     2
  9
$AXISMODE
 70
     0
  9
$AXISUNIT
 10
1.000000
 20
1.000000
  9
$SKETCHINC
 40
0.000000
  9
$FILLETRAD
 40
0.000000
  9
$AUNITS
 70
     1
  9
$AUPREC
 70
     2
  9
$MENU
  1
ACAD
  9
$ELEVATION
 40
0.000000
  9
$THICKNESS
 40
0.000000
  9
$VIEWDIR
 10
0.000000
 20
0.000000
 30
1.000000
  9
$LIMCHECK
 70
     1
  9
$BLIPMODE
 70
     1
  9
$CHAMFERA
 40
0.000000
  9
$CHAMFERB
 40
0.000000
  9
$FASTZOOM
 70
     1
  9
$SKPOLY
 70
     0
  9
$TDCREATE
 40
0.000000
  9
$TDUPDATE
 40
0.000000
  9
$TDINDWG
 40
0.000000
  9
$TDUSRTIMER
 40
0.000000
  9
$USRTIMER
 70
     1
  9
$ANGBASE
 50
0.000000
  9
$ANGDIR
 70
     0
  9
$PDMODE
 70
     0
  9
$PDSIZE
 40
0.000000
  9
$PLINEWID
 40
0.000000
  9
$COORDS
 70
     2
  9
$USERI1
 70
     0
  9
$USERI2
 70
     0
  9
$USERI3
 70
     0
  9
$USERI4
 70
     0
  9
$USERI5
 70
     0
  9
$USERR1
 40
0.000000
  9
$USERR2
 40
0.000000
  9
$USERR3
 40
0.000000
  9
$USERR4
 40
0.000000
  9
$USERR5
 40
0.000000
  0
ENDSEC
  0
SECTION
  2
TABLES
  0
TABLE
  2
LTYPE
 70
     5
  0
LTYPE
  2
CONTINUOUS
 70
    64
  3
Solid line
 72
    65
 73
     0
 40
0.0
  0
LTYPE
  2
HIDDEN
 70
    64
  3
------------------------
 72
    65
 73
     2
 40
12.6
 49
8.4
 49
-4.2
  0
LTYPE
  2
DOT
 70
    64
  3
････････････････････････
 72
    65
 73
     2
 40
8.0
 49
6.0
 49
-2.0
  0
LTYPE
  2
DASHDOT
 70
    64
  3
--･--･--･--･--･--･--･--
 72
    65
 73
     4
 40
50.5
 49
30.0
 49
-9.0
 49
2.5
 49
-9.0
  0
LTYPE
  2
DIVIDE
 70
    64
  3
--･･--･･--･･--･･--･･--
 72
    65
 73
     6
 40
58.0
 49
30.0
 49
-9.0
 49
2.5
 49
-5.0
 49
2.5
 49
-9.0
  0
ENDTAB
  0
TABLE
  2
LAYER
 70
1
  0
LAYER
  2
1
 70
64
 62
7
  6
CONTINUOUS
  0
ENDTAB
  0
TABLE
  2
STYLE
 70
     2
  0
STYLE
  2
STANDARD
 70
    64
 40
0.0
 41
1.0
 50
0.0
 71
     0
 42
0.2
  3
TXT
  4

  0
STYLE
  2
KANJI
 70
    64
 40
0.0
 41
1.0
 50
0.0
 71
     0
 42
0.2
  3
TXT
  4
BIGFONT
  0
ENDTAB
  0
TABLE
  2
VIEW
 70
     0
  0
ENDTAB
  0
ENDSEC
  0
SECTION
  2
BLOCKS
  0
BLOCK
  8
1
 62
7
  6
CONTINUOUS
  2
*D1
 70
    65
 10
0.0
 20
0.0
  0
LINE
  8
1
 62
7
  6
CONTINUOUS
 10
468.489583
 20
464.875000
 11
468.489583
 21
486.875000
  0
LINE
  8
1
 62
7
  6
CONTINUOUS
 10
458.489583
 20
469.875000
 11
514.534779
 21
469.875000
  0
LINE
  8
1
 62
7
  6
CONTINUOUS
 10
458.489583
 20
481.875000
 11
514.534779
 21
481.875000
  0
CIRCLE
  8
1
 62
7
  6
CONTINUOUS
 10
468.489583
 20
469.875000
 40
1.500000
  0
CIRCLE
  8
1
 62
7
  6
CONTINUOUS
 10
468.489583
 20
469.875000
 40
0.750000
  0
CIRCLE
  8
1
 62
7
  6
CONTINUOUS
 10
468.489583
 20
481.875000
 40
1.500000
  0
CIRCLE
  8
1
 62
7
  6
CONTINUOUS
 10
468.489583
 20
481.875000
 40
0.750000
  0
TEXT
  8
1
 62
7
  6
CONTINUOUS
 10
468.489583
 20
465.875000
 40
20.000000
 41
0.500000
  1
12
  7
KANJI
 50
90.000000
 51
30.000000
  0
ENDBLK
  0
BLOCK
  8
1
 62
7
  6
CONTINUOUS
  2
*D2
 70
    65
 10
0.0
 20
0.0
  0
LINE
  8
1
 62
7
  6
CONTINUOUS
 10
784.225693
 20
256.998262
 11
844.225693
 21
256.998262
  0
LINE
  8
1
 62
7
  6
CONTINUOUS
 10
784.225693
 20
246.998262
 11
784.225693
 21
306.875000
  0
LINE
  8
1
 62
7
  6
CONTINUOUS
 10
844.225693
 20
246.998262
 11
844.225693
 21
306.875000
  0
CIRCLE
  8
1
 62
7
  6
CONTINUOUS
 10
784.225693
 20
256.998262
 40
1.500000
  0
CIRCLE
  8
1
 62
7
  6
CONTINUOUS
 10
784.225693
 20
256.998262
 40
0.750000
  0
CIRCLE
  8
1
 62
7
  6
CONTINUOUS
 10
844.225693
 20
256.998262
 40
1.500000
  0
CIRCLE
  8
1
 62
7
  6
CONTINUOUS
 10
844.225693
 20
256.998262
 40
0.750000
  0
TEXT
  8
1
 62
7
  6
CONTINUOUS
 10
804.225693
 20
256.998262
 40
20.000000
 41
0.500000
  1
60
  7
KANJI
 50
0.000000
 51
30.000000
  0
ENDBLK
  0
BLOCK
  8
1
 62
7
  6
CONTINUOUS
  2
*D3
 70
    65
 10
0.0
 20
0.0
  0
LINE
  8
1
 62
7
  6
CONTINUOUS
 10
504.184028
 20
1033.446193
 11
504.184028
 21
938.446193
  0
LINE
  8
1
 62
7
  6
CONTINUOUS
 10
494.184028
 20
1033.446193
 11
566.725694
 21
1033.446193
  0
LINE
  8
1
 62
7
  6
CONTINUOUS
 10
494.184028
 20
938.446193
 11
566.725694
 21
938.446193
  0
CIRCLE
  8
1
 62
7
  6
CONTINUOUS
 10
504.184028
 20
1033.446193
 40
1.500000
  0
CIRCLE
  8
1
 62
7
  6
CONTINUOUS
 10
504.184028
 20
1033.446193
 40
0.750000
  0
CIRCLE
  8
1
 62
7
  6
CONTINUOUS
 10
504.184028
 20
938.446193
 40
1.500000
  0
CIRCLE
  8
1
 62
7
  6
CONTINUOUS
 10
504.184028
 20
938.446193
 40
0.750000
  0
TEXT
  8
1
 62
7
  6
CONTINUOUS
 10
504.184028
 20
975.946193
 40
20.000000
 41
0.500000
  1
95
  7
KANJI
 50
90.000000
 51
30.000000
  0
ENDBLK
  0
BLOCK
  8
1
 62
7
  6
CONTINUOUS
  2
*D4
 70
    65
 10
0.0
 20
0.0
  0
LINE
  8
1
 62
7
  6
CONTINUOUS
 10
468.489583
 20
1058.446193
 11
468.489583
 21
1033.446193
  0
LINE
  8
1
 62
7
  6
CONTINUOUS
 10
458.489583
 20
1058.446193
 11
566.725694
 21
1058.446193
  0
LINE
  8
1
 62
7
  6
CONTINUOUS
 10
458.489583
 20
1033.446193
 11
566.725694
 21
1033.446193
  0
CIRCLE
  8
1
 62
7
  6
CONTINUOUS
 10
468.489583
 20
1058.446193
 40
1.500000
  0
CIRCLE
  8
1
 62
7
  6
CONTINUOUS
 10
468.489583
 20
1058.446193
 40
0.750000
  0
CIRCLE
  8
1
 62
7
  6
CONTINUOUS
 10
468.489583
 20
1033.446193
 40
1.500000
  0
CIRCLE
  8
1
 62
7
  6
CONTINUOUS
 10
468.489583
 20
1033.446193
 40
0.750000
  0
TEXT
  8
1
 62
7
  6
CONTINUOUS
 10
468.489583
 20
1035.946193
 40
20.000000
 41
0.500000
  1
25
  7
KANJI
 50
90.000000
 51
30.000000
  0
ENDBLK
  0
BLOCK
  8
1
 62
7
  6
CONTINUOUS
  2
*D5
 70
    65
 10
0.0
 20
0.0
  0
LINE
  8
1
 62
7
  6
CONTINUOUS
 10
468.489583
 20
1033.446193
 11
468.489583
 21
696.446193
  0
LINE
  8
1
 62
7
  6
CONTINUOUS
 10
458.489583
 20
696.446193
 11
566.725694
 21
696.446193
  0
CIRCLE
  8
1
 62
7
  6
CONTINUOUS
 10
468.489583
 20
696.446193
 40
1.500000
  0
CIRCLE
  8
1
 62
7
  6
CONTINUOUS
 10
468.489583
 20
696.446193
 40
0.750000
  0
TEXT
  8
1
 62
7
  6
CONTINUOUS
 10
468.489583
 20
849.946193
 40
20.000000
 41
0.500000
  1
337
  7
KANJI
 50
90.000000
 51
30.000000
  0
ENDBLK
  0
BLOCK
  8
1
 62
7
  6
CONTINUOUS
  2
*D6
 70
    65
 10
0.0
 20
0.0
  0
LINE
  8
1
 62
7
  6
CONTINUOUS
 10
468.489583
 20
696.446193
 11
468.489583
 21
671.446193
  0
LINE
  8
1
 62
7
  6
CONTINUOUS
 10
458.489583
 20
671.446193
 11
566.725694
 21
671.446193
  0
CIRCLE
  8
1
 62
7
  6
CONTINUOUS
 10
468.489583
 20
671.446193
 40
1.500000
  0
CIRCLE
  8
1
 62
7
  6
CONTINUOUS
 10
468.489583
 20
671.446193
 40
0.750000
  0
TEXT
  8
1
 62
7
  6
CONTINUOUS
 10
468.489583
 20
673.946193
 40
20.000000
 41
0.500000
  1
25
  7
KANJI
 50
90.000000
 51
30.000000
  0
ENDBLK
  0
BLOCK
  8
1
 62
7
  6
CONTINUOUS
  2
*D7
 70
    65
 10
0.0
 20
0.0
  0
LINE
  8
1
 62
7
  6
CONTINUOUS
 10
430.564236
 20
1058.446193
 11
430.564236
 21
671.446193
  0
LINE
  8
1
 62
7
  6
CONTINUOUS
 10
420.564236
 20
1058.446193
 11
566.725694
 21
1058.446193
  0
LINE
  8
1
 62
7
  6
CONTINUOUS
 10
420.564236
 20
671.446193
 11
566.725694
 21
671.446193
  0
CIRCLE
  8
1
 62
7
  6
CONTINUOUS
 10
430.564236
 20
1058.446193
 40
1.500000
  0
CIRCLE
  8
1
 62
7
  6
CONTINUOUS
 10
430.564236
 20
1058.446193
 40
0.750000
  0
CIRCLE
  8
1
 62
7
  6
CONTINUOUS
 10
430.564236
 20
671.446193
 40
1.500000
  0
CIRCLE
  8
1
 62
7
  6
CONTINUOUS
 10
430.564236
 20
671.446193
 40
0.750000
  0
TEXT
  8
1
 62
7
  6
CONTINUOUS
 10
430.564236
 20
849.946193
 40
20.000000
 41
0.500000
  1
387
  7
KANJI
 50
90.000000
 51
30.000000
  0
ENDBLK
  0
BLOCK
  8
1
 62
7
  6
CONTINUOUS
  2
*D8
 70
    65
 10
0.0
 20
0.0
  0
LINE
  8
1
 62
7
  6
CONTINUOUS
 10
576.725694
 20
1180.147569
 11
1051.725694
 21
1180.147569
  0
LINE
  8
1
 62
7
  6
CONTINUOUS
 10
576.725694
 20
1190.147569
 11
576.725694
 21
1068.446193
  0
LINE
  8
1
 62
7
  6
CONTINUOUS
 10
1051.725694
 20
1190.147569
 11
1051.725694
 21
1068.446193
  0
CIRCLE
  8
1
 62
7
  6
CONTINUOUS
 10
576.725694
 20
1180.147569
 40
1.500000
  0
CIRCLE
  8
1
 62
7
  6
CONTINUOUS
 10
576.725694
 20
1180.147569
 40
0.750000
  0
CIRCLE
  8
1
 62
7
  6
CONTINUOUS
 10
1051.725694
 20
1180.147569
 40
1.500000
  0
CIRCLE
  8
1
 62
7
  6
CONTINUOUS
 10
1051.725694
 20
1180.147569
 40
0.750000
  0
TEXT
  8
1
 62
7
  6
CONTINUOUS
 10
799.225694
 20
1180.147569
 40
20.000000
 41
0.500000
  1
475
  7
KANJI
 50
0.000000
 51
30.000000
  0
ENDBLK
  0
BLOCK
  8
1
 62
7
  6
CONTINUOUS
  2
*D9
 70
    65
 10
0.0
 20
0.0
  0
LINE
  8
1
 62
7
  6
CONTINUOUS
 10
576.725694
 20
1142.222222
 11
601.725694
 21
1142.222222
  0
LINE
  8
1
 62
7
  6
CONTINUOUS
 10
576.725694
 20
1152.222222
 11
576.725694
 21
1068.446193
  0
LINE
  8
1
 62
7
  6
CONTINUOUS
 10
601.725694
 20
1152.222222
 11
601.725694
 21
1068.446193
  0
CIRCLE
  8
1
 62
7
  6
CONTINUOUS
 10
576.725694
 20
1142.222222
 40
1.500000
  0
CIRCLE
  8
1
 62
7
  6
CONTINUOUS
 10
576.725694
 20
1142.222222
 40
0.750000
  0
CIRCLE
  8
1
 62
7
  6
CONTINUOUS
 10
601.725694
 20
1142.222222
 40
1.500000
  0
CIRCLE
  8
1
 62
7
  6
CONTINUOUS
 10
601.725694
 20
1142.222222
 40
0.750000
  0
TEXT
  8
1
 62
7
  6
CONTINUOUS
 10
579.225694
 20
1142.222222
 40
20.000000
 41
0.500000
  1
25
  7
KANJI
 50
0.000000
 51
30.000000
  0
ENDBLK
  0
BLOCK
  8
1
 62
7
  6
CONTINUOUS
  2
*D10
 70
    65
 10
0.0
 20
0.0
  0
LINE
  8
1
 62
7
  6
CONTINUOUS
 10
601.725694
 20
1142.222222
 11
1026.725694
 21
1142.222222
  0
LINE
  8
1
 62
7
  6
CONTINUOUS
 10
1026.725694
 20
1152.222222
 11
1026.725694
 21
1068.446193
  0
CIRCLE
  8
1
 62
7
  6
CONTINUOUS
 10
1026.725694
 20
1142.222222
 40
1.500000
  0
CIRCLE
  8
1
 62
7
  6
CONTINUOUS
 10
1026.725694
 20
1142.222222
 40
0.750000
  0
TEXT
  8
1
 62
7
  6
CONTINUOUS
 10
799.225694
 20
1142.222222
 40
20.000000
 41
0.500000
  1
425
  7
KANJI
 50
0.000000
 51
30.000000
  0
ENDBLK
  0
BLOCK
  8
1
 62
7
  6
CONTINUOUS
  2
*D11
 70
    65
 10
0.0
 20
0.0
  0
LINE
  8
1
 62
7
  6
CONTINUOUS
 10
1026.725694
 20
1142.222222
 11
1051.725694
 21
1142.222222
  0
LINE
  8
1
 62
7
  6
CONTINUOUS
 10
1051.725694
 20
1152.222222
 11
1051.725694
 21
1068.446193
  0
CIRCLE
  8
1
 62
7
  6
CONTINUOUS
 10
1051.725694
 20
1142.222222
 40
1.500000
  0
CIRCLE
  8
1
 62
7
  6
CONTINUOUS
 10
1051.725694
 20
1142.222222
 40
0.750000
  0
TEXT
  8
1
 62
7
  6
CONTINUOUS
 10
1029.225694
 20
1142.222222
 40
20.000000
 41
0.500000
  1
25
  7
KANJI
 50
0.000000
 51
30.000000
  0
ENDBLK
  0
BLOCK
  8
1
 62
7
  6
CONTINUOUS
  2
*D12
 70
    65
 10
0.0
 20
0.0
  0
LINE
  8
1
 62
7
  6
CONTINUOUS
 10
786.725694
 20
843.929851
 11
841.725694
 21
843.929851
  0
LINE
  8
1
 62
7
  6
CONTINUOUS
 10
786.725694
 20
833.929851
 11
786.725694
 21
928.446181
  0
LINE
  8
1
 62
7
  6
CONTINUOUS
 10
841.725694
 20
833.929851
 11
841.725694
 21
928.446181
  0
CIRCLE
  8
1
 62
7
  6
CONTINUOUS
 10
786.725694
 20
843.929851
 40
1.500000
  0
CIRCLE
  8
1
 62
7
  6
CONTINUOUS
 10
786.725694
 20
843.929851
 40
0.750000
  0
CIRCLE
  8
1
 62
7
  6
CONTINUOUS
 10
841.725694
 20
843.929851
 40
1.500000
  0
CIRCLE
  8
1
 62
7
  6
CONTINUOUS
 10
841.725694
 20
843.929851
 40
0.750000
  0
TEXT
  8
1
 62
7
  6
CONTINUOUS
 10
804.225694
 20
843.929851
 40
20.000000
 41
0.500000
  1
60
  7
KANJI
 50
0.000000
 51
30.000000
  0
ENDBLK
  0
BLOCK
  8
1
 62
7
  6
CONTINUOUS
  2
*D13
 70
    65
 10
0.0
 20
0.0
  0
LINE
  8
1
 62
7
  6
CONTINUOUS
 10
791.725694
 20
867.628738
 11
836.725694
 21
867.628738
  0
LINE
  8
1
 62
7
  6
CONTINUOUS
 10
791.725694
 20
857.628738
 11
791.725694
 21
928.446181
  0
LINE
  8
1
 62
7
  6
CONTINUOUS
 10
836.725694
 20
857.628738
 11
836.725694
 21
928.446181
  0
CIRCLE
  8
1
 62
7
  6
CONTINUOUS
 10
791.725694
 20
867.628738
 40
1.500000
  0
CIRCLE
  8
1
 62
7
  6
CONTINUOUS
 10
791.725694
 20
867.628738
 40
0.750000
  0
CIRCLE
  8
1
 62
7
  6
CONTINUOUS
 10
836.725694
 20
867.628738
 40
1.500000
  0
CIRCLE
  8
1
 62
7
  6
CONTINUOUS
 10
836.725694
 20
867.628738
 40
0.750000
  0
TEXT
  8
1
 62
7
  6
CONTINUOUS
 10
804.225694
 20
867.628738
 40
20.000000
 41
0.500000
  1
44
  7
KANJI
 50
0.000000
 51
30.000000
  0
ENDBLK
  0
BLOCK
  8
1
 62
7
  6
CONTINUOUS
  2
*D14
 70
    65
 10
0.0
 20
0.0
  0
LINE
  8
1
 62
7
  6
CONTINUOUS
 10
791.725694
 20
288.579649
 11
836.725694
 21
288.579649
  0
LINE
  8
1
 62
7
  6
CONTINUOUS
 10
791.725694
 20
278.579649
 11
791.725694
 21
306.875000
  0
LINE
  8
1
 62
7
  6
CONTINUOUS
 10
836.725694
 20
278.579649
 11
836.725694
 21
306.875000
  0
CIRCLE
  8
1
 62
7
  6
CONTINUOUS
 10
791.725694
 20
288.579649
 40
1.500000
  0
CIRCLE
  8
1
 62
7
  6
CONTINUOUS
 10
791.725694
 20
288.579649
 40
0.750000
  0
CIRCLE
  8
1
 62
7
  6
CONTINUOUS
 10
836.725694
 20
288.579649
 40
1.500000
  0
CIRCLE
  8
1
 62
7
  6
CONTINUOUS
 10
836.725694
 20
288.579649
 40
0.750000
  0
TEXT
  8
1
 62
7
  6
CONTINUOUS
 10
804.225694
 20
288.579649
 40
20.000000
 41
0.500000
  1
44
  7
KANJI
 50
0.000000
 51
30.000000
  0
ENDBLK
  0
BLOCK
  8
1
 62
7
  6
CONTINUOUS
  2
*D15
 70
    65
 10
0.0
 20
0.0
  0
LINE
  8
1
 62
7
  6
CONTINUOUS
 10
576.725694
 20
592.475296
 11
1051.725694
 21
592.475296
  0
LINE
  8
1
 62
7
  6
CONTINUOUS
 10
576.725694
 20
602.475296
 11
576.725694
 21
491.875000
  0
LINE
  8
1
 62
7
  6
CONTINUOUS
 10
1051.725694
 20
602.475296
 11
1051.725694
 21
491.874997
  0
CIRCLE
  8
1
 62
7
  6
CONTINUOUS
 10
576.725694
 20
592.475296
 40
1.500000
  0
CIRCLE
  8
1
 62
7
  6
CONTINUOUS
 10
576.725694
 20
592.475296
 40
0.750000
  0
CIRCLE
  8
1
 62
7
  6
CONTINUOUS
 10
1051.725694
 20
592.475296
 40
1.500000
  0
CIRCLE
  8
1
 62
7
  6
CONTINUOUS
 10
1051.725694
 20
592.475296
 40
0.750000
  0
TEXT
  8
1
 62
7
  6
CONTINUOUS
 10
799.225694
 20
592.475296
 40
20.000000
 41
0.500000
  1
475
  7
KANJI
 50
0.000000
 51
30.000000
  0
ENDBLK
  0
BLOCK
  8
1
 62
7
  6
CONTINUOUS
  2
*D16
 70
    65
 10
0.0
 20
0.0
  0
LINE
  8
1
 62
7
  6
CONTINUOUS
 10
435.026041
 20
481.875000
 11
435.026041
 21
316.875000
  0
LINE
  8
1
 62
7
  6
CONTINUOUS
 10
425.026041
 20
481.875000
 11
547.726240
 21
481.875000
  0
LINE
  8
1
 62
7
  6
CONTINUOUS
 10
425.026041
 20
316.875000
 11
547.725694
 21
316.875000
  0
CIRCLE
  8
1
 62
7
  6
CONTINUOUS
 10
435.026041
 20
481.875000
 40
1.500000
  0
CIRCLE
  8
1
 62
7
  6
CONTINUOUS
 10
435.026041
 20
481.875000
 40
0.750000
  0
CIRCLE
  8
1
 62
7
  6
CONTINUOUS
 10
435.026041
 20
316.875000
 40
1.500000
  0
CIRCLE
  8
1
 62
7
  6
CONTINUOUS
 10
435.026041
 20
316.875000
 40
0.750000
  0
TEXT
  8
1
 62
7
  6
CONTINUOUS
 10
435.026041
 20
384.375000
 40
20.000000
 41
0.500000
  1
159
  7
KANJI
 50
90.000000
 51
30.000000
  0
ENDBLK
  0
BLOCK
  8
1
 62
7
  6
CONTINUOUS
  2
*D17
 70
    65
 10
0.0
 20
0.0
  0
LINE
  8
1
 62
7
  6
CONTINUOUS
 10
1538.117813
 20
979.446193
 11
1538.117813
 21
919.446193
  0
LINE
  8
1
 62
7
  6
CONTINUOUS
 10
1548.117813
 20
979.446193
 11
1448.845486
 21
979.446193
  0
LINE
  8
1
 62
7
  6
CONTINUOUS
 10
1548.117813
 20
919.446193
 11
1448.845486
 21
919.446193
  0
CIRCLE
  8
1
 62
7
  6
CONTINUOUS
 10
1538.117813
 20
979.446193
 40
1.500000
  0
CIRCLE
  8
1
 62
7
  6
CONTINUOUS
 10
1538.117813
 20
979.446193
 40
0.750000
  0
CIRCLE
  8
1
 62
7
  6
CONTINUOUS
 10
1538.117813
 20
919.446193
 40
1.500000
  0
CIRCLE
  8
1
 62
7
  6
CONTINUOUS
 10
1538.117813
 20
919.446193
 40
0.750000
  0
TEXT
  8
1
 62
7
  6
CONTINUOUS
 10
1538.117813
 20
939.446193
 40
20.000000
 41
0.500000
  1
60
  7
KANJI
 50
90.000000
 51
30.000000
  0
ENDBLK
  0
BLOCK
  8
1
 62
7
  6
CONTINUOUS
  2
*D18
 70
    65
 10
0.0
 20
0.0
  0
LINE
  8
1
 62
7
  6
CONTINUOUS
 10
1268.845486
 20
1103.515155
 11
1290.845486
 21
1103.515155
  0
LINE
  8
1
 62
7
  6
CONTINUOUS
 10
1273.845486
 20
1113.515155
 11
1273.845486
 21
1074.446193
  0
LINE
  8
1
 62
7
  6
CONTINUOUS
 10
1285.845486
 20
1113.515155
 11
1285.845486
 21
1074.446193
  0
CIRCLE
  8
1
 62
7
  6
CONTINUOUS
 10
1273.845486
 20
1103.515155
 40
1.500000
  0
CIRCLE
  8
1
 62
7
  6
CONTINUOUS
 10
1273.845486
 20
1103.515155
 40
0.750000
  0
CIRCLE
  8
1
 62
7
  6
CONTINUOUS
 10
1285.845486
 20
1103.515155
 40
1.500000
  0
CIRCLE
  8
1
 62
7
  6
CONTINUOUS
 10
1285.845486
 20
1103.515155
 40
0.750000
  0
TEXT
  8
1
 62
7
  6
CONTINUOUS
 10
1269.845486
 20
1103.515155
 40
20.000000
 41
0.500000
  1
12
  7
KANJI
 50
0.000000
 51
30.000000
  0
ENDBLK
  0
BLOCK
  8
1
 62
7
  6
CONTINUOUS
  2
*D19
 70
    65
 10
0.0
 20
0.0
  0
LINE
  8
1
 62
7
  6
CONTINUOUS
 10
1413.368124
 20
916.946193
 11
1413.368124
 21
981.946193
  0
LINE
  8
1
 62
7
  6
CONTINUOUS
 10
1403.368124
 20
916.946193
 11
1415.845486
 21
916.946193
  0
LINE
  8
1
 62
7
  6
CONTINUOUS
 10
1403.368124
 20
981.946193
 11
1415.845486
 21
981.946193
  0
CIRCLE
  8
1
 62
7
  6
CONTINUOUS
 10
1413.368124
 20
916.946193
 40
1.500000
  0
CIRCLE
  8
1
 62
7
  6
CONTINUOUS
 10
1413.368124
 20
916.946193
 40
0.750000
  0
CIRCLE
  8
1
 62
7
  6
CONTINUOUS
 10
1413.368124
 20
981.946193
 40
1.500000
  0
CIRCLE
  8
1
 62
7
  6
CONTINUOUS
 10
1413.368124
 20
981.946193
 40
0.750000
  0
TEXT
  8
1
 62
7
  6
CONTINUOUS
 10
1413.368124
 20
939.446193
 40
20.000000
 41
0.500000
  1
70
  7
KANJI
 50
90.000000
 51
30.000000
  0
ENDBLK
  0
BLOCK
  8
1
 62
7
  6
CONTINUOUS
  2
*D20
 70
    65
 10
0.0
 20
0.0
  0
LINE
  8
1
 62
7
  6
CONTINUOUS
 10
1325.736880
 20
1026.252428
 11
1327.109216
 21
1034.032951
  0
CIRCLE
  8
1
 62
7
  6
CONTINUOUS
 10
1325.736880
 20
1026.252428
 40
1.500000
  0
CIRCLE
  8
1
 62
7
  6
CONTINUOUS
 10
1325.736880
 20
1026.252428
 40
0.750000
  0
CIRCLE
  8
1
 62
7
  6
CONTINUOUS
 10
1327.109216
 20
1034.032951
 40
1.500000
  0
CIRCLE
  8
1
 62
7
  6
CONTINUOUS
 10
1327.109216
 20
1034.032951
 40
0.750000
  0
TEXT
  8
1
 62
7
  6
CONTINUOUS
 10
1322.949053
 20
1010.446716
 40
20.000000
 41
0.500000
  1
   8
  7
KANJI
 50
79.997000
 51
30.000000
  0
ENDBLK
  0
BLOCK
  8
1
 62
7
  6
CONTINUOUS
  2
*D21
 70
    65
 10
0.0
 20
0.0
  0
LINE
  8
1
 62
7
  6
CONTINUOUS
 10
1273.845486
 20
1152.267152
 11
1438.845486
 21
1152.267152
  0
LINE
  8
1
 62
7
  6
CONTINUOUS
 10
1273.845486
 20
1162.267152
 11
1273.845486
 21
1074.446193
  0
LINE
  8
1
 62
7
  6
CONTINUOUS
 10
1438.845486
 20
1162.267152
 11
1438.845486
 21
1074.446193
  0
CIRCLE
  8
1
 62
7
  6
CONTINUOUS
 10
1273.845486
 20
1152.267152
 40
1.500000
  0
CIRCLE
  8
1
 62
7
  6
CONTINUOUS
 10
1273.845486
 20
1152.267152
 40
0.750000
  0
CIRCLE
  8
1
 62
7
  6
CONTINUOUS
 10
1438.845486
 20
1152.267152
 40
1.500000
  0
CIRCLE
  8
1
 62
7
  6
CONTINUOUS
 10
1438.845486
 20
1152.267152
 40
0.750000
  0
TEXT
  8
1
 62
7
  6
CONTINUOUS
 10
1341.345486
 20
1152.267152
 40
20.000000
 41
0.500000
  1
159
  7
KANJI
 50
0.000000
 51
30.000000
  0
ENDBLK
  0
BLOCK
  8
1
 62
7
  6
CONTINUOUS
  2
*D22
 70
    65
 10
0.0
 20
0.0
  0
LINE
  8
1
 62
7
  6
CONTINUOUS
 10
1249.366139
 20
949.446193
 11
1249.366139
 21
1039.446193
  0
LINE
  8
1
 62
7
  6
CONTINUOUS
 10
1239.366139
 20
949.446193
 11
1263.845486
 21
949.446193
  0
LINE
  8
1
 62
7
  6
CONTINUOUS
 10
1239.366139
 20
1039.446193
 11
1263.845486
 21
1039.446193
  0
CIRCLE
  8
1
 62
7
  6
CONTINUOUS
 10
1249.366139
 20
949.446193
 40
1.500000
  0
CIRCLE
  8
1
 62
7
  6
CONTINUOUS
 10
1249.366139
 20
949.446193
 40
0.750000
  0
CIRCLE
  8
1
 62
7
  6
CONTINUOUS
 10
1249.366139
 20
1039.446193
 40
1.500000
  0
CIRCLE
  8
1
 62
7
  6
CONTINUOUS
 10
1249.366139
 20
1039.446193
 40
0.750000
  0
TEXT
  8
1
 62
7
  6
CONTINUOUS
 10
1249.366139
 20
984.446193
 40
20.000000
 41
0.500000
  1
95
  7
KANJI
 50
90.000000
 51
30.000000
  0
ENDBLK
  0
BLOCK
  8
1
 62
7
  6
CONTINUOUS
  2
*D23
 70
    65
 10
0.0
 20
0.0
  0
LINE
  8
1
 62
7
  6
CONTINUOUS
 10
1199.682184
 20
666.126405
 11
1199.682184
 21
1064.446193
  0
LINE
  8
1
 62
7
  6
CONTINUOUS
 10
1189.682184
 20
666.126405
 11
1263.845486
 21
666.126405
  0
LINE
  8
1
 62
7
  6
CONTINUOUS
 10
1189.682184
 20
1064.446193
 11
1263.845486
 21
1064.446193
  0
CIRCLE
  8
1
 62
7
  6
CONTINUOUS
 10
1199.682184
 20
666.126405
 40
1.500000
  0
CIRCLE
  8
1
 62
7
  6
CONTINUOUS
 10
1199.682184
 20
666.126405
 40
0.750000
  0
CIRCLE
  8
1
 62
7
  6
CONTINUOUS
 10
1199.682184
 20
1064.446193
 40
1.500000
  0
CIRCLE
  8
1
 62
7
  6
CONTINUOUS
 10
1199.682184
 20
1064.446193
 40
0.750000
  0
TEXT
  8
1
 62
7
  6
CONTINUOUS
 10
1199.682184
 20
850.286299
 40
20.000000
 41
0.500000
  1
387
  7
KANJI
 50
90.000000
 51
30.000000
  0
ENDBLK
  0
BLOCK
  8
1
 62
7
  6
CONTINUOUS
  2
*D24
 70
    65
 10
0.0
 20
0.0
  0
LINE
  8
1
 62
7
  6
CONTINUOUS
 10
1224.065560
 20
666.446193
 11
1224.065560
 21
691.446193
  0
LINE
  8
1
 62
7
  6
CONTINUOUS
 10
1214.065560
 20
666.446193
 11
1263.845486
 21
666.446193
  0
LINE
  8
1
 62
7
  6
CONTINUOUS
 10
1214.065560
 20
691.446193
 11
1263.845486
 21
691.446193
  0
CIRCLE
  8
1
 62
7
  6
CONTINUOUS
 10
1224.065560
 20
666.446193
 40
1.500000
  0
CIRCLE
  8
1
 62
7
  6
CONTINUOUS
 10
1224.065560
 20
666.446193
 40
0.750000
  0
CIRCLE
  8
1
 62
7
  6
CONTINUOUS
 10
1224.065560
 20
691.446193
 40
1.500000
  0
CIRCLE
  8
1
 62
7
  6
CONTINUOUS
 10
1224.065560
 20
691.446193
 40
0.750000
  0
TEXT
  8
1
 62
7
  6
CONTINUOUS
 10
1224.065560
 20
668.946193
 40
20.000000
 41
0.500000
  1
25
  7
KANJI
 50
90.000000
 51
30.000000
  0
ENDBLK
  0
BLOCK
  8
1
 62
7
  6
CONTINUOUS
  2
*D25
 70
    65
 10
0.0
 20
0.0
  0
LINE
  8
1
 62
7
  6
CONTINUOUS
 10
1224.065560
 20
691.446193
 11
1224.065560
 21
1039.446193
  0
LINE
  8
1
 62
7
  6
CONTINUOUS
 10
1214.065560
 20
1039.446193
 11
1263.845486
 21
1039.446193
  0
CIRCLE
  8
1
 62
7
  6
CONTINUOUS
 10
1224.065560
 20
1039.446193
 40
1.500000
  0
CIRCLE
  8
1
 62
7
  6
CONTINUOUS
 10
1224.065560
 20
1039.446193
 40
0.750000
  0
TEXT
  8
1
 62
7
  6
CONTINUOUS
 10
1224.065560
 20
850.446193
 40
20.000000
 41
0.500000
  1
337
  7
KANJI
 50
90.000000
 51
30.000000
  0
ENDBLK
  0
BLOCK
  8
1
 62
7
  6
CONTINUOUS
  2
*D26
 70
    65
 10
0.0
 20
0.0
  0
LINE
  8
1
 62
7
  6
CONTINUOUS
 10
1224.065560
 20
1039.446193
 11
1224.065560
 21
1064.446193
  0
LINE
  8
1
 62
7
  6
CONTINUOUS
 10
1214.065560
 20
1064.446193
 11
1263.845486
 21
1064.446193
  0
CIRCLE
  8
1
 62
7
  6
CONTINUOUS
 10
1224.065560
 20
1064.446193
 40
1.500000
  0
CIRCLE
  8
1
 62
7
  6
CONTINUOUS
 10
1224.065560
 20
1064.446193
 40
0.750000
  0
TEXT
  8
1
 62
7
  6
CONTINUOUS
 10
1224.065560
 20
1041.946193
 40
20.000000
 41
0.500000
  1
25
  7
KANJI
 50
90.000000
 51
30.000000
  0
ENDBLK
  0
BLOCK
  8
1
 62
7
  6
CONTINUOUS
  2
*D27
 70
    65
 10
0.0
 20
0.0
  0
LINE
  8
1
 62
7
  6
CONTINUOUS
 10
1504.430314
 20
926.946193
 11
1504.430314
 21
971.946193
  0
LINE
  8
1
 62
7
  6
CONTINUOUS
 10
1514.430314
 20
926.946193
 11
1448.845486
 21
926.946193
  0
LINE
  8
1
 62
7
  6
CONTINUOUS
 10
1514.430314
 20
971.946193
 11
1448.845486
 21
971.946193
  0
CIRCLE
  8
1
 62
7
  6
CONTINUOUS
 10
1504.430314
 20
926.946193
 40
1.500000
  0
CIRCLE
  8
1
 62
7
  6
CONTINUOUS
 10
1504.430314
 20
926.946193
 40
0.750000
  0
CIRCLE
  8
1
 62
7
  6
CONTINUOUS
 10
1504.430314
 20
971.946193
 40
1.500000
  0
CIRCLE
  8
1
 62
7
  6
CONTINUOUS
 10
1504.430314
 20
971.946193
 40
0.750000
  0
TEXT
  8
1
 62
7
  6
CONTINUOUS
 10
1504.430314
 20
939.446193
 40
20.000000
 41
0.500000
  1
44
  7
KANJI
 50
90.000000
 51
30.000000
  0
ENDBLK
  0
ENDSEC
  0
SECTION
  2
ENTITIES
  0
TEXT
  8
1
 62
7
  6
CONTINUOUS
 10
39.900000
 20
144.259375
 40
24.750000
 41
0.800000
  1
取引先：
  7
KANJI
 50
0.000000
 51
0.000000
  0
TEXT
  8
1
 62
7
  6
CONTINUOUS
 10
119.100000
 20
156.634375
 40
12.375000
 41
0.400000
  1

  7
KANJI
 50
0.000000
 51
0.000000
  0
TEXT
  8
1
 62
7
  6
CONTINUOUS
 10
119.100000
 20
144.259375
 40
12.375000
 41
0.400000
  1

  7
KANJI
 50
0.000000
 51
0.000000
  0
TEXT
  8
1
 62
7
  6
CONTINUOUS
 10
39.900000
 20
94.759375
 40
24.750000
 41
0.800000
  1
物件名：
  7
KANJI
 50
0.000000
 51
0.000000
  0
TEXT
  8
1
 62
7
  6
CONTINUOUS
 10
119.100000
 20
107.134375
 40
12.375000
 41
0.400000
  1

  7
KANJI
 50
0.000000
 51
0.000000
  0
TEXT
  8
1
 62
7
  6
CONTINUOUS
 10
119.100000
 20
94.759375
 40
12.375000
 41
0.400000
  1

  7
KANJI
 50
0.000000
 51
0.000000
  0
TEXT
  8
1
 62
7
  6
CONTINUOUS
 10
39.900000
 20
45.259375
 40
24.750000
 41
0.700000
  1
納 期：
  7
KANJI
 50
0.000000
 51
0.000000
  0
TEXT
  8
1
 62
7
  6
CONTINUOUS
 10
109.200000
 20
57.634375
 40
12.375000
 41
0.400000
  1

  7
KANJI
 50
0.000000
 51
0.000000
  0
TEXT
  8
1
 62
7
  6
CONTINUOUS
 10
109.200000
 20
45.259375
 40
12.375000
 41
0.400000
  1

  7
KANJI
 50
0.000000
 51
0.000000
  0
LINE
  8
1
 62
7
  6
CONTINUOUS
 10
30.000000
 20
188.500000
 11
30.000000
 21
40.000000
  0
LINE
  8
1
 62
7
  6
CONTINUOUS
 10
30.000000
 20
188.500000
 11
327.000000
 21
188.500000
  0
LINE
  8
1
 62
7
  6
CONTINUOUS
 10
327.000000
 20
188.500000
 11
327.000000
 21
139.000000
  0
LINE
  8
1
 62
7
  6
CONTINUOUS
 10
327.000000
 20
139.000000
 11
30.000000
 21
139.000000
  0
LINE
  8
1
 62
7
  6
CONTINUOUS
 10
30.000000
 20
139.000000
 11
30.000000
 21
89.500000
  0
LINE
  8
1
 62
7
  6
CONTINUOUS
 10
30.000000
 20
89.500000
 11
327.000000
 21
89.500000
  0
LINE
  8
1
 62
7
  6
CONTINUOUS
 10
327.000000
 20
89.500000
 11
327.000000
 21
139.000000
  0
LINE
  8
1
 62
7
  6
CONTINUOUS
 10
327.000000
 20
139.000000
 11
327.000000
 21
40.000000
  0
LINE
  8
1
 62
7
  6
CONTINUOUS
 10
327.000000
 20
40.000000
 11
30.000000
 21
40.000000
  0
TEXT
  8
1
 62
7
  6
CONTINUOUS
 10
341.850000
 20
144.259375
 40
24.750000
 41
0.800000
  1
　色柄：
  7
KANJI
 50
0.000000
 51
0.000000
  0
TEXT
  8
1
 62
7
  6
CONTINUOUS
 10
421.050000
 20
156.634375
 40
12.375000
 41
0.400000
  1

  7
KANJI
 50
0.000000
 51
0.000000
  0
TEXT
  8
1
 62
7
  6
CONTINUOUS
 10
421.050000
 20
144.259375
 40
12.375000
 41
0.400000
  1

  7
KANJI
 50
0.000000
 51
0.000000
  0
TEXT
  8
1
 62
7
  6
CONTINUOUS
 10
341.850000
 20
94.759375
 40
24.750000
 41
0.800000
  1
　厚み：
  7
KANJI
 50
0.000000
 51
0.000000
  0
TEXT
  8
1
 62
7
  6
CONTINUOUS
 10
421.050000
 20
107.134375
 40
12.375000
 41
0.400000
  1

  7
KANJI
 50
0.000000
 51
0.000000
  0
TEXT
  8
1
 62
7
  6
CONTINUOUS
 10
421.050000
 20
94.759375
 40
12.375000
 41
0.400000
  1

  7
KANJI
 50
0.000000
 51
0.000000
  0
TEXT
  8
1
 62
7
  6
CONTINUOUS
 10
341.850000
 20
45.259375
 40
24.750000
 41
0.800000
  1
付属品：
  7
KANJI
 50
0.000000
 51
0.000000
  0
TEXT
  8
1
 62
7
  6
CONTINUOUS
 10
421.050000
 20
57.634375
 40
12.375000
 41
0.400000
  1

  7
KANJI
 50
0.000000
 51
0.000000
  0
TEXT
  8
1
 62
7
  6
CONTINUOUS
 10
421.050000
 20
45.259375
 40
12.375000
 41
0.400000
  1

  7
KANJI
 50
0.000000
 51
0.000000
  0
LINE
  8
1
 62
7
  6
CONTINUOUS
 10
429.073950
 20
40.000000
 11
429.073950
 21
188.500000
  0
TEXT
  8
1
 62
7
  6
CONTINUOUS
 10
438.973950
 20
164.987500
 40
19.800000
 41
1.000000
  1
単色シリーズ
  7
KANJI
 50
0.000000
 51
0.000000
  0
TEXT
  8
1
 62
7
  6
CONTINUOUS
 10
557.773950
 20
174.887500
 40
9.900000
 41
0.500000
  1

  7
KANJI
 50
0.000000
 51
0.000000
  0
TEXT
  8
1
 62
7
  6
CONTINUOUS
 10
557.773950
 20
164.987500
 40
9.900000
 41
0.500000
  1

  7
KANJI
 50
0.000000
 51
0.000000
  0
LINE
  8
1
 62
7
  6
CONTINUOUS
 10
1615.489950
 20
40.000000
 11
1615.489950
 21
188.500000
  0
TEXT
  8
1
 62
7
  6
CONTINUOUS
 10
1235.923950
 20
94.759375
 40
24.750000
 41
0.800000
  1
埼玉県比企郡川島町表２１－５
  7
KANJI
 50
0.000000
 51
0.000000
  0
TEXT
  8
1
 62
7
  6
CONTINUOUS
 10
1513.123950
 20
107.134375
 40
12.375000
 41
0.400000
  1

  7
KANJI
 50
0.000000
 51
0.000000
  0
TEXT
  8
1
 62
7
  6
CONTINUOUS
 10
1513.123950
 20
94.759375
 40
12.375000
 41
0.400000
  1

  7
KANJI
 50
0.000000
 51
0.000000
  0
TEXT
  8
1
 62
7
  6
CONTINUOUS
 10
1235.923950
 20
70.009375
 40
24.750000
 41
0.647059
  1
  TEL ０４９２－９７－７２７１
  7
KANJI
 50
0.000000
 51
0.000000
  0
TEXT
  8
1
 62
7
  6
CONTINUOUS
 10
1495.798950
 20
82.384375
 40
12.375000
 41
0.388235
  1

  7
KANJI
 50
0.000000
 51
0.000000
  0
TEXT
  8
1
 62
7
  6
CONTINUOUS
 10
1495.798950
 20
70.009375
 40
12.375000
 41
0.388235
  1

  7
KANJI
 50
0.000000
 51
0.000000
  0
TEXT
  8
1
 62
7
  6
CONTINUOUS
 10
1235.923950
 20
45.259375
 40
24.750000
 41
0.647059
  1
  FAX ０４９２－９７－７２７３
  7
KANJI
 50
0.000000
 51
0.000000
  0
TEXT
  8
1
 62
7
  6
CONTINUOUS
 10
1495.798950
 20
57.634375
 40
12.375000
 41
0.388235
  1

  7
KANJI
 50
0.000000
 51
0.000000
  0
TEXT
  8
1
 62
7
  6
CONTINUOUS
 10
1495.798950
 20
45.259375
 40
12.375000
 41
0.388235
  1

  7
KANJI
 50
0.000000
 51
0.000000
  0
TEXT
  8
1
 62
7
  6
CONTINUOUS
 10
1235.923950
 20
117.653125
 40
34.650000
 41
1.285714
  1
㈱三井ＰＣＯ
  7
KANJI
 50
0.000000
 51
0.000000
  0
TEXT
  8
1
 62
7
  6
CONTINUOUS
 10
1468.573950
 20
134.978125
 40
17.325000
 41
0.642857
  1

  7
KANJI
 50
0.000000
 51
0.000000
  0
TEXT
  8
1
 62
7
  6
CONTINUOUS
 10
1468.573950
 20
117.653125
 40
17.325000
 41
0.642857
  1

  7
KANJI
 50
0.000000
 51
0.000000
  0
LINE
  8
1
 62
7
  6
CONTINUOUS
 10
429.073950
 20
188.500000
 11
578.420400
 21
188.500000
  0
LINE
  8
1
 62
7
  6
CONTINUOUS
 10
578.420400
 20
188.500000
 11
722.960400
 21
188.500000
  0
LINE
  8
1
 62
7
  6
CONTINUOUS
 10
722.960400
 20
188.500000
 11
872.851350
 21
188.500000
  0
LINE
  8
1
 62
7
  6
CONTINUOUS
 10
872.851350
 20
40.000000
 11
429.073950
 21
40.000000
  0
LINE
  8
1
 62
7
  6
CONTINUOUS
 10
429.073950
 20
139.000000
 11
872.851350
 21
139.000000
  0
LINE
  8
1
 62
7
  6
CONTINUOUS
 10
872.851350
 20
89.500000
 11
429.073950
 21
89.500000
  0
LINE
  8
1
 62
7
  6
CONTINUOUS
 10
578.420400
 20
188.500000
 11
578.420400
 21
89.500000
  0
LINE
  8
1
 62
7
  6
CONTINUOUS
 10
906.348000
 20
139.000000
 11
872.851350
 21
139.000000
  0
LINE
  8
1
 62
7
  6
CONTINUOUS
 10
872.851350
 20
139.000000
 11
906.348000
 21
139.000000
  0
LINE
  8
1
 62
7
  6
CONTINUOUS
 10
906.348000
 20
89.500000
 11
872.851350
 21
89.500000
  0
LINE
  8
1
 62
7
  6
CONTINUOUS
 10
872.851350
 20
89.500000
 11
906.348000
 21
89.500000
  0
LINE
  8
1
 62
7
  6
CONTINUOUS
 10
578.420400
 20
89.500000
 11
578.420400
 21
40.000000
  0
LINE
  8
1
 62
7
  6
CONTINUOUS
 10
872.851350
 20
188.500000
 11
906.348000
 21
188.500000
  0
LINE
  8
1
 62
7
  6
CONTINUOUS
 10
906.348000
 20
40.000000
 11
872.851350
 21
40.000000
  0
LINE
  8
1
 62
7
  6
CONTINUOUS
 10
1129.098000
 20
188.500000
 11
1129.098000
 21
40.000000
  0
LINE
  8
1
 62
7
  6
CONTINUOUS
 10
1129.098000
 20
40.000000
 11
1615.489950
 21
40.000000
  0
LINE
  8
1
 62
7
  6
CONTINUOUS
 10
1615.489950
 20
188.500000
 11
1129.098000
 21
188.500000
  0
LINE
  8
1
 62
7
  6
CONTINUOUS
 10
906.348000
 20
188.500000
 11
1121.673000
 21
188.500000
  0
LINE
  8
1
 62
7
  6
CONTINUOUS
 10
1121.673000
 20
188.500000
 11
1121.673000
 21
40.000000
  0
LINE
  8
1
 62
7
  6
CONTINUOUS
 10
1121.673000
 20
40.000000
 11
906.348000
 21
40.000000
  0
LINE
  8
1
 62
7
  6
CONTINUOUS
 10
906.348000
 20
139.000000
 11
1121.673000
 21
139.000000
  0
LINE
  8
1
 62
7
  6
CONTINUOUS
 10
1121.673000
 20
89.500000
 11
906.348000
 21
89.500000
  0
TEXT
  8
1
 62
7
  6
CONTINUOUS
 10
931.360845
 20
164.987500
 40
19.800000
 41
1.000000
  1
モンタナシリーズ
  7
KANJI
 50
0.000000
 51
0.000000
  0
TEXT
  8
1
 62
7
  6
CONTINUOUS
 10
1089.760845
 20
174.887500
 40
9.900000
 41
0.500000
  1

  7
KANJI
 50
0.000000
 51
0.000000
  0
TEXT
  8
1
 62
7
  6
CONTINUOUS
 10
1089.760845
 20
164.987500
 40
9.900000
 41
0.500000
  1

  7
KANJI
 50
0.000000
 51
0.000000
  0
TEXT
  8
1
 62
7
  6
CONTINUOUS
 10
755.473485
 20
164.987500
 40
19.800000
 41
1.000000
  1
シエラシリーズ
  7
KANJI
 50
0.000000
 51
0.000000
  0
TEXT
  8
1
 62
7
  6
CONTINUOUS
 10
894.073485
 20
174.887500
 40
9.900000
 41
0.500000
  1

  7
KANJI
 50
0.000000
 51
0.000000
  0
TEXT
  8
1
 62
7
  6
CONTINUOUS
 10
894.073485
 20
164.987500
 40
9.900000
 41
0.500000
  1

  7
KANJI
 50
0.000000
 51
0.000000
  0
LINE
  8
1
 62
7
  6
CONTINUOUS
 10
919.192260
 20
188.500000
 11
919.192260
 21
40.000000
  0
TEXT
  8
1
 62
7
  6
CONTINUOUS
 10
588.320400
 20
161.275000
 40
19.800000
 41
1.000000
  1
ベナーロシリーズ
  7
KANJI
 50
0.000000
 51
0.000000
  0
TEXT
  8
1
 62
7
  6
CONTINUOUS
 10
746.720400
 20
171.175000
 40
9.900000
 41
0.500000
  1

  7
KANJI
 50
0.000000
 51
0.000000
  0
TEXT
  8
1
 62
7
  6
CONTINUOUS
 10
746.720400
 20
161.275000
 40
9.900000
 41
0.500000
  1

  7
KANJI
 50
0.000000
 51
0.000000
  0
LINE
  8
1
 62
7
  6
CONTINUOUS
 10
749.190450
 20
188.500000
 11
749.190450
 21
40.000000
  0
TEXT
  8
1
 62
7
  6
CONTINUOUS
 10
429.073950
 20
48.380350
 40
24.750000
 41
0.800000
  1
シーム剤  本
  7
KANJI
 50
0.000000
 51
0.000000
  0
TEXT
  8
1
 62
7
  6
CONTINUOUS
 10
557.773950
 20
60.755350
 40
12.375000
 41
0.466667
  1

  7
KANJI
 50
0.000000
 51
0.000000
  0
TEXT
  8
1
 62
7
  6
CONTINUOUS
 10
557.773950
 20
48.380350
 40
12.375000
 41
0.466667
  1

  7
KANJI
 50
0.000000
 51
0.000000
  0
TEXT
  8
1
 62
7
  6
CONTINUOUS
 10
924.142260
 20
52.589335
 40
24.750000
 41
1.000000
  1
梱包個数　　梱
  7
KANJI
 50
0.000000
 51
0.000000
  0
TEXT
  8
1
 62
7
  6
CONTINUOUS
 10
1097.392260
 20
64.964335
 40
12.375000
 41
0.500000
  1

  7
KANJI
 50
0.000000
 51
0.000000
  0
TEXT
  8
1
 62
7
  6
CONTINUOUS
 10
1097.392260
 20
52.589335
 40
12.375000
 41
0.500000
  1

  7
KANJI
 50
0.000000
 51
0.000000
  0
TEXT
  8
1
 62
7
  6
CONTINUOUS
 10
735.879900
 20
52.271050
 40
24.750000
 41
0.746667
  1
 断熱テープ   本
  7
KANJI
 50
0.000000
 51
0.000000
  0
TEXT
  8
1
 62
7
  6
CONTINUOUS
 10
900.467400
 20
64.646050
 40
12.375000
 41
0.466667
  1

  7
KANJI
 50
0.000000
 51
0.000000
  0
TEXT
  8
1
 62
7
  6
CONTINUOUS
 10
900.467400
 20
52.271050
 40
12.375000
 41
0.466667
  1

  7
KANJI
 50
0.000000
 51
0.000000
  0
TEXT
  8
1
 62
7
  6
CONTINUOUS
 10
583.370400
 20
47.910595
 40
24.750000
 41
0.656250
  1
瞬間接着剤 　本
  7
KANJI
 50
0.000000
 51
0.000000
  0
TEXT
  8
1
 62
7
  6
CONTINUOUS
 10
713.307900
 20
60.285595
 40
12.375000
 41
0.350000
  1

  7
KANJI
 50
0.000000
 51
0.000000
  0
TEXT
  8
1
 62
7
  6
CONTINUOUS
 10
713.307900
 20
47.910595
 40
12.375000
 41
0.350000
  1

  7
KANJI
 50
0.000000
 51
0.000000
  0
TEXT
  8
1
 62
7
  6
CONTINUOUS
 10
438.973950
 20
97.234375
 40
24.750000
 41
1.041667
  1
   ㎜
  7
KANJI
 50
0.000000
 51
0.000000
  0
TEXT
  8
1
 62
7
  6
CONTINUOUS
 10
525.598950
 20
109.609375
 40
12.375000
 41
0.833333
  1

  7
KANJI
 50
0.000000
 51
0.000000
  0
TEXT
  8
1
 62
7
  6
CONTINUOUS
 10
525.598950
 20
97.234375
 40
12.375000
 41
0.833333
  1

  7
KANJI
 50
0.000000
 51
0.000000
  0
TEXT
  8
1
 62
7
  6
CONTINUOUS
 10
588.320400
 20
97.234375
 40
24.750000
 41
1.041667
  1
   ㎜
  7
KANJI
 50
0.000000
 51
0.000000
  0
TEXT
  8
1
 62
7
  6
CONTINUOUS
 10
674.945400
 20
109.609375
 40
12.375000
 41
0.833333
  1

  7
KANJI
 50
0.000000
 51
0.000000
  0
TEXT
  8
1
 62
7
  6
CONTINUOUS
 10
674.945400
 20
97.234375
 40
12.375000
 41
0.833333
  1

  7
KANJI
 50
0.000000
 51
0.000000
  0
TEXT
  8
1
 62
7
  6
CONTINUOUS
 10
755.473485
 20
97.234375
 40
24.750000
 41
1.041667
  1
   ㎜
  7
KANJI
 50
0.000000
 51
0.000000
  0
TEXT
  8
1
 62
7
  6
CONTINUOUS
 10
842.098485
 20
109.609375
 40
12.375000
 41
0.833333
  1

  7
KANJI
 50
0.000000
 51
0.000000
  0
TEXT
  8
1
 62
7
  6
CONTINUOUS
 10
842.098485
 20
97.234375
 40
12.375000
 41
0.833333
  1

  7
KANJI
 50
0.000000
 51
0.000000
  0
TEXT
  8
1
 62
7
  6
CONTINUOUS
 10
924.142260
 20
97.234375
 40
24.750000
 41
1.050000
  1
    ㎜
  7
KANJI
 50
0.000000
 51
0.000000
  0
TEXT
  8
1
 62
7
  6
CONTINUOUS
 10
1035.517260
 20
109.609375
 40
12.375000
 41
0.875000
  1

  7
KANJI
 50
0.000000
 51
0.000000
  0
TEXT
  8
1
 62
7
  6
CONTINUOUS
 10
1035.517260
 20
97.234375
 40
12.375000
 41
0.875000
  1

  7
KANJI
 50
0.000000
 51
0.000000
  0
TEXT
  8
1
 62
7
  6
CONTINUOUS
 10
1138.998000
 20
159.109375
 40
24.750000
 41
0.800000
  1
デュポンコーリアン認定加工／施工工場　　Ｍｐｃｏ　
  7
KANJI
 50
0.000000
 51
0.000000
  0
TEXT
  8
1
 62
7
  6
CONTINUOUS
 10
1633.998000
 20
171.484375
 40
12.375000
 41
0.400000
  1

  7
KANJI
 50
0.000000
 51
0.000000
  0
TEXT
  8
1
 62
7
  6
CONTINUOUS
 10
1633.998000
 20
159.109375
 40
12.375000
 41
0.400000
  1

  7
KANJI
 50
0.000000
 51
0.000000
  0
LINE
  8
1
 62
7
  6
CONTINUOUS
 10
1622.914950
 20
40.000000
 11
1734.473100
 21
40.000000
  0
TEXT
  8
1
 62
7
  6
CONTINUOUS
 10
1627.864950
 20
95.378125
 40
34.650000
 41
0.714286
  1
図面番号
  7
KANJI
 50
0.000000
 51
0.000000
  0
TEXT
  8
1
 62
7
  6
CONTINUOUS
 10
1726.864950
 20
112.703125
 40
17.325000
 41
0.357143
  1

  7
KANJI
 50
0.000000
 51
0.000000
  0
TEXT
  8
1
 62
7
  6
CONTINUOUS
 10
1726.864950
 20
95.378125
 40
17.325000
 41
0.357143
  1

  7
KANJI
 50
0.000000
 51
0.000000
  0
LINE
  8
1
 62
7
  6
CONTINUOUS
 10
1622.914950
 20
139.000000
 11
1622.914950
 21
40.000000
  0
LINE
  8
1
 62
7
  6
CONTINUOUS
 10
1622.914950
 20
40.000000
 11
1734.473100
 21
40.000000
  0
LINE
  8
1
 62
7
  6
CONTINUOUS
 10
1734.473100
 20
40.000000
 11
1734.473100
 21
139.000000
  0
LINE
  8
1
 62
7
  6
CONTINUOUS
 10
1734.473100
 20
139.000000
 11
1622.914950
 21
139.000000
  0
LINE
  8
1
 62
7
  6
CONTINUOUS
 10
1622.914950
 20
139.000000
 11
1622.914950
 21
188.500000
  0
LINE
  8
1
 62
7
  6
CONTINUOUS
 10
1622.914950
 20
188.500000
 11
1734.473100
 21
188.500000
  0
LINE
  8
1
 62
7
  6
CONTINUOUS
 10
1734.473100
 20
188.500000
 11
1734.473100
 21
139.000000
  0
TEXT
  8
1
 62
7
  6
CONTINUOUS
 10
1627.864950
 20
161.275000
 40
19.800000
 41
0.875000
  1
CAD-NO
  7
KANJI
 50
0.000000
 51
0.000000
  0
TEXT
  8
1
 62
7
  6
CONTINUOUS
 10
1723.152450
 20
171.175000
 40
9.900000
 41
0.875000
  1

  7
KANJI
 50
0.000000
 51
0.000000
  0
TEXT
  8
1
 62
7
  6
CONTINUOUS
 10
1723.152450
 20
161.275000
 40
9.900000
 41
0.875000
  1

  7
KANJI
 50
0.000000
 51
0.000000
  0
CIRCLE
  8
1
 62
7
  6
CONTINUOUS
 10
814.225694
 20
938.446181
 40
22.500000
  0
CIRCLE
  8
1
 62
7
  6
CONTINUOUS
 10
814.225694
 20
938.446181
 40
27.500000
  0
DIMENSION
  8
1
 62
7
  6
CONTINUOUS
  2
*D1
 10
468.489583
 20
469.875000
 11
468.489583
 21
475.875000
 70
     0
  1
12
 13
514.534779
 23
469.875000
 14
514.534779
 24
481.875000
 50
90.000000
  0
LINE
  8
1
 62
7
  6
CONTINUOUS
 10
784.225693
 20
321.875000
 11
784.225693
 21
319.875000
  0
LINE
  8
1
 62
7
  6
CONTINUOUS
 10
787.225693
 20
316.875000
 11
841.225693
 21
316.875000
  0
LINE
  8
1
 62
7
  6
CONTINUOUS
 10
844.225693
 20
321.875000
 11
844.225693
 21
319.875000
  0
LINE
  8
1
 62
7
  6
CONTINUOUS
 10
844.193300
 20
319.435327
 11
844.225693
 21
321.875000
  0
LINE
  8
1
 62
7
  6
CONTINUOUS
 10
844.225693
 20
320.716544
 11
844.225693
 21
321.875000
  0
ARC
  8
1
 62
7
  6
CONTINUOUS
 10
847.225693
 20
320.716544
 40
3.000000
 50
113.275450
 51
-180.000000
  0
LINE
  8
1
 62
7
  6
CONTINUOUS
 10
784.225693
 20
321.875000
 11
784.225693
 21
320.716544
  0
ARC
  8
1
 62
7
  6
CONTINUOUS
 10
781.225693
 20
320.716544
 40
3.000000
 50
0.000000
 51
66.724550
  0
LINE
  8
1
 62
7
  6
CONTINUOUS
 10
784.225693
 20
319.875000
 11
784.225693
 21
318.875000
  0
LINE
  8
1
 62
7
  6
CONTINUOUS
 10
786.225693
 20
316.875000
 11
787.225693
 21
316.875000
  0
ARC
  8
1
 62
7
  6
CONTINUOUS
 10
786.225693
 20
318.875000
 40
2.000000
 50
180.000000
 51
-90.000000
  0
LINE
  8
1
 62
7
  6
CONTINUOUS
 10
841.225693
 20
316.875000
 11
842.204999
 21
316.875000
  0
LINE
  8
1
 62
7
  6
CONTINUOUS
 10
844.204893
 20
318.895587
 11
844.196701
 21
319.691457
  0
ARC
  8
1
 62
7
  6
CONTINUOUS
 10
842.204999
 20
318.875000
 40
2.000000
 50
-90.000000
 51
0.589785
  0
DIMENSION
  8
1
 62
7
  6
CONTINUOUS
  2
*D2
 10
784.225693
 20
256.998262
 11
814.225693
 21
256.998262
 70
     0
  1
60
 13
784.225693
 23
306.875000
 14
844.225693
 24
306.875000
 50
0.000000
  0
LINE
  8
1
 62
7
  6
CONTINUOUS
 10
814.225694
 20
987.312623
 11
814.225693
 21
915.946181
  0
LINE
  8
1
 62
7
  6
CONTINUOUS
 10
765.531081
 20
938.446181
 11
860.611730
 21
938.446181
  0
TEXT
  8
1
 62
7
  6
CONTINUOUS
 10
54.079792
 20
1100.405268
 40
25.000000
 41
0.562500
  1
ｵｰﾊﾞｰﾌﾛｰ ﾁｭｰﾌﾞ付き
  7
KANJI
 50
0.000000
 51
0.000000
  0
TEXT
  8
1
 62
7
  6
CONTINUOUS
 10
279.079792
 20
1112.905268
 40
12.500000
 41
0.500000
  1

  7
KANJI
 50
0.000000
 51
0.000000
  0
TEXT
  8
1
 62
7
  6
CONTINUOUS
 10
279.079792
 20
1100.405268
 40
12.500000
 41
0.500000
  1

  7
KANJI
 50
0.000000
 51
0.000000
  0
LINE
  8
1
 62
7
  6
CONTINUOUS
 10
814.225693
 20
335.469332
 11
814.225693
 21
308.071280
  0
CIRCLE
  8
1
 62
7
  6
CONTINUOUS
 10
814.225694
 20
938.446181
 40
35.000000
  0
TEXT
  8
1
 62
7
  6
CONTINUOUS
 10
54.560220
 20
1061.500000
 40
30.000000
 41
1.000000
  1
排水金具：別売
  7
KANJI
 50
0.000000
 51
0.000000
  0
TEXT
  8
1
 62
7
  6
CONTINUOUS
 10
264.560220
 20
1076.500000
 40
15.000000
 41
0.500000
  1

  7
KANJI
 50
0.000000
 51
0.000000
  0
TEXT
  8
1
 62
7
  6
CONTINUOUS
 10
264.560220
 20
1061.500000
 40
15.000000
 41
0.500000
  1

  7
KANJI
 50
0.000000
 51
0.000000
  0
TEXT
  8
1
 62
7
  6
CONTINUOUS
 10
54.560220
 20
1131.500000
 40
30.000000
 41
0.833333
  1
100％アクリル製
  7
KANJI
 50
0.000000
 51
0.000000
  0
TEXT
  8
1
 62
7
  6
CONTINUOUS
 10
279.560220
 20
1146.500000
 40
15.000000
 41
0.500000
  1

  7
KANJI
 50
0.000000
 51
0.000000
  0
TEXT
  8
1
 62
7
  6
CONTINUOUS
 10
279.560220
 20
1131.500000
 40
15.000000
 41
0.500000
  1

  7
KANJI
 50
0.000000
 51
0.000000
  0
LINE
  8
1
 62
7
  6
CONTINUOUS
 10
784.225693
 20
321.875000
 11
844.458388
 21
321.875000
  0
TEXT
  8
1
 62
7
  6
CONTINUOUS
 10
54.560220
 20
1166.500000
 40
45.000000
 41
0.615385
  1
U-101 ﾎﾞｳﾙ詳細図
  7
KANJI
 50
0.345083
 51
0.000000
  0
TEXT
  8
1
 62
7
  6
CONTINUOUS
 10
414.418177
 20
1191.167797
 40
22.500000
 41
0.500000
  1

  7
KANJI
 50
0.345083
 51
0.000000
  0
TEXT
  8
1
 62
7
  6
CONTINUOUS
 10
414.553690
 20
1168.668205
 40
22.500000
 41
0.500000
  1

  7
KANJI
 50
0.345083
 51
0.000000
  0
TEXT
  8
1
 62
7
  6
CONTINUOUS
 10
51.159534
 20
1025.050881
 40
25.000000
 41
1.000000
  1
カラー：白
  7
KANJI
 50
0.000000
 51
0.000000
  0
TEXT
  8
1
 62
7
  6
CONTINUOUS
 10
176.159534
 20
1037.550881
 40
12.500000
 41
0.500000
  1

  7
KANJI
 50
0.000000
 51
0.000000
  0
TEXT
  8
1
 62
7
  6
CONTINUOUS
 10
176.159534
 20
1025.050881
 40
12.500000
 41
0.500000
  1

  7
KANJI
 50
0.000000
 51
0.000000
  0
LINE
  8
1
 62
7
  6
CONTINUOUS
 10
1026.725694
 20
864.946193
 11
1025.917067
 21
879.631935
  0
LINE
  8
1
 62
7
  6
CONTINUOUS
 10
1025.917067
 20
879.631935
 11
1023.497341
 21
894.205911
  0
LINE
  8
1
 62
7
  6
CONTINUOUS
 10
1023.497341
 20
894.205911
 11
1019.484932
 21
908.557202
  0
LINE
  8
1
 62
7
  6
CONTINUOUS
 10
1019.484932
 20
908.557202
 11
1013.910376
 21
922.576587
  0
LINE
  8
1
 62
7
  6
CONTINUOUS
 10
1013.910376
 20
922.576587
 11
1006.816099
 21
936.157370
  0
LINE
  8
1
 62
7
  6
CONTINUOUS
 10
1006.816099
 20
936.157370
 11
998.256092
 21
949.196193
  0
LINE
  8
1
 62
7
  6
CONTINUOUS
 10
998.256092
 20
949.196193
 11
988.295503
 21
961.593822
  0
LINE
  8
1
 62
7
  6
CONTINUOUS
 10
988.295503
 20
961.593822
 11
977.010138
 21
973.255905
  0
LINE
  8
1
 62
7
  6
CONTINUOUS
 10
977.010138
 20
973.255905
 11
964.485885
 21
984.093685
  0
LINE
  8
1
 62
7
  6
CONTINUOUS
 10
964.485885
 20
984.093685
 11
950.818061
 21
994.024681
  0
LINE
  8
1
 62
7
  6
CONTINUOUS
 10
950.818061
 20
994.024681
 11
936.110686
 21
1002.973312
  0
LINE
  8
1
 62
7
  6
CONTINUOUS
 10
936.110686
 20
1002.973312
 11
920.475694
 21
1010.871473
  0
LINE
  8
1
 62
7
  6
CONTINUOUS
 10
920.475694
 20
1010.871473
 11
904.032074
 21
1017.659055
  0
LINE
  8
1
 62
7
  6
CONTINUOUS
 10
904.032074
 20
1017.659055
 11
886.904974
 21
1023.284399
  0
LINE
  8
1
 62
7
  6
CONTINUOUS
 10
886.904974
 20
1023.284399
 11
869.224741
 21
1027.704695
  0
LINE
  8
1
 62
7
  6
CONTINUOUS
 10
869.224741
 20
1027.704695
 11
851.125932
 21
1030.886299
  0
LINE
  8
1
 62
7
  6
CONTINUOUS
 10
851.125932
 20
1030.886299
 11
832.746289
 21
1032.804999
  0
LINE
  8
1
 62
7
  6
CONTINUOUS
 10
832.746289
 20
1032.804999
 11
814.225694
 21
1033.446193
  0
LINE
  8
1
 62
7
  6
CONTINUOUS
 10
814.225694
 20
1033.446193
 11
795.705098
 21
1032.804999
  0
LINE
  8
1
 62
7
  6
CONTINUOUS
 10
795.705098
 20
1032.804999
 11
777.325456
 21
1030.886299
  0
LINE
  8
1
 62
7
  6
CONTINUOUS
 10
777.325456
 20
1030.886299
 11
759.226647
 21
1027.704695
  0
LINE
  8
1
 62
7
  6
CONTINUOUS
 10
759.226647
 20
1027.704695
 11
741.546413
 21
1023.284399
  0
LINE
  8
1
 62
7
  6
CONTINUOUS
 10
741.546413
 20
1023.284399
 11
724.419313
 21
1017.659055
  0
LINE
  8
1
 62
7
  6
CONTINUOUS
 10
724.419313
 20
1017.659055
 11
707.975694
 21
1010.871473
  0
LINE
  8
1
 62
7
  6
CONTINUOUS
 10
707.975694
 20
1010.871473
 11
692.340701
 21
1002.973312
  0
LINE
  8
1
 62
7
  6
CONTINUOUS
 10
692.340701
 20
1002.973312
 11
677.633327
 21
994.024681
  0
LINE
  8
1
 62
7
  6
CONTINUOUS
 10
677.633327
 20
994.024681
 11
663.965503
 21
984.093685
  0
LINE
  8
1
 62
7
  6
CONTINUOUS
 10
663.965503
 20
984.093685
 11
651.441250
 21
973.255905
  0
LINE
  8
1
 62
7
  6
CONTINUOUS
 10
651.441250
 20
973.255905
 11
640.155884
 21
961.593822
  0
LINE
  8
1
 62
7
  6
CONTINUOUS
 10
640.155884
 20
961.593822
 11
630.195295
 21
949.196193
  0
LINE
  8
1
 62
7
  6
CONTINUOUS
 10
630.195295
 20
949.196193
 11
621.635289
 21
936.157370
  0
LINE
  8
1
 62
7
  6
CONTINUOUS
 10
621.635289
 20
936.157370
 11
614.541012
 21
922.576587
  0
LINE
  8
1
 62
7
  6
CONTINUOUS
 10
614.541012
 20
922.576587
 11
608.966456
 21
908.557202
  0
LINE
  8
1
 62
7
  6
CONTINUOUS
 10
608.966456
 20
908.557202
 11
604.954046
 21
894.205911
  0
LINE
  8
1
 62
7
  6
CONTINUOUS
 10
604.954046
 20
894.205911
 11
602.534320
 21
879.631935
  0
LINE
  8
1
 62
7
  6
CONTINUOUS
 10
602.534320
 20
879.631935
 11
601.725694
 21
864.946193
  0
LINE
  8
1
 62
7
  6
CONTINUOUS
 10
601.725694
 20
864.946193
 11
602.534320
 21
850.260450
  0
LINE
  8
1
 62
7
  6
CONTINUOUS
 10
602.534320
 20
850.260450
 11
604.954046
 21
835.686475
  0
LINE
  8
1
 62
7
  6
CONTINUOUS
 10
604.954046
 20
835.686475
 11
608.966456
 21
821.335184
  0
LINE
  8
1
 62
7
  6
CONTINUOUS
 10
608.966456
 20
821.335184
 11
614.541012
 21
807.315799
  0
LINE
  8
1
 62
7
  6
CONTINUOUS
 10
614.541012
 20
807.315799
 11
621.635289
 21
793.735016
  0
LINE
  8
1
 62
7
  6
CONTINUOUS
 10
621.635289
 20
793.735016
 11
630.195295
 21
780.696193
  0
LINE
  8
1
 62
7
  6
CONTINUOUS
 10
630.195295
 20
780.696193
 11
640.155884
 21
768.298563
  0
LINE
  8
1
 62
7
  6
CONTINUOUS
 10
640.155884
 20
768.298563
 11
651.441250
 21
756.636481
  0
LINE
  8
1
 62
7
  6
CONTINUOUS
 10
651.441250
 20
756.636481
 11
663.965503
 21
745.798700
  0
LINE
  8
1
 62
7
  6
CONTINUOUS
 10
663.965503
 20
745.798700
 11
677.633327
 21
735.867704
  0
LINE
  8
1
 62
7
  6
CONTINUOUS
 10
677.633327
 20
735.867704
 11
692.340701
 21
726.919073
  0
LINE
  8
1
 62
7
  6
CONTINUOUS
 10
692.340701
 20
726.919073
 11
707.975694
 21
719.020912
  0
LINE
  8
1
 62
7
  6
CONTINUOUS
 10
707.975694
 20
719.020912
 11
724.419313
 21
712.233331
  0
LINE
  8
1
 62
7
  6
CONTINUOUS
 10
724.419313
 20
712.233331
 11
741.546413
 21
706.607986
  0
LINE
  8
1
 62
7
  6
CONTINUOUS
 10
741.546413
 20
706.607986
 11
759.226647
 21
702.187691
  0
LINE
  8
1
 62
7
  6
CONTINUOUS
 10
759.226647
 20
702.187691
 11
777.325456
 21
699.006086
  0
LINE
  8
1
 62
7
  6
CONTINUOUS
 10
777.325456
 20
699.006086
 11
795.705098
 21
697.087386
  0
LINE
  8
1
 62
7
  6
CONTINUOUS
 10
795.705098
 20
697.087386
 11
814.225694
 21
696.446193
  0
LINE
  8
1
 62
7
  6
CONTINUOUS
 10
814.225694
 20
696.446193
 11
832.746289
 21
697.087386
  0
LINE
  8
1
 62
7
  6
CONTINUOUS
 10
832.746289
 20
697.087386
 11
851.125932
 21
699.006086
  0
LINE
  8
1
 62
7
  6
CONTINUOUS
 10
851.125932
 20
699.006086
 11
869.224741
 21
702.187691
  0
LINE
  8
1
 62
7
  6
CONTINUOUS
 10
869.224741
 20
702.187691
 11
886.904974
 21
706.607986
  0
LINE
  8
1
 62
7
  6
CONTINUOUS
 10
886.904974
 20
706.607986
 11
904.032074
 21
712.233331
  0
LINE
  8
1
 62
7
  6
CONTINUOUS
 10
904.032074
 20
712.233331
 11
920.475694
 21
719.020912
  0
LINE
  8
1
 62
7
  6
CONTINUOUS
 10
920.475694
 20
719.020912
 11
936.110686
 21
726.919073
  0
LINE
  8
1
 62
7
  6
CONTINUOUS
 10
936.110686
 20
726.919073
 11
950.818061
 21
735.867704
  0
LINE
  8
1
 62
7
  6
CONTINUOUS
 10
950.818061
 20
735.867704
 11
964.485885
 21
745.798700
  0
LINE
  8
1
 62
7
  6
CONTINUOUS
 10
964.485885
 20
745.798700
 11
977.010138
 21
756.636481
  0
LINE
  8
1
 62
7
  6
CONTINUOUS
 10
977.010138
 20
756.636481
 11
988.295503
 21
768.298563
  0
LINE
  8
1
 62
7
  6
CONTINUOUS
 10
988.295503
 20
768.298563
 11
998.256092
 21
780.696193
  0
LINE
  8
1
 62
7
  6
CONTINUOUS
 10
998.256092
 20
780.696193
 11
1006.816099
 21
793.735016
  0
LINE
  8
1
 62
7
  6
CONTINUOUS
 10
1006.816099
 20
793.735016
 11
1013.910376
 21
807.315799
  0
LINE
  8
1
 62
7
  6
CONTINUOUS
 10
1013.910376
 20
807.315799
 11
1019.484932
 21
821.335184
  0
LINE
  8
1
 62
7
  6
CONTINUOUS
 10
1019.484932
 20
821.335184
 11
1023.497341
 21
835.686475
  0
LINE
  8
1
 62
7
  6
CONTINUOUS
 10
1023.497341
 20
835.686475
 11
1025.917067
 21
850.260450
  0
LINE
  8
1
 62
7
  6
CONTINUOUS
 10
1025.917067
 20
850.260450
 11
1026.725694
 21
864.946193
  0
LINE
  8
1
 62
7
  6
CONTINUOUS
 10
1051.725694
 20
864.946193
 11
1050.821935
 21
881.810829
  0
LINE
  8
1
 62
7
  6
CONTINUOUS
 10
1050.821935
 20
881.810829
 11
1048.117535
 21
898.547115
  0
LINE
  8
1
 62
7
  6
CONTINUOUS
 10
1048.117535
 20
898.547115
 11
1043.633078
 21
915.027678
  0
LINE
  8
1
 62
7
  6
CONTINUOUS
 10
1043.633078
 20
915.027678
 11
1037.402691
 21
931.127091
  0
LINE
  8
1
 62
7
  6
CONTINUOUS
 10
1037.402691
 20
931.127091
 11
1029.473793
 21
946.722826
  0
LINE
  8
1
 62
7
  6
CONTINUOUS
 10
1029.473793
 20
946.722826
 11
1019.906727
 21
961.696193
  0
LINE
  8
1
 62
7
  6
CONTINUOUS
 10
1019.906727
 20
961.696193
 11
1008.774304
 21
975.933233
  0
LINE
  8
1
 62
7
  6
CONTINUOUS
 10
1008.774304
 20
975.933233
 11
996.161249
 21
989.325595
  0
LINE
  8
1
 62
7
  6
CONTINUOUS
 10
996.161249
 20
989.325595
 11
982.163554
 21
1001.771355
  0
LINE
  8
1
 62
7
  6
CONTINUOUS
 10
982.163554
 20
1001.771355
 11
966.887751
 21
1013.175793
  0
LINE
  8
1
 62
7
  6
CONTINUOUS
 10
966.887751
 20
1013.175793
 11
950.450097
 21
1023.452113
  0
LINE
  8
1
 62
7
  6
CONTINUOUS
 10
950.450097
 20
1023.452113
 11
932.975694
 21
1032.522108
  0
LINE
  8
1
 62
7
  6
CONTINUOUS
 10
932.975694
 20
1032.522108
 11
914.597531
 21
1040.316750
  0
LINE
  8
1
 62
7
  6
CONTINUOUS
 10
914.597531
 20
1040.316750
 11
895.455478
 21
1046.776715
  0
LINE
  8
1
 62
7
  6
CONTINUOUS
 10
895.455478
 20
1046.776715
 11
875.695217
 21
1051.852840
  0
LINE
  8
1
 62
7
  6
CONTINUOUS
 10
875.695217
 20
1051.852840
 11
855.467136
 21
1055.506493
  0
LINE
  8
1
 62
7
  6
CONTINUOUS
 10
855.467136
 20
1055.506493
 11
834.925183
 21
1057.709867
  0
LINE
  8
1
 62
7
  6
CONTINUOUS
 10
834.925183
 20
1057.709867
 11
814.225694
 21
1058.446193
  0
LINE
  8
1
 62
7
  6
CONTINUOUS
 10
814.225694
 20
1058.446193
 11
793.526205
 21
1057.709867
  0
LINE
  8
1
 62
7
  6
CONTINUOUS
 10
793.526205
 20
1057.709867
 11
772.984252
 21
1055.506493
  0
LINE
  8
1
 62
7
  6
CONTINUOUS
 10
772.984252
 20
1055.506493
 11
752.756171
 21
1051.852840
  0
LINE
  8
1
 62
7
  6
CONTINUOUS
 10
752.756171
 20
1051.852840
 11
732.995910
 21
1046.776715
  0
LINE
  8
1
 62
7
  6
CONTINUOUS
 10
732.995910
 20
1046.776715
 11
713.853857
 21
1040.316750
  0
LINE
  8
1
 62
7
  6
CONTINUOUS
 10
713.853857
 20
1040.316750
 11
695.475694
 21
1032.522108
  0
LINE
  8
1
 62
7
  6
CONTINUOUS
 10
695.475694
 20
1032.522108
 11
678.001290
 21
1023.452113
  0
LINE
  8
1
 62
7
  6
CONTINUOUS
 10
678.001290
 20
1023.452113
 11
661.563636
 21
1013.175793
  0
LINE
  8
1
 62
7
  6
CONTINUOUS
 10
661.563636
 20
1013.175793
 11
646.287833
 21
1001.771355
  0
LINE
  8
1
 62
7
  6
CONTINUOUS
 10
646.287833
 20
1001.771355
 11
632.290139
 21
989.325595
  0
LINE
  8
1
 62
7
  6
CONTINUOUS
 10
632.290139
 20
989.325595
 11
619.677083
 21
975.933233
  0
LINE
  8
1
 62
7
  6
CONTINUOUS
 10
619.677083
 20
975.933233
 11
608.544660
 21
961.696193
  0
LINE
  8
1
 62
7
  6
CONTINUOUS
 10
608.544660
 20
961.696193
 11
598.977594
 21
946.722826
  0
LINE
  8
1
 62
7
  6
CONTINUOUS
 10
598.977594
 20
946.722826
 11
591.048696
 21
931.127091
  0
LINE
  8
1
 62
7
  6
CONTINUOUS
 10
591.048696
 20
931.127091
 11
584.818310
 21
915.027678
  0
LINE
  8
1
 62
7
  6
CONTINUOUS
 10
584.818310
 20
915.027678
 11
580.333852
 21
898.547115
  0
LINE
  8
1
 62
7
  6
CONTINUOUS
 10
580.333852
 20
898.547115
 11
577.629453
 21
881.810829
  0
LINE
  8
1
 62
7
  6
CONTINUOUS
 10
577.629453
 20
881.810829
 11
576.725694
 21
864.946193
  0
LINE
  8
1
 62
7
  6
CONTINUOUS
 10
576.725694
 20
864.946193
 11
577.629453
 21
848.081557
  0
LINE
  8
1
 62
7
  6
CONTINUOUS
 10
577.629453
 20
848.081557
 11
580.333852
 21
831.345270
  0
LINE
  8
1
 62
7
  6
CONTINUOUS
 10
580.333852
 20
831.345270
 11
584.818310
 21
814.864708
  0
LINE
  8
1
 62
7
  6
CONTINUOUS
 10
584.818310
 20
814.864708
 11
591.048696
 21
798.765295
  0
LINE
  8
1
 62
7
  6
CONTINUOUS
 10
591.048696
 20
798.765295
 11
598.977594
 21
783.169559
  0
LINE
  8
1
 62
7
  6
CONTINUOUS
 10
598.977594
 20
783.169559
 11
608.544660
 21
768.196193
  0
LINE
  8
1
 62
7
  6
CONTINUOUS
 10
608.544660
 20
768.196193
 11
619.677083
 21
753.959152
  0
LINE
  8
1
 62
7
  6
CONTINUOUS
 10
619.677083
 20
753.959152
 11
632.290139
 21
740.566790
  0
LINE
  8
1
 62
7
  6
CONTINUOUS
 10
632.290139
 20
740.566790
 11
646.287833
 21
728.121031
  0
LINE
  8
1
 62
7
  6
CONTINUOUS
 10
646.287833
 20
728.121031
 11
661.563636
 21
716.716593
  0
LINE
  8
1
 62
7
  6
CONTINUOUS
 10
661.563636
 20
716.716593
 11
678.001290
 21
706.440272
  0
LINE
  8
1
 62
7
  6
CONTINUOUS
 10
678.001290
 20
706.440272
 11
695.475694
 21
697.370277
  0
LINE
  8
1
 62
7
  6
CONTINUOUS
 10
695.475694
 20
697.370277
 11
713.853857
 21
689.575636
  0
LINE
  8
1
 62
7
  6
CONTINUOUS
 10
713.853857
 20
689.575636
 11
732.995910
 21
683.115671
  0
LINE
  8
1
 62
7
  6
CONTINUOUS
 10
732.995910
 20
683.115671
 11
752.756171
 21
678.039545
  0
LINE
  8
1
 62
7
  6
CONTINUOUS
 10
752.756171
 20
678.039545
 11
772.984252
 21
674.385893
  0
LINE
  8
1
 62
7
  6
CONTINUOUS
 10
772.984252
 20
674.385893
 11
793.526205
 21
672.182519
  0
LINE
  8
1
 62
7
  6
CONTINUOUS
 10
793.526205
 20
672.182519
 11
814.225694
 21
671.446193
  0
LINE
  8
1
 62
7
  6
CONTINUOUS
 10
814.225694
 20
671.446193
 11
834.925183
 21
672.182519
  0
LINE
  8
1
 62
7
  6
CONTINUOUS
 10
834.925183
 20
672.182519
 11
855.467136
 21
674.385893
  0
LINE
  8
1
 62
7
  6
CONTINUOUS
 10
855.467136
 20
674.385893
 11
875.695217
 21
678.039545
  0
LINE
  8
1
 62
7
  6
CONTINUOUS
 10
875.695217
 20
678.039545
 11
895.455478
 21
683.115671
  0
LINE
  8
1
 62
7
  6
CONTINUOUS
 10
895.455478
 20
683.115671
 11
914.597531
 21
689.575636
  0
LINE
  8
1
 62
7
  6
CONTINUOUS
 10
914.597531
 20
689.575636
 11
932.975694
 21
697.370277
  0
LINE
  8
1
 62
7
  6
CONTINUOUS
 10
932.975694
 20
697.370277
 11
950.450097
 21
706.440272
  0
LINE
  8
1
 62
7
  6
CONTINUOUS
 10
950.450097
 20
706.440272
 11
966.887751
 21
716.716593
  0
LINE
  8
1
 62
7
  6
CONTINUOUS
 10
966.887751
 20
716.716593
 11
982.163554
 21
728.121031
  0
LINE
  8
1
 62
7
  6
CONTINUOUS
 10
982.163554
 20
728.121031
 11
996.161249
 21
740.566790
  0
LINE
  8
1
 62
7
  6
CONTINUOUS
 10
996.161249
 20
740.566790
 11
1008.774304
 21
753.959152
  0
LINE
  8
1
 62
7
  6
CONTINUOUS
 10
1008.774304
 20
753.959152
 11
1019.906727
 21
768.196193
  0
LINE
  8
1
 62
7
  6
CONTINUOUS
 10
1019.906727
 20
768.196193
 11
1029.473793
 21
783.169559
  0
LINE
  8
1
 62
7
  6
CONTINUOUS
 10
1029.473793
 20
783.169559
 11
1037.402691
 21
798.765295
  0
LINE
  8
1
 62
7
  6
CONTINUOUS
 10
1037.402691
 20
798.765295
 11
1043.633078
 21
814.864708
  0
LINE
  8
1
 62
7
  6
CONTINUOUS
 10
1043.633078
 20
814.864708
 11
1048.117535
 21
831.345270
  0
LINE
  8
1
 62
7
  6
CONTINUOUS
 10
1048.117535
 20
831.345270
 11
1050.821935
 21
848.081557
  0
LINE
  8
1
 62
7
  6
CONTINUOUS
 10
1050.821935
 20
848.081557
 11
1051.725694
 21
864.946193
  0
DIMENSION
  8
1
 62
7
  6
CONTINUOUS
  2
*D3
 10
504.184028
 20
1033.446193
 11
504.184028
 21
985.946193
 70
     0
  1
95
 13
566.725694
 23
1033.446193
 14
566.725694
 24
938.446193
 50
-90.000000
  0
DIMENSION
  8
1
 62
7
  6
CONTINUOUS
  2
*D4
 10
468.489583
 20
1058.446193
 11
468.489583
 21
1045.946193
 70
     0
  1
25
 13
566.725694
 23
1058.446193
 14
566.725694
 24
1033.446193
 50
-90.000000
  0
DIMENSION
  8
1
 62
7
  6
CONTINUOUS
  2
*D5
 10
468.489583
 20
1033.446193
 11
468.489583
 21
864.946193
 70
     0
  1
337
 13
468.489583
 23
1033.446193
 14
566.725694
 24
696.446193
 50
-90.000000
  0
DIMENSION
  8
1
 62
7
  6
CONTINUOUS
  2
*D6
 10
468.489583
 20
696.446193
 11
468.489583
 21
683.946193
 70
     0
  1
25
 13
468.489583
 23
696.446193
 14
566.725694
 24
671.446193
 50
-90.000000
  0
DIMENSION
  8
1
 62
7
  6
CONTINUOUS
  2
*D7
 10
430.564236
 20
1058.446193
 11
430.564236
 21
864.946193
 70
     0
  1
387
 13
566.725694
 23
1058.446193
 14
566.725694
 24
671.446193
 50
-90.000000
  0
DIMENSION
  8
1
 62
7
  6
CONTINUOUS
  2
*D8
 10
576.725694
 20
1180.147569
 11
814.225694
 21
1180.147569
 70
     0
  1
475
 13
576.725694
 23
1068.446193
 14
1051.725694
 24
1068.446193
 50
0.000000
  0
DIMENSION
  8
1
 62
7
  6
CONTINUOUS
  2
*D9
 10
576.725694
 20
1142.222222
 11
589.225694
 21
1142.222222
 70
     0
  1
25
 13
576.725694
 23
1068.446193
 14
601.725694
 24
1068.446193
 50
0.000000
  0
DIMENSION
  8
1
 62
7
  6
CONTINUOUS
  2
*D10
 10
601.725694
 20
1142.222222
 11
814.225694
 21
1142.222222
 70
     0
  1
425
 13
601.725694
 23
1142.222222
 14
1026.725694
 24
1068.446193
 50
0.000000
  0
DIMENSION
  8
1
 62
7
  6
CONTINUOUS
  2
*D11
 10
1026.725694
 20
1142.222222
 11
1039.225694
 21
1142.222222
 70
     0
  1
25
 13
1026.725694
 23
1142.222222
 14
1051.725694
 24
1068.446193
 50
0.000000
  0
LINE
  8
1
 62
7
  6
CONTINUOUS
 10
1026.263054
 20
854.446181
 11
930.246214
 21
854.446181
  0
LINE
  8
1
 62
7
  6
CONTINUOUS
 10
930.246214
 20
854.446181
 11
960.246214
 21
854.446181
  0
TEXT
  8
1
 62
7
  6
CONTINUOUS
 10
930.246214
 20
854.446181
 40
20.000000
 41
0.375000
  1
140R
  7
KANJI
 50
0.000000
 51
30.000000
  0
LINE
  8
1
 62
7
  6
CONTINUOUS
 10
1026.263054
 20
854.446181
 11
1006.944537
 21
849.269800
  0
LINE
  8
1
 62
7
  6
CONTINUOUS
 10
1026.263054
 20
854.446181
 11
1006.944537
 21
859.622561
  0
LINE
  8
1
 62
7
  6
CONTINUOUS
 10
1006.944537
 20
849.269800
 11
1006.944537
 21
859.622561
  0
LINE
  8
1
 62
7
  6
CONTINUOUS
 10
1021.433425
 20
854.446181
 11
1011.774167
 21
851.857990
  0
LINE
  8
1
 62
7
  6
CONTINUOUS
 10
1021.433425
 20
854.446181
 11
1011.774167
 21
857.034371
  0
LINE
  8
1
 62
7
  6
CONTINUOUS
 10
1011.774167
 20
851.857990
 11
1011.774167
 21
857.034371
  0
LINE
  8
1
 62
7
  6
CONTINUOUS
 10
963.031026
 20
987.737914
 11
913.739292
 21
938.446181
  0
LINE
  8
1
 62
7
  6
CONTINUOUS
 10
913.739292
 20
938.446181
 11
883.739292
 21
938.446181
  0
TEXT
  8
1
 62
7
  6
CONTINUOUS
 10
883.739292
 20
938.446181
 40
20.000000
 41
0.375000
  1
205R
  7
KANJI
 50
0.000000
 51
30.000000
  0
LINE
  8
1
 62
7
  6
CONTINUOUS
 10
963.031026
 20
987.737914
 11
953.031026
 21
970.417406
  0
LINE
  8
1
 62
7
  6
CONTINUOUS
 10
963.031026
 20
987.737914
 11
945.710518
 21
977.737914
  0
LINE
  8
1
 62
7
  6
CONTINUOUS
 10
953.031026
 20
970.417406
 11
945.710518
 21
977.737914
  0
LINE
  8
1
 62
7
  6
CONTINUOUS
 10
959.615963
 20
984.322850
 11
954.615962
 21
975.662596
  0
LINE
  8
1
 62
7
  6
CONTINUOUS
 10
959.615963
 20
984.322850
 11
950.955708
 21
979.322850
  0
LINE
  8
1
 62
7
  6
CONTINUOUS
 10
954.615962
 20
975.662596
 11
950.955708
 21
979.322850
  0
LINE
  8
1
 62
7
  6
CONTINUOUS
 10
814.225693
 20
1028.446181
 11
836.725694
 21
987.312623
  0
LINE
  8
1
 62
7
  6
CONTINUOUS
 10
836.725694
 20
987.312623
 11
870.535526
 21
987.312623
  0
TEXT
  8
1
 62
7
  6
CONTINUOUS
 10
840.535526
 20
987.312623
 40
20.000000
 41
0.375000
  1
260R
  7
KANJI
 50
0.000000
 51
30.000000
  0
LINE
  8
1
 62
7
  6
CONTINUOUS
 10
814.225693
 20
1028.446181
 11
828.037940
 21
1013.981678
  0
LINE
  8
1
 62
7
  6
CONTINUOUS
 10
814.225693
 20
1028.446181
 11
818.955199
 21
1009.013430
  0
LINE
  8
1
 62
7
  6
CONTINUOUS
 10
828.037940
 20
1013.981678
 11
818.955199
 21
1009.013430
  0
LINE
  8
1
 62
7
  6
CONTINUOUS
 10
816.543412
 20
1024.209024
 11
823.449536
 21
1016.976773
  0
LINE
  8
1
 62
7
  6
CONTINUOUS
 10
816.543412
 20
1024.209024
 11
818.908165
 21
1014.492649
  0
LINE
  8
1
 62
7
  6
CONTINUOUS
 10
823.449536
 20
1016.976773
 11
818.908165
 21
1014.492649
  0
DIMENSION
  8
1
 62
7
  6
CONTINUOUS
  2
*D12
 10
786.725694
 20
843.929851
 11
814.225694
 21
843.929851
 70
     0
  1
60
 13
786.725694
 23
928.446181
 14
841.725694
 24
928.446181
 50
0.000000
  0
DIMENSION
  8
1
 62
7
  6
CONTINUOUS
  2
*D13
 10
791.725694
 20
867.628738
 11
814.225694
 21
867.628738
 70
     0
  1
44
 13
791.725694
 23
928.446181
 14
836.725694
 24
928.446181
 50
0.000000
  0
DIMENSION
  8
1
 62
7
  6
CONTINUOUS
  2
*D14
 10
791.725694
 20
288.579649
 11
814.225694
 21
288.579649
 70
     0
  1
44
 13
791.725694
 23
306.875000
 14
836.725694
 24
306.875000
 50
0.000000
  0
LINE
  8
1
 62
7
  6
CONTINUOUS
 10
579.941085
 20
469.875000
 11
576.725694
 21
481.875002
  0
LINE
  8
1
 62
7
  6
CONTINUOUS
 10
579.941085
 20
469.875000
 11
591.725694
 21
469.875000
  0
LINE
  8
1
 62
7
  6
CONTINUOUS
 10
576.725695
 20
481.875000
 11
713.338836
 21
481.875000
  0
LINE
  8
1
 62
7
  6
CONTINUOUS
 10
591.725694
 20
469.875000
 11
713.338836
 21
469.875000
  0
ARC
  8
1
 62
7
  6
CONTINUOUS
 10
783.589823
 20
526.338759
 40
200.000000
 50
-163.601353
 51
-110.564092
  0
LINE
  8
1
 62
7
  6
CONTINUOUS
 10
579.941085
 20
469.875000
 11
591.725694
 21
469.875000
  0
LINE
  8
1
 62
7
  6
CONTINUOUS
 10
713.338836
 20
481.875000
 11
898.909209
 21
481.875001
  0
LINE
  8
1
 62
7
  6
CONTINUOUS
 10
713.338836
 20
469.875000
 11
898.909209
 21
469.875000
  0
LINE
  8
1
 62
7
  6
CONTINUOUS
 10
1051.725694
 20
481.875000
 11
1048.510304
 21
469.875000
  0
LINE
  8
1
 62
7
  6
CONTINUOUS
 10
1036.725694
 20
469.875000
 11
1048.510304
 21
469.875000
  0
LINE
  8
1
 62
7
  6
CONTINUOUS
 10
898.909209
 20
481.875001
 11
1051.725694
 21
481.875001
  0
LINE
  8
1
 62
7
  6
CONTINUOUS
 10
898.909209
 20
469.875000
 11
1036.725694
 21
469.875000
  0
DIMENSION
  8
1
 62
7
  6
CONTINUOUS
  2
*D15
 10
576.725694
 20
592.475296
 11
814.225694
 21
592.475296
 70
     0
  1
475
 13
576.725694
 23
491.875000
 14
1051.725694
 24
491.874997
 50
0.000000
  0
DIMENSION
  8
1
 62
7
  6
CONTINUOUS
  2
*D16
 10
435.026041
 20
481.875000
 11
435.026041
 21
399.375000
 70
     0
  1
159
 13
547.726240
 23
481.875000
 14
547.725694
 24
316.875000
 50
-90.000000
  0
ARC
  8
1
 62
7
  6
CONTINUOUS
 10
841.011114
 20
508.855815
 40
185.451627
 50
-88.446048
 51
-65.502526
  0
ARC
  8
1
 62
7
  6
CONTINUOUS
 10
843.944188
 20
527.096424
 40
201.094507
 50
-68.619439
 51
-16.531947
  0
LINE
  8
1
 62
7
  6
CONTINUOUS
 10
760.901579
 20
325.771638
 11
782.411149
 21
323.472392
  0
ARC
  8
1
 62
7
  6
CONTINUOUS
 10
777.792388
 20
477.755030
 40
152.919100
 50
-114.928561
 51
-95.705285
  0
LINE
  8
1
 62
7
  6
CONTINUOUS
 10
1273.845486
 20
1064.446193
 11
1285.845486
 21
1061.230803
  0
LINE
  8
1
 62
7
  6
CONTINUOUS
 10
1273.845486
 20
1064.446193
 11
1273.845486
 21
666.126405
  0
LINE
  8
1
 62
7
  6
CONTINUOUS
 10
1273.845486
 20
666.126405
 11
1285.845486
 21
669.341795
  0
LINE
  8
1
 62
7
  6
CONTINUOUS
 10
1438.845486
 20
976.946193
 11
1438.845486
 21
971.946193
  0
LINE
  8
1
 62
7
  6
CONTINUOUS
 10
1438.845486
 20
921.946193
 11
1438.845486
 21
926.946193
  0
ARC
  8
1
 62
7
  6
CONTINUOUS
 10
1444.588822
 20
988.923825
 40
20.000000
 50
-159.581075
 51
-144.685014
  0
LINE
  8
1
 62
7
  6
CONTINUOUS
 10
1433.503280
 20
973.580666
 11
1438.845486
 21
971.946193
  0
ARC
  8
1
 62
7
  6
CONTINUOUS
 10
1436.428958
 20
983.143114
 40
10.000000
 50
-144.685014
 51
-107.011745
  0
ARC
  8
1
 62
7
  6
CONTINUOUS
 10
1385.450462
 20
952.480245
 40
50.000000
 50
36.108694
 51
66.440829
  0
ARC
  8
1
 62
7
  6
CONTINUOUS
 10
1444.547398
 20
909.858281
 40
20.000000
 50
144.236795
 51
159.243593
  0
LINE
  8
1
 62
7
  6
CONTINUOUS
 10
1433.429788
 20
925.241027
 11
1438.845486
 21
926.946193
  0
ARC
  8
1
 62
7
  6
CONTINUOUS
 10
1436.433005
 20
915.702648
 40
10.000000
 50
107.476924
 51
144.236795
  0
ARC
  8
1
 62
7
  6
CONTINUOUS
 10
1228.226972
 20
886.174083
 40
200.000000
 50
-76.815201
 51
-16.815201
  0
ARC
  8
1
 62
7
  6
CONTINUOUS
 10
1126.783903
 20
893.236078
 40
300.000000
 50
-12.497509
 51
-5.315097
  0
LINE
  8
1
 62
7
  6
CONTINUOUS
 10
1425.494000
 20
865.446193
 11
1425.845486
 21
916.946193
  0
ARC
  8
1
 62
7
  6
CONTINUOUS
 10
1294.442921
 20
868.048543
 40
139.426853
 50
-19.533177
 51
-1.069466
  0
ARC
  8
1
 62
7
  6
CONTINUOUS
 10
1104.083909
 20
265.314129
 40
792.527252
 50
67.651389
 51
77.631237
  0
LINE
  8
1
 62
7
  6
CONTINUOUS
 10
1285.845486
 20
1061.230803
 11
1285.845486
 21
1046.507482
  0
ARC
  8
1
 62
7
  6
CONTINUOUS
 10
1151.320276
 20
403.739002
 40
654.316136
 50
67.147055
 51
77.923218
  0
ARC
  8
1
 62
7
  6
CONTINUOUS
 10
1288.845486
 20
1046.507482
 40
3.000000
 50
-180.000000
 51
-102.076782
  0
LINE
  8
1
 62
7
  6
CONTINUOUS
 10
1438.845486
 20
979.446193
 11
1438.845486
 21
976.946193
  0
LINE
  8
1
 62
7
  6
CONTINUOUS
 10
1438.845486
 20
919.446193
 11
1438.845486
 21
921.946193
  0
LINE
  8
1
 62
7
  6
CONTINUOUS
 10
1433.845486
 20
865.446193
 11
1433.866496
 21
915.072429
  0
LINE
  8
1
 62
7
  6
CONTINUOUS
 10
1435.504709
 20
917.744272
 11
1438.845486
 21
919.446193
  0
ARC
  8
1
 62
7
  6
CONTINUOUS
 10
1436.866495
 20
915.071159
 40
3.000000
 50
116.996041
 51
179.975743
  0
DIMENSION
  8
1
 62
7
  6
CONTINUOUS
  2
*D17
 10
1538.117813
 20
979.446193
 11
1538.117813
 21
949.446193
 70
     0
  1
60
 13
1448.845486
 23
979.446193
 14
1448.845486
 24
919.446193
 50
-90.000000
  0
ARC
  8
1
 62
7
  6
CONTINUOUS
 10
1376.931729
 20
945.291945
 40
67.695714
 50
33.455830
 51
65.098871
  0
LINE
  8
1
 62
7
  6
CONTINUOUS
 10
1434.572305
 20
981.582783
 11
1438.845486
 21
979.446193
  0
ARC
  8
1
 62
7
  6
CONTINUOUS
 10
1435.913945
 20
984.266065
 40
3.000000
 50
-146.544170
 51
-116.565051
  0
LINE
  8
1
 62
7
  6
CONTINUOUS
 10
1285.845486
 20
1036.716861
 11
1285.845486
 21
694.653570
  0
LINE
  8
1
 62
7
  6
CONTINUOUS
 10
1285.845486
 20
684.069170
 11
1285.845486
 21
669.341795
  0
ARC
  8
1
 62
7
  6
CONTINUOUS
 10
1228.226972
 20
886.174083
 40
208.000000
 50
-73.304126
 51
-18.178532
  0
ARC
  8
1
 62
7
  6
CONTINUOUS
 10
1288.845486
 20
684.069170
 40
3.000000
 50
106.695874
 51
180.000000
  0
DIMENSION
  8
1
 62
7
  6
CONTINUOUS
  2
*D18
 10
1273.845486
 20
1103.515155
 11
1279.845486
 21
1103.515155
 70
     0
  1
12
 13
1273.845486
 23
1074.446193
 14
1285.845486
 24
1074.446193
 50
0.000000
  0
LINE
  8
1
 62
7
  6
CONTINUOUS
 10
1438.845486
 20
926.946193
 11
1438.845486
 21
971.946193
  0
LINE
  8
1
 62
7
  6
CONTINUOUS
 10
1433.845486
 20
925.371913
 11
1433.845486
 21
971.946193
  0
LINE
  8
1
 62
7
  6
CONTINUOUS
 10
1425.845486
 20
916.946193
 11
1425.845486
 21
981.946193
  0
DIMENSION
  8
1
 62
7
  6
CONTINUOUS
  2
*D19
 10
1413.368124
 20
916.946193
 11
1413.368124
 21
949.446193
 70
     0
  1
70
 13
1415.845486
 23
916.946193
 14
1415.845486
 24
981.946193
 50
90.000000
  0
LINE
  8
1
 62
7
  6
CONTINUOUS
 10
1380.868124
 20
949.446193
 11
1457.944858
 21
949.446193
  0
DIMENSION
  8
1
 62
7
  6
CONTINUOUS
  2
*D20
 10
1325.736880
 20
1026.252428
 11
1326.423048
 21
1030.142689
 70
     0
  1
   8
 13
1325.736880
 23
1026.252428
 14
1327.109216
 24
1034.032951
 50
79.997000
  0
LINE
  8
1
 62
7
  6
CONTINUOUS
 10
1301.144960
 20
1032.951014
 11
1291.158310
 21
1042.937665
  0
LINE
  8
1
 62
7
  6
CONTINUOUS
 10
1316.196596
 20
1028.928988
 11
1306.258888
 21
1039.446193
  0
LINE
  8
1
 62
7
  6
CONTINUOUS
 10
1349.378672
 20
1018.925385
 11
1337.209715
 21
1031.094342
  0
LINE
  8
1
 62
7
  6
CONTINUOUS
 10
1373.999664
 20
1010.461719
 11
1360.868117
 21
1023.593266
  0
LINE
  8
1
 62
7
  6
CONTINUOUS
 10
1389.289185
 20
1004.744583
 11
1379.531551
 21
1016.967524
  0
LINE
  8
1
 62
7
  6
CONTINUOUS
 10
1402.684374
 20
999.437557
 11
1394.452748
 21
1011.206044
  0
LINE
  8
1
 62
7
  6
CONTINUOUS
 10
1420.023182
 20
988.601251
 11
1413.149167
 21
1002.484662
  0
LINE
  8
1
 62
7
  6
CONTINUOUS
 10
1433.845486
 20
900.250489
 11
1425.845486
 21
908.250489
  0
LINE
  8
1
 62
7
  6
CONTINUOUS
 10
1433.845486
 20
885.267134
 11
1425.845486
 21
893.267134
  0
LINE
  8
1
 62
7
  6
CONTINUOUS
 10
1433.845486
 20
865.446193
 11
1425.550612
 21
873.741066
  0
LINE
  8
1
 62
7
  6
CONTINUOUS
 10
1432.017299
 20
844.538731
 11
1424.011431
 21
852.544598
  0
LINE
  8
1
 62
7
  6
CONTINUOUS
 10
1426.538965
 20
823.433719
 11
1420.130002
 21
829.842681
  0
LINE
  8
1
 62
7
  6
CONTINUOUS
 10
1421.159832
 20
808.450782
 11
1414.989365
 21
814.621248
  0
LINE
  8
1
 62
7
  6
CONTINUOUS
 10
1410.852903
 20
786.616214
 11
1404.945781
 21
792.523336
  0
LINE
  8
1
 62
7
  6
CONTINUOUS
 10
1399.757982
 20
768.525826
 11
1393.999765
 21
774.284044
  0
LINE
  8
1
 62
7
  6
CONTINUOUS
 10
1389.002794
 20
754.207667
 11
1383.317511
 21
759.892950
  0
LINE
  8
1
 62
7
  6
CONTINUOUS
 10
1377.011686
 20
740.822410
 11
1371.354431
 21
746.479665
  0
LINE
  8
1
 62
7
  6
CONTINUOUS
 10
1361.331611
 20
726.339309
 11
1355.650309
 21
732.020611
  0
LINE
  8
1
 62
7
  6
CONTINUOUS
 10
1344.511562
 20
713.715699
 11
1338.744282
 21
719.482979
  0
LINE
  8
1
 62
7
  6
CONTINUOUS
 10
1327.630845
 20
703.464286
 11
1321.722191
 21
709.372940
  0
LINE
  8
1
 62
7
  6
CONTINUOUS
 10
1314.218339
 20
696.781673
 11
1307.920180
 21
702.737466
  0
LINE
  8
1
 62
7
  6
CONTINUOUS
 10
1301.336813
 20
691.446193
 11
1295.098261
 21
697.684745
  0
DIMENSION
  8
1
 62
7
  6
CONTINUOUS
  2
*D21
 10
1273.845486
 20
1152.267152
 11
1356.345486
 21
1152.267152
 70
     0
  1
159
 13
1273.845486
 23
1074.446193
 14
1438.845486
 24
1074.446193
 50
0.000000
  0
DIMENSION
  8
1
 62
7
  6
CONTINUOUS
  2
*D22
 10
1249.366139
 20
949.446193
 11
1249.366139
 21
994.446193
 70
     0
  1
95
 13
1263.845486
 23
949.446193
 14
1263.845486
 24
1039.446193
 50
90.000000
  0
DIMENSION
  8
1
 62
7
  6
CONTINUOUS
  2
*D23
 10
1199.682184
 20
666.126405
 11
1199.682184
 21
865.286299
 70
     0
  1
387
 13
1263.845486
 23
666.126405
 14
1263.845486
 24
1064.446193
 50
90.000000
  0
DIMENSION
  8
1
 62
7
  6
CONTINUOUS
  2
*D24
 10
1224.065560
 20
666.446193
 11
1224.065560
 21
678.946193
 70
     0
  1
25
 13
1263.845486
 23
666.446193
 14
1263.845486
 24
691.446193
 50
90.000000
  0
DIMENSION
  8
1
 62
7
  6
CONTINUOUS
  2
*D25
 10
1224.065560
 20
691.446193
 11
1224.065560
 21
865.446193
 70
     0
  1
337
 13
1224.065560
 23
691.446193
 14
1263.845486
 24
1039.446193
 50
90.000000
  0
DIMENSION
  8
1
 62
7
  6
CONTINUOUS
  2
*D26
 10
1224.065560
 20
1039.446193
 11
1224.065560
 21
1051.946193
 70
     0
  1
25
 13
1224.065560
 23
1039.446193
 14
1263.845486
 24
1064.446193
 50
90.000000
  0
DIMENSION
  8
1
 62
7
  6
CONTINUOUS
  2
*D27
 10
1504.430314
 20
926.946193
 11
1504.430314
 21
949.446193
 70
     0
  1
44
 13
1448.845486
 23
926.946193
 14
1448.845486
 24
971.946193
 50
90.000000
  0
ENDSEC
  0
EOF
