  0
SECTION
  2
HEADER
  9
$ACADVER
  1
AC1003
  9
$INSBASE
 10
0.000000
 20
0.000000
  9
$EXTMIN
 10
0.000000
 20
0.000000
  9
$EXTMAX
 10
1820.000000
 20
1285.000000
  9
$LIMMIN
 10
0.000000
 20
0.000000
  9
$LIMMAX
 10
1820.000000
 20
1285.000000
  9
$VIEWCTR
 10
910.000000
 20
642.500000
  9
$VIEWSIZE
 40
1285.000000
  9
$PEXTMIN
 10
0.000000
 20
0.000000
 30
0.000000
  9
$PEXTMAX
 10
364.000000
 20
257.000000
 30
0.000000
  9
$SNAPMODE
 70
     0
  9
$SNAPUNIT
 10
1.000000
 20
1.000000
  9
$SNAPBASE
 10
0.000000
 20
0.000000
  9
$SNAPANG
 50
0.000000
  9
$SNAPISOPAIR
 70
     0
  9
$SNAPSTYLE
 70
     0
  9
$GRIDMODE
 70
     0
  9
$GRIDUNIT
 10
0.000000
 20
0.000000
  9
$ORTHOMODE
 70
     0
  9
$REGENMODE
 70
     1
  9
$FILLMODE
 70
     1
  9
$QTEXTMODE
 70
     0
  9
$DRAGMODE
 70
     2
  9
$LTSCALE
 40
1.250000
  9
$OSMODE
 70
     0
  9
$ATTMODE
 70
     1
  9
$TEXTSIZE
 40
0.200000
  9
$TRACEWID
 40
0.050000
  9
$TEXTSTYLE
  7
STANDARD
  9
$CLAYER
  8
0
  9
$CELTYPE
  6
BYLAYER
  9
$CECOLOR
 62
   256
  9
$DIMSCALE
 40
1.000000
  9
$DIMASZ
 40
1.000000
  9
$DIMEXO
 40
0.000000
  9
$DIMDLI
 40
0.500000
  9
$DIMRND
 40
0.000000
  9
$DIMDLE
 40
0.000000
  9
$DIMEXE
 40
0.000000
  9
$DIMTP
 40
0.000000
  9
$DIMTM
 40
0.000000
  9
$DIMTXT
 40
0.180000
  9
$DIMCEN
 40
0.000000
  9
$DIMTSZ
 40
0.000000
  9
$DIMTOL
 70
     0
  9
$DIMLIM
 70
     0
  9
$DIMTIH
 70
     1
  9
$DIMTOH
 70
     1
  9
$DIMSE1
 70
     0
  9
$DIMSE2
 70
     0
  9
$DIMTAD
 70
     0
  9
$DIMZIN
 70
     0
  9
$DIMBLK
  1

  9
$DIMASO
 70
     0
  9
$DIMSHO
 70
     0
  9
$DIMPOST
  1

  9
$DIMAPOST
  1

  9
$DIMALT
 70
     0
  9
$DIMALTD
 70
     0
  9
$DIMALTF
 40
25.400000
  9
$DIMLFAC
 40
1.000000
  9
$DIMTOFL
 70
     0
  9
$DIMTVP
 40
0.000000
  9
$DIMTIX
 70
     0
  9
$DIMSOXD
 70
     0
  9
$DIMSAH
 70
     0
  9
$DIMBLKL
  1

  9
$DIMBLKR
  1

  9
$LUNITS
 70
     2
  9
$LUPREC
 70
     2
  9
$AXISMODE
 70
     0
  9
$AXISUNIT
 10
1.000000
 20
1.000000
  9
$SKETCHINC
 40
0.000000
  9
$FILLETRAD
 40
0.000000
  9
$AUNITS
 70
     1
  9
$AUPREC
 70
     2
  9
$MENU
  1
ACAD
  9
$ELEVATION
 40
0.000000
  9
$THICKNESS
 40
0.000000
  9
$VIEWDIR
 10
0.000000
 20
0.000000
 30
1.000000
  9
$LIMCHECK
 70
     1
  9
$BLIPMODE
 70
     1
  9
$CHAMFERA
 40
0.000000
  9
$CHAMFERB
 40
0.000000
  9
$FASTZOOM
 70
     1
  9
$SKPOLY
 70
     0
  9
$TDCREATE
 40
0.000000
  9
$TDUPDATE
 40
0.000000
  9
$TDINDWG
 40
0.000000
  9
$TDUSRTIMER
 40
0.000000
  9
$USRTIMER
 70
     1
  9
$ANGBASE
 50
0.000000
  9
$ANGDIR
 70
     0
  9
$PDMODE
 70
     0
  9
$PDSIZE
 40
0.000000
  9
$PLINEWID
 40
0.000000
  9
$COORDS
 70
     2
  9
$USERI1
 70
     0
  9
$USERI2
 70
     0
  9
$USERI3
 70
     0
  9
$USERI4
 70
     0
  9
$USERI5
 70
     0
  9
$USERR1
 40
0.000000
  9
$USERR2
 40
0.000000
  9
$USERR3
 40
0.000000
  9
$USERR4
 40
0.000000
  9
$USERR5
 40
0.000000
  0
ENDSEC
  0
SECTION
  2
TABLES
  0
TABLE
  2
LTYPE
 70
     5
  0
LTYPE
  2
CONTINUOUS
 70
    64
  3
Solid line
 72
    65
 73
     0
 40
0.0
  0
LTYPE
  2
HIDDEN
 70
    64
  3
------------------------
 72
    65
 73
     2
 40
12.6
 49
8.4
 49
-4.2
  0
LTYPE
  2
DOT
 70
    64
  3
････････････････････････
 72
    65
 73
     2
 40
8.0
 49
6.0
 49
-2.0
  0
LTYPE
  2
DASHDOT
 70
    64
  3
--･--･--･--･--･--･--･--
 72
    65
 73
     4
 40
50.5
 49
30.0
 49
-9.0
 49
2.5
 49
-9.0
  0
LTYPE
  2
DIVIDE
 70
    64
  3
--･･--･･--･･--･･--･･--
 72
    65
 73
     6
 40
58.0
 49
30.0
 49
-9.0
 49
2.5
 49
-5.0
 49
2.5
 49
-9.0
  0
ENDTAB
  0
TABLE
  2
LAYER
 70
1
  0
LAYER
  2
1
 70
64
 62
7
  6
CONTINUOUS
  0
ENDTAB
  0
TABLE
  2
STYLE
 70
     2
  0
STYLE
  2
STANDARD
 70
    64
 40
0.0
 41
1.0
 50
0.0
 71
     0
 42
0.2
  3
TXT
  4

  0
STYLE
  2
KANJI
 70
    64
 40
0.0
 41
1.0
 50
0.0
 71
     0
 42
0.2
  3
TXT
  4
BIGFONT
  0
ENDTAB
  0
TABLE
  2
VIEW
 70
     0
  0
ENDTAB
  0
ENDSEC
  0
SECTION
  2
BLOCKS
  0
BLOCK
  8
1
 62
7
  6
CONTINUOUS
  2
*D1
 70
    65
 10
0.0
 20
0.0
  0
LINE
  8
1
 62
7
  6
CONTINUOUS
 10
989.908861
 20
901.393333
 11
989.908861
 21
1047.393333
  0
LINE
  8
1
 62
7
  6
CONTINUOUS
 10
999.908861
 20
901.393333
 11
973.827554
 21
901.393333
  0
LINE
  8
1
 62
7
  6
CONTINUOUS
 10
999.908861
 20
1047.393333
 11
973.827554
 21
1047.393333
  0
CIRCLE
  8
1
 62
7
  6
CONTINUOUS
 10
989.908861
 20
901.393333
 40
1.500000
  0
CIRCLE
  8
1
 62
7
  6
CONTINUOUS
 10
989.908861
 20
901.393333
 40
0.750000
  0
CIRCLE
  8
1
 62
7
  6
CONTINUOUS
 10
989.908861
 20
1047.393333
 40
1.500000
  0
CIRCLE
  8
1
 62
7
  6
CONTINUOUS
 10
989.908861
 20
1047.393333
 40
0.750000
  0
TEXT
  8
1
 62
7
  6
CONTINUOUS
 10
989.908861
 20
959.393333
 40
20.000000
 41
0.500000
  1
146
  7
KANJI
 50
90.000000
 51
30.000000
  0
ENDBLK
  0
BLOCK
  8
1
 62
7
  6
CONTINUOUS
  2
*D2
 70
    65
 10
0.0
 20
0.0
  0
LINE
  8
1
 62
7
  6
CONTINUOUS
 10
782.327554
 20
901.393333
 11
962.327554
 21
901.393333
  0
CIRCLE
  8
1
 62
7
  6
CONTINUOUS
 10
782.327554
 20
901.393333
 40
1.500000
  0
CIRCLE
  8
1
 62
7
  6
CONTINUOUS
 10
782.327554
 20
901.393333
 40
0.750000
  0
CIRCLE
  8
1
 62
7
  6
CONTINUOUS
 10
962.327554
 20
901.393333
 40
1.500000
  0
CIRCLE
  8
1
 62
7
  6
CONTINUOUS
 10
962.327554
 20
901.393333
 40
0.750000
  0
TEXT
  8
1
 62
7
  6
CONTINUOUS
 10
847.327554
 20
901.393333
 40
20.000000
 41
0.625000
  1
φ180
  7
KANJI
 50
-0.000000
 51
30.000000
  0
ENDBLK
  0
BLOCK
  8
1
 62
7
  6
CONTINUOUS
  2
*D3
 70
    65
 10
0.0
 20
0.0
  0
LINE
  8
1
 62
7
  6
CONTINUOUS
 10
1171.760000
 20
1047.393333
 11
1171.760000
 21
1007.393333
  0
LINE
  8
1
 62
7
  6
CONTINUOUS
 10
1181.760000
 20
1047.393333
 11
1102.327554
 21
1047.393333
  0
LINE
  8
1
 62
7
  6
CONTINUOUS
 10
1181.760000
 20
1007.393333
 11
1102.327554
 21
1007.393333
  0
CIRCLE
  8
1
 62
7
  6
CONTINUOUS
 10
1171.760000
 20
1047.393333
 40
1.500000
  0
CIRCLE
  8
1
 62
7
  6
CONTINUOUS
 10
1171.760000
 20
1047.393333
 40
0.750000
  0
CIRCLE
  8
1
 62
7
  6
CONTINUOUS
 10
1171.760000
 20
1007.393333
 40
1.500000
  0
CIRCLE
  8
1
 62
7
  6
CONTINUOUS
 10
1171.760000
 20
1007.393333
 40
0.750000
  0
TEXT
  8
1
 62
7
  6
CONTINUOUS
 10
1171.760000
 20
1017.393333
 40
20.000000
 41
0.500000
  1
40
  7
KANJI
 50
90.000000
 51
30.000000
  0
ENDBLK
  0
BLOCK
  8
1
 62
7
  6
CONTINUOUS
  2
*D4
 70
    65
 10
0.0
 20
0.0
  0
LINE
  8
1
 62
7
  6
CONTINUOUS
 10
1171.760000
 20
1007.393333
 11
1171.760000
 21
967.393333
  0
LINE
  8
1
 62
7
  6
CONTINUOUS
 10
1181.760000
 20
967.393333
 11
1102.327554
 21
967.393333
  0
CIRCLE
  8
1
 62
7
  6
CONTINUOUS
 10
1171.760000
 20
967.393333
 40
1.500000
  0
CIRCLE
  8
1
 62
7
  6
CONTINUOUS
 10
1171.760000
 20
967.393333
 40
0.750000
  0
TEXT
  8
1
 62
7
  6
CONTINUOUS
 10
1171.760000
 20
977.393333
 40
20.000000
 41
0.500000
  1
40
  7
KANJI
 50
90.000000
 51
30.000000
  0
ENDBLK
  0
BLOCK
  8
1
 62
7
  6
CONTINUOUS
  2
*D5
 70
    65
 10
0.0
 20
0.0
  0
LINE
  8
1
 62
7
  6
CONTINUOUS
 10
1356.782410
 20
446.046667
 11
1356.782410
 21
233.046667
  0
LINE
  8
1
 62
7
  6
CONTINUOUS
 10
1366.782410
 20
446.046667
 11
1317.760000
 21
446.046667
  0
LINE
  8
1
 62
7
  6
CONTINUOUS
 10
1366.782410
 20
233.046667
 11
1317.760000
 21
233.046667
  0
CIRCLE
  8
1
 62
7
  6
CONTINUOUS
 10
1356.782410
 20
446.046667
 40
1.500000
  0
CIRCLE
  8
1
 62
7
  6
CONTINUOUS
 10
1356.782410
 20
446.046667
 40
0.750000
  0
CIRCLE
  8
1
 62
7
  6
CONTINUOUS
 10
1356.782410
 20
233.046667
 40
1.500000
  0
CIRCLE
  8
1
 62
7
  6
CONTINUOUS
 10
1356.782410
 20
233.046667
 40
0.750000
  0
TEXT
  8
1
 62
7
  6
CONTINUOUS
 10
1356.782410
 20
324.546667
 40
20.000000
 41
0.500000
  1
213
  7
KANJI
 50
90.000000
 51
30.000000
  0
ENDBLK
  0
BLOCK
  8
1
 62
7
  6
CONTINUOUS
  2
*D6
 70
    65
 10
0.0
 20
0.0
  0
LINE
  8
1
 62
7
  6
CONTINUOUS
 10
782.340054
 20
289.180000
 11
962.315054
 21
289.180000
  0
LINE
  8
1
 62
7
  6
CONTINUOUS
 10
782.340054
 20
299.180000
 11
782.340054
 21
259.180000
  0
LINE
  8
1
 62
7
  6
CONTINUOUS
 10
962.315054
 20
299.180000
 11
962.315054
 21
259.180000
  0
CIRCLE
  8
1
 62
7
  6
CONTINUOUS
 10
782.340054
 20
289.180000
 40
1.500000
  0
CIRCLE
  8
1
 62
7
  6
CONTINUOUS
 10
782.340054
 20
289.180000
 40
0.750000
  0
CIRCLE
  8
1
 62
7
  6
CONTINUOUS
 10
962.315054
 20
289.180000
 40
1.500000
  0
CIRCLE
  8
1
 62
7
  6
CONTINUOUS
 10
962.315054
 20
289.180000
 40
0.750000
  0
TEXT
  8
1
 62
7
  6
CONTINUOUS
 10
857.327554
 20
289.180000
 40
20.000000
 41
0.500000
  1
180
  7
KANJI
 50
0.000000
 51
30.000000
  0
ENDBLK
  0
BLOCK
  8
1
 62
7
  6
CONTINUOUS
  2
*D7
 70
    65
 10
0.0
 20
0.0
  0
LINE
  8
1
 62
7
  6
CONTINUOUS
 10
652.327554
 20
1105.860000
 11
872.327554
 21
1105.860000
  0
LINE
  8
1
 62
7
  6
CONTINUOUS
 10
652.327554
 20
1115.860000
 11
652.327554
 21
1082.393333
  0
LINE
  8
1
 62
7
  6
CONTINUOUS
 10
872.327554
 20
1115.860000
 11
872.327554
 21
1082.393333
  0
CIRCLE
  8
1
 62
7
  6
CONTINUOUS
 10
652.327554
 20
1105.860000
 40
1.500000
  0
CIRCLE
  8
1
 62
7
  6
CONTINUOUS
 10
652.327554
 20
1105.860000
 40
0.750000
  0
CIRCLE
  8
1
 62
7
  6
CONTINUOUS
 10
872.327554
 20
1105.860000
 40
1.500000
  0
CIRCLE
  8
1
 62
7
  6
CONTINUOUS
 10
872.327554
 20
1105.860000
 40
0.750000
  0
TEXT
  8
1
 62
7
  6
CONTINUOUS
 10
747.327554
 20
1105.860000
 40
20.000000
 41
0.500000
  1
220
  7
KANJI
 50
0.000000
 51
30.000000
  0
ENDBLK
  0
BLOCK
  8
1
 62
7
  6
CONTINUOUS
  2
*D8
 70
    65
 10
0.0
 20
0.0
  0
LINE
  8
1
 62
7
  6
CONTINUOUS
 10
872.327554
 20
1105.860000
 11
1092.327554
 21
1105.860000
  0
LINE
  8
1
 62
7
  6
CONTINUOUS
 10
1092.327554
 20
1115.860000
 11
1092.327554
 21
1082.393333
  0
CIRCLE
  8
1
 62
7
  6
CONTINUOUS
 10
1092.327554
 20
1105.860000
 40
1.500000
  0
CIRCLE
  8
1
 62
7
  6
CONTINUOUS
 10
1092.327554
 20
1105.860000
 40
0.750000
  0
TEXT
  8
1
 62
7
  6
CONTINUOUS
 10
967.327554
 20
1105.860000
 40
20.000000
 41
0.500000
  1
220
  7
KANJI
 50
0.000000
 51
30.000000
  0
ENDBLK
  0
BLOCK
  8
1
 62
7
  6
CONTINUOUS
  2
*D9
 70
    65
 10
0.0
 20
0.0
  0
LINE
  8
1
 62
7
  6
CONTINUOUS
 10
333.160000
 20
1072.393333
 11
333.160000
 21
562.393333
  0
LINE
  8
1
 62
7
  6
CONTINUOUS
 10
323.160000
 20
1072.393333
 11
421.760000
 21
1072.393333
  0
LINE
  8
1
 62
7
  6
CONTINUOUS
 10
323.160000
 20
562.393333
 11
421.760000
 21
562.393333
  0
CIRCLE
  8
1
 62
7
  6
CONTINUOUS
 10
333.160000
 20
1072.393333
 40
1.500000
  0
CIRCLE
  8
1
 62
7
  6
CONTINUOUS
 10
333.160000
 20
1072.393333
 40
0.750000
  0
CIRCLE
  8
1
 62
7
  6
CONTINUOUS
 10
333.160000
 20
562.393333
 40
1.500000
  0
CIRCLE
  8
1
 62
7
  6
CONTINUOUS
 10
333.160000
 20
562.393333
 40
0.750000
  0
TEXT
  8
1
 62
7
  6
CONTINUOUS
 10
333.160000
 20
802.393333
 40
20.000000
 41
0.500000
  1
510
  7
KANJI
 50
90.000000
 51
30.000000
  0
ENDBLK
  0
BLOCK
  8
1
 62
7
  6
CONTINUOUS
  2
*D10
 70
    65
 10
0.0
 20
0.0
  0
LINE
  8
1
 62
7
  6
CONTINUOUS
 10
426.760000
 20
326.813472
 11
509.099878
 21
326.813472
  0
LINE
  8
1
 62
7
  6
CONTINUOUS
 10
466.760000
 20
326.813472
 11
447.441483
 21
321.637091
  0
LINE
  8
1
 62
7
  6
CONTINUOUS
 10
466.760000
 20
326.813472
 11
447.441483
 21
331.989853
  0
LINE
  8
1
 62
7
  6
CONTINUOUS
 10
447.441483
 20
321.637091
 11
447.441483
 21
331.989853
  0
LINE
  8
1
 62
7
  6
CONTINUOUS
 10
461.930371
 20
326.813472
 11
452.271113
 21
324.225282
  0
LINE
  8
1
 62
7
  6
CONTINUOUS
 10
461.930371
 20
326.813472
 11
452.271113
 21
329.401663
  0
LINE
  8
1
 62
7
  6
CONTINUOUS
 10
452.271113
 20
324.225282
 11
452.271113
 21
329.401663
  0
LINE
  8
1
 62
7
  6
CONTINUOUS
 10
474.781362
 20
326.813472
 11
494.099878
 21
331.989853
  0
LINE
  8
1
 62
7
  6
CONTINUOUS
 10
474.781362
 20
326.813472
 11
494.099878
 21
321.637091
  0
LINE
  8
1
 62
7
  6
CONTINUOUS
 10
494.099878
 20
331.989853
 11
494.099878
 21
321.637091
  0
LINE
  8
1
 62
7
  6
CONTINUOUS
 10
479.610991
 20
326.813472
 11
489.270249
 21
329.401663
  0
LINE
  8
1
 62
7
  6
CONTINUOUS
 10
479.610991
 20
326.813472
 11
489.270249
 21
324.225282
  0
LINE
  8
1
 62
7
  6
CONTINUOUS
 10
489.270249
 20
329.401663
 11
489.270249
 21
324.225282
  0
TEXT
  8
1
 62
7
  6
CONTINUOUS
 10
484.099878
 20
331.989853
 40
20.000000
 41
0.500000
  1
10
  7
KANJI
 50
0.000000
 51
30.000000
  0
ENDBLK
  0
BLOCK
  8
1
 62
7
  6
CONTINUOUS
  2
*D11
 70
    65
 10
0.0
 20
0.0
  0
LINE
  8
1
 62
7
  6
CONTINUOUS
 10
401.760000
 20
451.046667
 11
401.760000
 21
429.250553
  0
LINE
  8
1
 62
7
  6
CONTINUOUS
 10
391.760000
 20
446.046667
 11
421.760000
 21
446.046667
  0
LINE
  8
1
 62
7
  6
CONTINUOUS
 10
391.760000
 20
434.250553
 11
421.760000
 21
434.250553
  0
CIRCLE
  8
1
 62
7
  6
CONTINUOUS
 10
401.760000
 20
446.046667
 40
1.500000
  0
CIRCLE
  8
1
 62
7
  6
CONTINUOUS
 10
401.760000
 20
446.046667
 40
0.750000
  0
CIRCLE
  8
1
 62
7
  6
CONTINUOUS
 10
401.760000
 20
434.250553
 40
1.500000
  0
CIRCLE
  8
1
 62
7
  6
CONTINUOUS
 10
401.760000
 20
434.250553
 40
0.750000
  0
TEXT
  8
1
 62
7
  6
CONTINUOUS
 10
391.760000
 20
424.250553
 40
20.000000
 41
0.500000
  1
12
  7
KANJI
 50
90.000000
 51
30.000000
  0
ENDBLK
  0
BLOCK
  8
1
 62
7
  6
CONTINUOUS
  2
*D12
 70
    65
 10
0.0
 20
0.0
  0
LINE
  8
1
 62
7
  6
CONTINUOUS
 10
1631.962977
 20
651.447307
 11
1670.377992
 21
613.482007
  0
LINE
  8
1
 62
7
  6
CONTINUOUS
 10
1670.377992
 20
613.482007
 11
1652.998907
 21
623.379855
  0
LINE
  8
1
 62
7
  6
CONTINUOUS
 10
1670.377992
 20
613.482007
 11
1660.276187
 21
630.743337
  0
LINE
  8
1
 62
7
  6
CONTINUOUS
 10
1652.998907
 20
623.379855
 11
1660.276187
 21
630.743337
  0
LINE
  8
1
 62
7
  6
CONTINUOUS
 10
1666.942881
 20
616.876904
 11
1658.253339
 21
621.825828
  0
LINE
  8
1
 62
7
  6
CONTINUOUS
 10
1666.942881
 20
616.876904
 11
1661.891979
 21
625.507569
  0
LINE
  8
1
 62
7
  6
CONTINUOUS
 10
1658.253339
 20
621.825828
 11
1661.891979
 21
625.507569
  0
TEXT
  8
1
 62
7
  6
CONTINUOUS
 10
1632.124429
 20
651.610672
 40
20.000000
 41
0.500000
  1
25R
  7
KANJI
 50
-44.662656
 51
30.000000
  0
ENDBLK
  0
BLOCK
  8
1
 62
7
  6
CONTINUOUS
  2
*D13
 70
    65
 10
0.0
 20
0.0
  0
LINE
  8
1
 62
7
  6
CONTINUOUS
 10
1473.466667
 20
1104.360000
 11
1686.466667
 21
1104.360000
  0
LINE
  8
1
 62
7
  6
CONTINUOUS
 10
1473.466667
 20
1114.360000
 11
1473.466667
 21
1057.393333
  0
LINE
  8
1
 62
7
  6
CONTINUOUS
 10
1686.466667
 20
1114.360000
 11
1686.466667
 21
1057.393333
  0
CIRCLE
  8
1
 62
7
  6
CONTINUOUS
 10
1473.466667
 20
1104.360000
 40
1.500000
  0
CIRCLE
  8
1
 62
7
  6
CONTINUOUS
 10
1473.466667
 20
1104.360000
 40
0.750000
  0
CIRCLE
  8
1
 62
7
  6
CONTINUOUS
 10
1686.466667
 20
1104.360000
 40
1.500000
  0
CIRCLE
  8
1
 62
7
  6
CONTINUOUS
 10
1686.466667
 20
1104.360000
 40
0.750000
  0
TEXT
  8
1
 62
7
  6
CONTINUOUS
 10
1564.966667
 20
1104.360000
 40
20.000000
 41
0.500000
  1
213
  7
KANJI
 50
0.000000
 51
30.000000
  0
ENDBLK
  0
BLOCK
  8
1
 62
7
  6
CONTINUOUS
  2
*D14
 70
    65
 10
0.0
 20
0.0
  0
LINE
  8
1
 62
7
  6
CONTINUOUS
 10
1681.466667
 20
1086.719924
 11
1701.466667
 21
1086.719924
  0
LINE
  8
1
 62
7
  6
CONTINUOUS
 10
1686.466667
 20
1096.719924
 11
1686.466667
 21
1057.393333
  0
LINE
  8
1
 62
7
  6
CONTINUOUS
 10
1696.466667
 20
1096.719924
 11
1696.466667
 21
1057.393333
  0
CIRCLE
  8
1
 62
7
  6
CONTINUOUS
 10
1686.466667
 20
1086.719924
 40
1.500000
  0
CIRCLE
  8
1
 62
7
  6
CONTINUOUS
 10
1686.466667
 20
1086.719924
 40
0.750000
  0
CIRCLE
  8
1
 62
7
  6
CONTINUOUS
 10
1696.466667
 20
1086.719924
 40
1.500000
  0
CIRCLE
  8
1
 62
7
  6
CONTINUOUS
 10
1696.466667
 20
1086.719924
 40
0.750000
  0
TEXT
  8
1
 62
7
  6
CONTINUOUS
 10
1686.466667
 20
1086.719924
 40
20.000000
 41
0.500000
  1
7
  7
KANJI
 50
0.000000
 51
30.000000
  0
ENDBLK
  0
BLOCK
  8
1
 62
7
  6
CONTINUOUS
  2
*D15
 70
    65
 10
0.0
 20
0.0
  0
LINE
  8
1
 62
7
  6
CONTINUOUS
 10
502.602204
 20
263.046667
 11
489.137860
 21
245.648062
  0
LINE
  8
1
 62
7
  6
CONTINUOUS
 10
489.137860
 20
245.648062
 11
496.867375
 21
264.094053
  0
LINE
  8
1
 62
7
  6
CONTINUOUS
 10
489.137860
 20
245.648062
 11
505.054812
 21
257.758001
  0
LINE
  8
1
 62
7
  6
CONTINUOUS
 10
496.867375
 20
264.094053
 11
505.054812
 21
257.758001
  0
LINE
  8
1
 62
7
  6
CONTINUOUS
 10
492.093668
 20
249.467553
 11
495.958426
 21
258.690549
  0
LINE
  8
1
 62
7
  6
CONTINUOUS
 10
492.093668
 20
249.467553
 11
500.052145
 21
255.522523
  0
LINE
  8
1
 62
7
  6
CONTINUOUS
 10
495.958426
 20
258.690549
 11
500.052145
 21
255.522523
  0
TEXT
  8
1
 62
7
  6
CONTINUOUS
 10
524.979434
 20
278.807185
 40
20.000000
 41
0.500000
  1
25R
  7
KANJI
 50
52.264611
 51
30.000000
  0
ENDBLK
  0
BLOCK
  8
1
 62
7
  6
CONTINUOUS
  2
*D16
 70
    65
 10
0.0
 20
0.0
  0
LINE
  8
1
 62
7
  6
CONTINUOUS
 10
431.760000
 20
1129.180000
 11
462.760000
 21
1129.180000
  0
CIRCLE
  8
1
 62
7
  6
CONTINUOUS
 10
431.760000
 20
1129.180000
 40
1.500000
  0
CIRCLE
  8
1
 62
7
  6
CONTINUOUS
 10
431.760000
 20
1129.180000
 40
0.750000
  0
CIRCLE
  8
1
 62
7
  6
CONTINUOUS
 10
462.760000
 20
1129.180000
 40
1.500000
  0
CIRCLE
  8
1
 62
7
  6
CONTINUOUS
 10
462.760000
 20
1129.180000
 40
0.750000
  0
TEXT
  8
1
 62
7
  6
CONTINUOUS
 10
437.260000
 20
1129.180000
 40
20.000000
 41
0.500000
  1
31
  7
KANJI
 50
0.000000
 51
30.000000
  0
ENDBLK
  0
BLOCK
  8
1
 62
7
  6
CONTINUOUS
  2
*D17
 70
    65
 10
0.0
 20
0.0
  0
LINE
  8
1
 62
7
  6
CONTINUOUS
 10
462.760000
 20
1129.180000
 11
1276.760000
 21
1129.180000
  0
CIRCLE
  8
1
 62
7
  6
CONTINUOUS
 10
1276.760000
 20
1129.180000
 40
1.500000
  0
CIRCLE
  8
1
 62
7
  6
CONTINUOUS
 10
1276.760000
 20
1129.180000
 40
0.750000
  0
TEXT
  8
1
 62
7
  6
CONTINUOUS
 10
854.760000
 20
1129.180000
 40
20.000000
 41
0.500000
  1
812
  7
KANJI
 50
0.000000
 51
30.000000
  0
ENDBLK
  0
BLOCK
  8
1
 62
7
  6
CONTINUOUS
  2
*D18
 70
    65
 10
0.0
 20
0.0
  0
LINE
  8
1
 62
7
  6
CONTINUOUS
 10
1276.760000
 20
1129.180000
 11
1307.760000
 21
1129.180000
  0
CIRCLE
  8
1
 62
7
  6
CONTINUOUS
 10
1307.760000
 20
1129.180000
 40
1.500000
  0
CIRCLE
  8
1
 62
7
  6
CONTINUOUS
 10
1307.760000
 20
1129.180000
 40
0.750000
  0
TEXT
  8
1
 62
7
  6
CONTINUOUS
 10
1282.260000
 20
1129.180000
 40
20.000000
 41
0.500000
  1
31
  7
KANJI
 50
0.000000
 51
30.000000
  0
ENDBLK
  0
BLOCK
  8
1
 62
7
  6
CONTINUOUS
  2
*D19
 70
    65
 10
0.0
 20
0.0
  0
LINE
  8
1
 62
7
  6
CONTINUOUS
 10
431.760000
 20
1149.180000
 11
1307.760000
 21
1149.180000
  0
LINE
  8
1
 62
7
  6
CONTINUOUS
 10
431.760000
 20
1159.180000
 11
431.760000
 21
1082.393333
  0
LINE
  8
1
 62
7
  6
CONTINUOUS
 10
1307.760000
 20
1159.180000
 11
1307.760000
 21
1082.393333
  0
CIRCLE
  8
1
 62
7
  6
CONTINUOUS
 10
431.760000
 20
1149.180000
 40
1.500000
  0
CIRCLE
  8
1
 62
7
  6
CONTINUOUS
 10
431.760000
 20
1149.180000
 40
0.750000
  0
CIRCLE
  8
1
 62
7
  6
CONTINUOUS
 10
1307.760000
 20
1149.180000
 40
1.500000
  0
CIRCLE
  8
1
 62
7
  6
CONTINUOUS
 10
1307.760000
 20
1149.180000
 40
0.750000
  0
TEXT
  8
1
 62
7
  6
CONTINUOUS
 10
854.760000
 20
1149.180000
 40
20.000000
 41
0.500000
  1
874
  7
KANJI
 50
0.000000
 51
30.000000
  0
ENDBLK
  0
BLOCK
  8
1
 62
7
  6
CONTINUOUS
  2
*D20
 70
    65
 10
0.0
 20
0.0
  0
LINE
  8
1
 62
7
  6
CONTINUOUS
 10
431.760000
 20
469.983641
 11
464.063236
 21
469.983641
  0
LINE
  8
1
 62
7
  6
CONTINUOUS
 10
431.760000
 20
479.983641
 11
431.760000
 21
456.046667
  0
LINE
  8
1
 62
7
  6
CONTINUOUS
 10
464.063236
 20
479.983641
 11
464.063236
 21
456.046667
  0
CIRCLE
  8
1
 62
7
  6
CONTINUOUS
 10
431.760000
 20
469.983641
 40
1.500000
  0
CIRCLE
  8
1
 62
7
  6
CONTINUOUS
 10
431.760000
 20
469.983641
 40
0.750000
  0
CIRCLE
  8
1
 62
7
  6
CONTINUOUS
 10
464.063236
 20
469.983641
 40
1.500000
  0
CIRCLE
  8
1
 62
7
  6
CONTINUOUS
 10
464.063236
 20
469.983641
 40
0.750000
  0
TEXT
  8
1
 62
7
  6
CONTINUOUS
 10
437.911618
 20
469.983641
 40
20.000000
 41
0.500000
  1
31
  7
KANJI
 50
0.000000
 51
30.000000
  0
ENDBLK
  0
BLOCK
  8
1
 62
7
  6
CONTINUOUS
  2
*D21
 70
    65
 10
0.0
 20
0.0
  0
LINE
  8
1
 62
7
  6
CONTINUOUS
 10
1276.760000
 20
469.983641
 11
1307.760000
 21
469.983641
  0
LINE
  8
1
 62
7
  6
CONTINUOUS
 10
1276.760000
 20
479.983641
 11
1276.760000
 21
456.046667
  0
LINE
  8
1
 62
7
  6
CONTINUOUS
 10
1307.760000
 20
479.983641
 11
1307.760000
 21
456.046667
  0
CIRCLE
  8
1
 62
7
  6
CONTINUOUS
 10
1276.760000
 20
469.983641
 40
1.500000
  0
CIRCLE
  8
1
 62
7
  6
CONTINUOUS
 10
1276.760000
 20
469.983641
 40
0.750000
  0
CIRCLE
  8
1
 62
7
  6
CONTINUOUS
 10
1307.760000
 20
469.983641
 40
1.500000
  0
CIRCLE
  8
1
 62
7
  6
CONTINUOUS
 10
1307.760000
 20
469.983641
 40
0.750000
  0
TEXT
  8
1
 62
7
  6
CONTINUOUS
 10
1282.260000
 20
469.983641
 40
20.000000
 41
0.500000
  1
31
  7
KANJI
 50
0.000000
 51
30.000000
  0
ENDBLK
  0
BLOCK
  8
1
 62
7
  6
CONTINUOUS
  2
*D22
 70
    65
 10
0.0
 20
0.0
  0
LINE
  8
1
 62
7
  6
CONTINUOUS
 10
360.573333
 20
562.393333
 11
360.573333
 21
593.393333
  0
LINE
  8
1
 62
7
  6
CONTINUOUS
 10
350.573333
 20
562.393333
 11
421.760000
 21
562.393333
  0
LINE
  8
1
 62
7
  6
CONTINUOUS
 10
350.573333
 20
593.393333
 11
421.760000
 21
593.393333
  0
CIRCLE
  8
1
 62
7
  6
CONTINUOUS
 10
360.573333
 20
562.393333
 40
1.500000
  0
CIRCLE
  8
1
 62
7
  6
CONTINUOUS
 10
360.573333
 20
562.393333
 40
0.750000
  0
CIRCLE
  8
1
 62
7
  6
CONTINUOUS
 10
360.573333
 20
593.393333
 40
1.500000
  0
CIRCLE
  8
1
 62
7
  6
CONTINUOUS
 10
360.573333
 20
593.393333
 40
0.750000
  0
TEXT
  8
1
 62
7
  6
CONTINUOUS
 10
360.573333
 20
567.893333
 40
20.000000
 41
0.500000
  1
31
  7
KANJI
 50
90.000000
 51
30.000000
  0
ENDBLK
  0
BLOCK
  8
1
 62
7
  6
CONTINUOUS
  2
*D23
 70
    65
 10
0.0
 20
0.0
  0
LINE
  8
1
 62
7
  6
CONTINUOUS
 10
360.573333
 20
593.393333
 11
360.573333
 21
1047.393333
  0
LINE
  8
1
 62
7
  6
CONTINUOUS
 10
350.573333
 20
1047.393333
 11
421.760000
 21
1047.393333
  0
CIRCLE
  8
1
 62
7
  6
CONTINUOUS
 10
360.573333
 20
1047.393333
 40
1.500000
  0
CIRCLE
  8
1
 62
7
  6
CONTINUOUS
 10
360.573333
 20
1047.393333
 40
0.750000
  0
TEXT
  8
1
 62
7
  6
CONTINUOUS
 10
360.573333
 20
805.393333
 40
20.000000
 41
0.500000
  1
453
  7
KANJI
 50
90.000000
 51
30.000000
  0
ENDBLK
  0
BLOCK
  8
1
 62
7
  6
CONTINUOUS
  2
*D24
 70
    65
 10
0.0
 20
0.0
  0
LINE
  8
1
 62
7
  6
CONTINUOUS
 10
360.573333
 20
1047.393333
 11
360.573333
 21
1072.393333
  0
LINE
  8
1
 62
7
  6
CONTINUOUS
 10
350.573333
 20
1072.393333
 11
421.760000
 21
1072.393333
  0
CIRCLE
  8
1
 62
7
  6
CONTINUOUS
 10
360.573333
 20
1072.393333
 40
1.500000
  0
CIRCLE
  8
1
 62
7
  6
CONTINUOUS
 10
360.573333
 20
1072.393333
 40
0.750000
  0
TEXT
  8
1
 62
7
  6
CONTINUOUS
 10
360.573333
 20
1049.893333
 40
20.000000
 41
0.500000
  1
26
  7
KANJI
 50
90.000000
 51
30.000000
  0
ENDBLK
  0
ENDSEC
  0
SECTION
  2
ENTITIES
  0
TEXT
  8
1
 62
7
  6
CONTINUOUS
 10
39.900000
 20
144.259375
 40
24.750000
 41
0.800000
  1
取引先：
  7
KANJI
 50
0.000000
 51
0.000000
  0
TEXT
  8
1
 62
7
  6
CONTINUOUS
 10
119.100000
 20
156.634375
 40
12.375000
 41
0.400000
  1

  7
KANJI
 50
0.000000
 51
0.000000
  0
TEXT
  8
1
 62
7
  6
CONTINUOUS
 10
119.100000
 20
144.259375
 40
12.375000
 41
0.400000
  1

  7
KANJI
 50
0.000000
 51
0.000000
  0
TEXT
  8
1
 62
7
  6
CONTINUOUS
 10
39.900000
 20
94.759375
 40
24.750000
 41
0.800000
  1
物件名：
  7
KANJI
 50
0.000000
 51
0.000000
  0
TEXT
  8
1
 62
7
  6
CONTINUOUS
 10
119.100000
 20
107.134375
 40
12.375000
 41
0.400000
  1

  7
KANJI
 50
0.000000
 51
0.000000
  0
TEXT
  8
1
 62
7
  6
CONTINUOUS
 10
119.100000
 20
94.759375
 40
12.375000
 41
0.400000
  1

  7
KANJI
 50
0.000000
 51
0.000000
  0
TEXT
  8
1
 62
7
  6
CONTINUOUS
 10
39.900000
 20
45.259375
 40
24.750000
 41
0.700000
  1
納 期：
  7
KANJI
 50
0.000000
 51
0.000000
  0
TEXT
  8
1
 62
7
  6
CONTINUOUS
 10
109.200000
 20
57.634375
 40
12.375000
 41
0.400000
  1

  7
KANJI
 50
0.000000
 51
0.000000
  0
TEXT
  8
1
 62
7
  6
CONTINUOUS
 10
109.200000
 20
45.259375
 40
12.375000
 41
0.400000
  1

  7
KANJI
 50
0.000000
 51
0.000000
  0
LINE
  8
1
 62
7
  6
CONTINUOUS
 10
30.000000
 20
188.500000
 11
30.000000
 21
40.000000
  0
LINE
  8
1
 62
7
  6
CONTINUOUS
 10
30.000000
 20
188.500000
 11
327.000000
 21
188.500000
  0
LINE
  8
1
 62
7
  6
CONTINUOUS
 10
327.000000
 20
188.500000
 11
327.000000
 21
139.000000
  0
LINE
  8
1
 62
7
  6
CONTINUOUS
 10
327.000000
 20
139.000000
 11
30.000000
 21
139.000000
  0
LINE
  8
1
 62
7
  6
CONTINUOUS
 10
30.000000
 20
139.000000
 11
30.000000
 21
89.500000
  0
LINE
  8
1
 62
7
  6
CONTINUOUS
 10
30.000000
 20
89.500000
 11
327.000000
 21
89.500000
  0
LINE
  8
1
 62
7
  6
CONTINUOUS
 10
327.000000
 20
89.500000
 11
327.000000
 21
139.000000
  0
LINE
  8
1
 62
7
  6
CONTINUOUS
 10
327.000000
 20
139.000000
 11
327.000000
 21
40.000000
  0
LINE
  8
1
 62
7
  6
CONTINUOUS
 10
327.000000
 20
40.000000
 11
30.000000
 21
40.000000
  0
TEXT
  8
1
 62
7
  6
CONTINUOUS
 10
341.850000
 20
144.259375
 40
24.750000
 41
0.800000
  1
　色柄：
  7
KANJI
 50
0.000000
 51
0.000000
  0
TEXT
  8
1
 62
7
  6
CONTINUOUS
 10
421.050000
 20
156.634375
 40
12.375000
 41
0.400000
  1

  7
KANJI
 50
0.000000
 51
0.000000
  0
TEXT
  8
1
 62
7
  6
CONTINUOUS
 10
421.050000
 20
144.259375
 40
12.375000
 41
0.400000
  1

  7
KANJI
 50
0.000000
 51
0.000000
  0
TEXT
  8
1
 62
7
  6
CONTINUOUS
 10
341.850000
 20
94.759375
 40
24.750000
 41
0.800000
  1
　厚み：
  7
KANJI
 50
0.000000
 51
0.000000
  0
TEXT
  8
1
 62
7
  6
CONTINUOUS
 10
421.050000
 20
107.134375
 40
12.375000
 41
0.400000
  1

  7
KANJI
 50
0.000000
 51
0.000000
  0
TEXT
  8
1
 62
7
  6
CONTINUOUS
 10
421.050000
 20
94.759375
 40
12.375000
 41
0.400000
  1

  7
KANJI
 50
0.000000
 51
0.000000
  0
TEXT
  8
1
 62
7
  6
CONTINUOUS
 10
341.850000
 20
45.259375
 40
24.750000
 41
0.800000
  1
付属品：
  7
KANJI
 50
0.000000
 51
0.000000
  0
TEXT
  8
1
 62
7
  6
CONTINUOUS
 10
421.050000
 20
57.634375
 40
12.375000
 41
0.400000
  1

  7
KANJI
 50
0.000000
 51
0.000000
  0
TEXT
  8
1
 62
7
  6
CONTINUOUS
 10
421.050000
 20
45.259375
 40
12.375000
 41
0.400000
  1

  7
KANJI
 50
0.000000
 51
0.000000
  0
LINE
  8
1
 62
7
  6
CONTINUOUS
 10
429.073950
 20
40.000000
 11
429.073950
 21
188.500000
  0
TEXT
  8
1
 62
7
  6
CONTINUOUS
 10
438.973950
 20
164.987500
 40
19.800000
 41
1.000000
  1
単色シリーズ
  7
KANJI
 50
0.000000
 51
0.000000
  0
TEXT
  8
1
 62
7
  6
CONTINUOUS
 10
557.773950
 20
174.887500
 40
9.900000
 41
0.500000
  1

  7
KANJI
 50
0.000000
 51
0.000000
  0
TEXT
  8
1
 62
7
  6
CONTINUOUS
 10
557.773950
 20
164.987500
 40
9.900000
 41
0.500000
  1

  7
KANJI
 50
0.000000
 51
0.000000
  0
LINE
  8
1
 62
7
  6
CONTINUOUS
 10
1615.489950
 20
40.000000
 11
1615.489950
 21
188.500000
  0
TEXT
  8
1
 62
7
  6
CONTINUOUS
 10
1235.923950
 20
94.759375
 40
24.750000
 41
0.800000
  1
埼玉県比企郡川島町表２１－５
  7
KANJI
 50
0.000000
 51
0.000000
  0
TEXT
  8
1
 62
7
  6
CONTINUOUS
 10
1513.123950
 20
107.134375
 40
12.375000
 41
0.400000
  1

  7
KANJI
 50
0.000000
 51
0.000000
  0
TEXT
  8
1
 62
7
  6
CONTINUOUS
 10
1513.123950
 20
94.759375
 40
12.375000
 41
0.400000
  1

  7
KANJI
 50
0.000000
 51
0.000000
  0
TEXT
  8
1
 62
7
  6
CONTINUOUS
 10
1235.923950
 20
70.009375
 40
24.750000
 41
0.647059
  1
  TEL ０４９２－９７－７２７１
  7
KANJI
 50
0.000000
 51
0.000000
  0
TEXT
  8
1
 62
7
  6
CONTINUOUS
 10
1495.798950
 20
82.384375
 40
12.375000
 41
0.388235
  1

  7
KANJI
 50
0.000000
 51
0.000000
  0
TEXT
  8
1
 62
7
  6
CONTINUOUS
 10
1495.798950
 20
70.009375
 40
12.375000
 41
0.388235
  1

  7
KANJI
 50
0.000000
 51
0.000000
  0
TEXT
  8
1
 62
7
  6
CONTINUOUS
 10
1235.923950
 20
45.259375
 40
24.750000
 41
0.647059
  1
  FAX ０４９２－９７－７２７３
  7
KANJI
 50
0.000000
 51
0.000000
  0
TEXT
  8
1
 62
7
  6
CONTINUOUS
 10
1495.798950
 20
57.634375
 40
12.375000
 41
0.388235
  1

  7
KANJI
 50
0.000000
 51
0.000000
  0
TEXT
  8
1
 62
7
  6
CONTINUOUS
 10
1495.798950
 20
45.259375
 40
12.375000
 41
0.388235
  1

  7
KANJI
 50
0.000000
 51
0.000000
  0
TEXT
  8
1
 62
7
  6
CONTINUOUS
 10
1235.923950
 20
117.653125
 40
34.650000
 41
1.285714
  1
㈱三井ＰＣＯ
  7
KANJI
 50
0.000000
 51
0.000000
  0
TEXT
  8
1
 62
7
  6
CONTINUOUS
 10
1468.573950
 20
134.978125
 40
17.325000
 41
0.642857
  1

  7
KANJI
 50
0.000000
 51
0.000000
  0
TEXT
  8
1
 62
7
  6
CONTINUOUS
 10
1468.573950
 20
117.653125
 40
17.325000
 41
0.642857
  1

  7
KANJI
 50
0.000000
 51
0.000000
  0
LINE
  8
1
 62
7
  6
CONTINUOUS
 10
429.073950
 20
188.500000
 11
578.420400
 21
188.500000
  0
LINE
  8
1
 62
7
  6
CONTINUOUS
 10
578.420400
 20
188.500000
 11
722.960400
 21
188.500000
  0
LINE
  8
1
 62
7
  6
CONTINUOUS
 10
722.960400
 20
188.500000
 11
872.851350
 21
188.500000
  0
LINE
  8
1
 62
7
  6
CONTINUOUS
 10
872.851350
 20
40.000000
 11
429.073950
 21
40.000000
  0
LINE
  8
1
 62
7
  6
CONTINUOUS
 10
429.073950
 20
139.000000
 11
872.851350
 21
139.000000
  0
LINE
  8
1
 62
7
  6
CONTINUOUS
 10
872.851350
 20
89.500000
 11
429.073950
 21
89.500000
  0
LINE
  8
1
 62
7
  6
CONTINUOUS
 10
578.420400
 20
188.500000
 11
578.420400
 21
89.500000
  0
LINE
  8
1
 62
7
  6
CONTINUOUS
 10
906.348000
 20
139.000000
 11
872.851350
 21
139.000000
  0
LINE
  8
1
 62
7
  6
CONTINUOUS
 10
872.851350
 20
139.000000
 11
906.348000
 21
139.000000
  0
LINE
  8
1
 62
7
  6
CONTINUOUS
 10
906.348000
 20
89.500000
 11
872.851350
 21
89.500000
  0
LINE
  8
1
 62
7
  6
CONTINUOUS
 10
872.851350
 20
89.500000
 11
906.348000
 21
89.500000
  0
LINE
  8
1
 62
7
  6
CONTINUOUS
 10
578.420400
 20
89.500000
 11
578.420400
 21
40.000000
  0
LINE
  8
1
 62
7
  6
CONTINUOUS
 10
872.851350
 20
188.500000
 11
906.348000
 21
188.500000
  0
LINE
  8
1
 62
7
  6
CONTINUOUS
 10
906.348000
 20
40.000000
 11
872.851350
 21
40.000000
  0
LINE
  8
1
 62
7
  6
CONTINUOUS
 10
1129.098000
 20
188.500000
 11
1129.098000
 21
40.000000
  0
LINE
  8
1
 62
7
  6
CONTINUOUS
 10
1129.098000
 20
40.000000
 11
1615.489950
 21
40.000000
  0
LINE
  8
1
 62
7
  6
CONTINUOUS
 10
1615.489950
 20
188.500000
 11
1129.098000
 21
188.500000
  0
LINE
  8
1
 62
7
  6
CONTINUOUS
 10
906.348000
 20
188.500000
 11
1121.673000
 21
188.500000
  0
LINE
  8
1
 62
7
  6
CONTINUOUS
 10
1121.673000
 20
188.500000
 11
1121.673000
 21
40.000000
  0
LINE
  8
1
 62
7
  6
CONTINUOUS
 10
1121.673000
 20
40.000000
 11
906.348000
 21
40.000000
  0
LINE
  8
1
 62
7
  6
CONTINUOUS
 10
906.348000
 20
139.000000
 11
1121.673000
 21
139.000000
  0
LINE
  8
1
 62
7
  6
CONTINUOUS
 10
1121.673000
 20
89.500000
 11
906.348000
 21
89.500000
  0
TEXT
  8
1
 62
7
  6
CONTINUOUS
 10
931.360845
 20
164.987500
 40
19.800000
 41
1.000000
  1
モンタナシリーズ
  7
KANJI
 50
0.000000
 51
0.000000
  0
TEXT
  8
1
 62
7
  6
CONTINUOUS
 10
1089.760845
 20
174.887500
 40
9.900000
 41
0.500000
  1

  7
KANJI
 50
0.000000
 51
0.000000
  0
TEXT
  8
1
 62
7
  6
CONTINUOUS
 10
1089.760845
 20
164.987500
 40
9.900000
 41
0.500000
  1

  7
KANJI
 50
0.000000
 51
0.000000
  0
TEXT
  8
1
 62
7
  6
CONTINUOUS
 10
755.473485
 20
164.987500
 40
19.800000
 41
1.000000
  1
シエラシリーズ
  7
KANJI
 50
0.000000
 51
0.000000
  0
TEXT
  8
1
 62
7
  6
CONTINUOUS
 10
894.073485
 20
174.887500
 40
9.900000
 41
0.500000
  1

  7
KANJI
 50
0.000000
 51
0.000000
  0
TEXT
  8
1
 62
7
  6
CONTINUOUS
 10
894.073485
 20
164.987500
 40
9.900000
 41
0.500000
  1

  7
KANJI
 50
0.000000
 51
0.000000
  0
LINE
  8
1
 62
7
  6
CONTINUOUS
 10
919.192260
 20
188.500000
 11
919.192260
 21
40.000000
  0
TEXT
  8
1
 62
7
  6
CONTINUOUS
 10
588.320400
 20
161.275000
 40
19.800000
 41
1.000000
  1
ベナーロシリーズ
  7
KANJI
 50
0.000000
 51
0.000000
  0
TEXT
  8
1
 62
7
  6
CONTINUOUS
 10
746.720400
 20
171.175000
 40
9.900000
 41
0.500000
  1

  7
KANJI
 50
0.000000
 51
0.000000
  0
TEXT
  8
1
 62
7
  6
CONTINUOUS
 10
746.720400
 20
161.275000
 40
9.900000
 41
0.500000
  1

  7
KANJI
 50
0.000000
 51
0.000000
  0
LINE
  8
1
 62
7
  6
CONTINUOUS
 10
749.190450
 20
188.500000
 11
749.190450
 21
40.000000
  0
TEXT
  8
1
 62
7
  6
CONTINUOUS
 10
429.073950
 20
48.380350
 40
24.750000
 41
0.800000
  1
シーム剤  本
  7
KANJI
 50
0.000000
 51
0.000000
  0
TEXT
  8
1
 62
7
  6
CONTINUOUS
 10
557.773950
 20
60.755350
 40
12.375000
 41
0.466667
  1

  7
KANJI
 50
0.000000
 51
0.000000
  0
TEXT
  8
1
 62
7
  6
CONTINUOUS
 10
557.773950
 20
48.380350
 40
12.375000
 41
0.466667
  1

  7
KANJI
 50
0.000000
 51
0.000000
  0
TEXT
  8
1
 62
7
  6
CONTINUOUS
 10
924.142260
 20
52.589335
 40
24.750000
 41
1.000000
  1
梱包個数　　梱
  7
KANJI
 50
0.000000
 51
0.000000
  0
TEXT
  8
1
 62
7
  6
CONTINUOUS
 10
1097.392260
 20
64.964335
 40
12.375000
 41
0.500000
  1

  7
KANJI
 50
0.000000
 51
0.000000
  0
TEXT
  8
1
 62
7
  6
CONTINUOUS
 10
1097.392260
 20
52.589335
 40
12.375000
 41
0.500000
  1

  7
KANJI
 50
0.000000
 51
0.000000
  0
TEXT
  8
1
 62
7
  6
CONTINUOUS
 10
735.879900
 20
52.271050
 40
24.750000
 41
0.746667
  1
 断熱テープ   本
  7
KANJI
 50
0.000000
 51
0.000000
  0
TEXT
  8
1
 62
7
  6
CONTINUOUS
 10
900.467400
 20
64.646050
 40
12.375000
 41
0.466667
  1

  7
KANJI
 50
0.000000
 51
0.000000
  0
TEXT
  8
1
 62
7
  6
CONTINUOUS
 10
900.467400
 20
52.271050
 40
12.375000
 41
0.466667
  1

  7
KANJI
 50
0.000000
 51
0.000000
  0
TEXT
  8
1
 62
7
  6
CONTINUOUS
 10
583.370400
 20
47.910595
 40
24.750000
 41
0.656250
  1
瞬間接着剤 　本
  7
KANJI
 50
0.000000
 51
0.000000
  0
TEXT
  8
1
 62
7
  6
CONTINUOUS
 10
713.307900
 20
60.285595
 40
12.375000
 41
0.350000
  1

  7
KANJI
 50
0.000000
 51
0.000000
  0
TEXT
  8
1
 62
7
  6
CONTINUOUS
 10
713.307900
 20
47.910595
 40
12.375000
 41
0.350000
  1

  7
KANJI
 50
0.000000
 51
0.000000
  0
TEXT
  8
1
 62
7
  6
CONTINUOUS
 10
438.973950
 20
97.234375
 40
24.750000
 41
1.041667
  1
   ㎜
  7
KANJI
 50
0.000000
 51
0.000000
  0
TEXT
  8
1
 62
7
  6
CONTINUOUS
 10
525.598950
 20
109.609375
 40
12.375000
 41
0.833333
  1

  7
KANJI
 50
0.000000
 51
0.000000
  0
TEXT
  8
1
 62
7
  6
CONTINUOUS
 10
525.598950
 20
97.234375
 40
12.375000
 41
0.833333
  1

  7
KANJI
 50
0.000000
 51
0.000000
  0
TEXT
  8
1
 62
7
  6
CONTINUOUS
 10
588.320400
 20
97.234375
 40
24.750000
 41
1.041667
  1
   ㎜
  7
KANJI
 50
0.000000
 51
0.000000
  0
TEXT
  8
1
 62
7
  6
CONTINUOUS
 10
674.945400
 20
109.609375
 40
12.375000
 41
0.833333
  1

  7
KANJI
 50
0.000000
 51
0.000000
  0
TEXT
  8
1
 62
7
  6
CONTINUOUS
 10
674.945400
 20
97.234375
 40
12.375000
 41
0.833333
  1

  7
KANJI
 50
0.000000
 51
0.000000
  0
TEXT
  8
1
 62
7
  6
CONTINUOUS
 10
755.473485
 20
97.234375
 40
24.750000
 41
1.041667
  1
   ㎜
  7
KANJI
 50
0.000000
 51
0.000000
  0
TEXT
  8
1
 62
7
  6
CONTINUOUS
 10
842.098485
 20
109.609375
 40
12.375000
 41
0.833333
  1

  7
KANJI
 50
0.000000
 51
0.000000
  0
TEXT
  8
1
 62
7
  6
CONTINUOUS
 10
842.098485
 20
97.234375
 40
12.375000
 41
0.833333
  1

  7
KANJI
 50
0.000000
 51
0.000000
  0
TEXT
  8
1
 62
7
  6
CONTINUOUS
 10
924.142260
 20
97.234375
 40
24.750000
 41
1.050000
  1
    ㎜
  7
KANJI
 50
0.000000
 51
0.000000
  0
TEXT
  8
1
 62
7
  6
CONTINUOUS
 10
1035.517260
 20
109.609375
 40
12.375000
 41
0.875000
  1

  7
KANJI
 50
0.000000
 51
0.000000
  0
TEXT
  8
1
 62
7
  6
CONTINUOUS
 10
1035.517260
 20
97.234375
 40
12.375000
 41
0.875000
  1

  7
KANJI
 50
0.000000
 51
0.000000
  0
TEXT
  8
1
 62
7
  6
CONTINUOUS
 10
1138.998000
 20
159.109375
 40
24.750000
 41
0.800000
  1
デュポンコーリアン認定加工／施工工場　　Ｍｐｃｏ　
  7
KANJI
 50
0.000000
 51
0.000000
  0
TEXT
  8
1
 62
7
  6
CONTINUOUS
 10
1633.998000
 20
171.484375
 40
12.375000
 41
0.400000
  1

  7
KANJI
 50
0.000000
 51
0.000000
  0
TEXT
  8
1
 62
7
  6
CONTINUOUS
 10
1633.998000
 20
159.109375
 40
12.375000
 41
0.400000
  1

  7
KANJI
 50
0.000000
 51
0.000000
  0
LINE
  8
1
 62
7
  6
CONTINUOUS
 10
1622.914950
 20
40.000000
 11
1734.473100
 21
40.000000
  0
TEXT
  8
1
 62
7
  6
CONTINUOUS
 10
1627.864950
 20
95.378125
 40
34.650000
 41
0.714286
  1
図面番号
  7
KANJI
 50
0.000000
 51
0.000000
  0
TEXT
  8
1
 62
7
  6
CONTINUOUS
 10
1726.864950
 20
112.703125
 40
17.325000
 41
0.357143
  1

  7
KANJI
 50
0.000000
 51
0.000000
  0
TEXT
  8
1
 62
7
  6
CONTINUOUS
 10
1726.864950
 20
95.378125
 40
17.325000
 41
0.357143
  1

  7
KANJI
 50
0.000000
 51
0.000000
  0
LINE
  8
1
 62
7
  6
CONTINUOUS
 10
1622.914950
 20
139.000000
 11
1622.914950
 21
40.000000
  0
LINE
  8
1
 62
7
  6
CONTINUOUS
 10
1622.914950
 20
40.000000
 11
1734.473100
 21
40.000000
  0
LINE
  8
1
 62
7
  6
CONTINUOUS
 10
1734.473100
 20
40.000000
 11
1734.473100
 21
139.000000
  0
LINE
  8
1
 62
7
  6
CONTINUOUS
 10
1734.473100
 20
139.000000
 11
1622.914950
 21
139.000000
  0
LINE
  8
1
 62
7
  6
CONTINUOUS
 10
1622.914950
 20
139.000000
 11
1622.914950
 21
188.500000
  0
LINE
  8
1
 62
7
  6
CONTINUOUS
 10
1622.914950
 20
188.500000
 11
1734.473100
 21
188.500000
  0
LINE
  8
1
 62
7
  6
CONTINUOUS
 10
1734.473100
 20
188.500000
 11
1734.473100
 21
139.000000
  0
TEXT
  8
1
 62
7
  6
CONTINUOUS
 10
1627.864950
 20
161.275000
 40
19.800000
 41
0.875000
  1
CAD-NO
  7
KANJI
 50
0.000000
 51
0.000000
  0
TEXT
  8
1
 62
7
  6
CONTINUOUS
 10
1723.152450
 20
171.175000
 40
9.900000
 41
0.875000
  1

  7
KANJI
 50
0.000000
 51
0.000000
  0
TEXT
  8
1
 62
7
  6
CONTINUOUS
 10
1723.152450
 20
161.275000
 40
9.900000
 41
0.875000
  1

  7
KANJI
 50
0.000000
 51
0.000000
  0
LINE
  8
1
 62
7
  6
CONTINUOUS
 10
466.760000
 20
326.813472
 11
474.118608
 21
334.186237
  0
LINE
  8
1
 62
7
  6
CONTINUOUS
 10
464.734763
 20
349.221898
 11
472.104536
 21
356.591670
  0
LINE
  8
1
 62
7
  6
CONTINUOUS
 10
463.016322
 20
368.338606
 11
470.386095
 21
375.708379
  0
LINE
  8
1
 62
7
  6
CONTINUOUS
 10
461.243228
 20
388.063294
 11
468.613000
 21
395.433067
  0
LINE
  8
1
 62
7
  6
CONTINUOUS
 10
468.267429
 20
309.922957
 11
475.637202
 21
317.292730
  0
LINE
  8
1
 62
7
  6
CONTINUOUS
 10
470.086160
 20
289.690586
 11
477.455933
 21
297.060358
  0
LINE
  8
1
 62
7
  6
CONTINUOUS
 10
471.859254
 20
269.965900
 11
479.229027
 21
277.335673
  0
LINE
  8
1
 62
7
  6
CONTINUOUS
 10
474.798340
 20
251.779671
 11
480.971400
 21
257.952731
  0
LINE
  8
1
 62
7
  6
CONTINUOUS
 10
483.447535
 20
239.957737
 11
489.137860
 21
245.648062
  0
LINE
  8
1
 62
7
  6
CONTINUOUS
 10
502.602203
 20
233.046667
 11
510.517319
 21
240.961782
  0
LINE
  8
1
 62
7
  6
CONTINUOUS
 10
520.268371
 20
233.046667
 11
527.996039
 21
240.774335
  0
LINE
  8
1
 62
7
  6
CONTINUOUS
 10
540.512585
 20
233.046667
 11
548.025451
 21
240.559533
  0
LINE
  8
1
 62
7
  6
CONTINUOUS
 10
561.881477
 20
233.046667
 11
569.167608
 21
240.332798
  0
LINE
  8
1
 62
7
  6
CONTINUOUS
 10
584.375046
 20
233.046667
 11
591.422508
 21
240.094129
  0
LINE
  8
1
 62
7
  6
CONTINUOUS
 10
604.056920
 20
233.046667
 11
610.895547
 21
239.885294
  0
LINE
  8
1
 62
7
  6
CONTINUOUS
 10
625.988151
 20
233.046667
 11
632.594076
 21
239.652591
  0
LINE
  8
1
 62
7
  6
CONTINUOUS
 10
647.919382
 20
233.046667
 11
654.292604
 21
239.419889
  0
LINE
  8
1
 62
7
  6
CONTINUOUS
 10
667.038917
 20
233.046667
 11
673.209272
 21
239.217021
  0
LINE
  8
1
 62
7
  6
CONTINUOUS
 10
689.532485
 20
233.046667
 11
695.464171
 21
238.978352
  0
LINE
  8
1
 62
7
  6
CONTINUOUS
 10
710.901378
 20
233.046667
 11
716.606328
 21
238.751617
  0
LINE
  8
1
 62
7
  6
CONTINUOUS
 10
731.707929
 20
233.046667
 11
737.192111
 21
238.530848
  0
LINE
  8
1
 62
7
  6
CONTINUOUS
 10
752.514484
 20
233.046667
 11
757.777897
 21
238.310079
  0
LINE
  8
1
 62
7
  6
CONTINUOUS
 10
765.844476
 20
228.140476
 11
775.820584
 21
238.116584
  0
LINE
  8
1
 62
7
  6
CONTINUOUS
 10
1268.437068
 20
376.683278
 11
1277.478058
 21
385.724268
  0
LINE
  8
1
 62
7
  6
CONTINUOUS
 10
1265.799644
 20
352.667638
 11
1274.840634
 21
361.708628
  0
LINE
  8
1
 62
7
  6
CONTINUOUS
 10
1263.148039
 20
328.522881
 11
1272.189029
 21
337.563871
  0
LINE
  8
1
 62
7
  6
CONTINUOUS
 10
1260.581513
 20
305.152823
 11
1269.622503
 21
314.193813
  0
LINE
  8
1
 62
7
  6
CONTINUOUS
 10
1257.944089
 20
281.137183
 11
1266.985078
 21
290.178173
  0
LINE
  8
1
 62
7
  6
CONTINUOUS
 10
1259.342193
 20
293.867928
 11
1268.465494
 21
303.658417
  0
LINE
  8
1
 62
7
  6
CONTINUOUS
 10
1230.886977
 20
233.046667
 11
1239.680513
 21
241.840203
  0
LINE
  8
1
 62
7
  6
CONTINUOUS
 10
1209.853572
 20
233.046667
 11
1217.659505
 21
240.852600
  0
LINE
  8
1
 62
7
  6
CONTINUOUS
 10
1188.475357
 20
233.046667
 11
1196.043758
 21
240.615068
  0
LINE
  8
1
 62
7
  6
CONTINUOUS
 10
1167.671825
 20
233.046667
 11
1175.009080
 21
240.383922
  0
LINE
  8
1
 62
7
  6
CONTINUOUS
 10
1146.178672
 20
233.046667
 11
1153.277119
 21
240.145113
  0
LINE
  8
1
 62
7
  6
CONTINUOUS
 10
1124.800457
 20
233.046667
 11
1131.661372
 21
239.907582
  0
LINE
  8
1
 62
7
  6
CONTINUOUS
 10
1103.307306
 20
233.046667
 11
1109.929413
 21
239.668774
  0
LINE
  8
1
 62
7
  6
CONTINUOUS
 10
1082.273899
 20
233.046667
 11
1088.662305
 21
239.435073
  0
LINE
  8
1
 62
7
  6
CONTINUOUS
 10
1061.815176
 20
233.046667
 11
1067.976268
 21
239.207758
  0
LINE
  8
1
 62
7
  6
CONTINUOUS
 10
1039.977215
 20
233.046667
 11
1045.895667
 21
238.965119
  0
LINE
  8
1
 62
7
  6
CONTINUOUS
 10
1019.978238
 20
233.046667
 11
1025.674483
 21
238.742912
  0
LINE
  8
1
 62
7
  6
CONTINUOUS
 10
997.795467
 20
233.046667
 11
1003.245242
 21
238.496441
  0
LINE
  8
1
 62
7
  6
CONTINUOUS
 10
969.750927
 20
226.046667
 11
981.966878
 21
238.262617
  0
DIMENSION
  8
1
 62
7
  6
CONTINUOUS
  2
*D1
 10
989.908861
 20
901.393333
 11
989.908861
 21
974.393333
 70
     0
  1
146
 13
973.827554
 23
901.393333
 14
973.827554
 24
1047.393333
 50
90.000000
  0
DIMENSION
  8
1
 62
7
  6
CONTINUOUS
  2
*D2
 10
782.327554
 20
901.393333
 11
872.327554
 21
901.393333
 70
     3
  1
φ180
 13
782.327554
 23
901.393333
 14
962.327554
 24
901.393333
 15
962.327554
 25
901.393333
  0
CIRCLE
  8
1
 62
7
  6
CONTINUOUS
 10
872.327554
 20
901.393333
 40
80.000000
  0
CIRCLE
  8
1
 62
7
  6
CONTINUOUS
 10
872.327554
 20
901.393333
 40
90.000000
  0
LINE
  8
1
 62
7
  6
CONTINUOUS
 10
652.327554
 20
987.393333
 11
652.327554
 21
978.269578
  0
LINE
  8
1
 62
7
  6
CONTINUOUS
 10
1092.327554
 20
987.393333
 11
1092.327554
 21
977.163502
  0
LINE
  8
1
 62
7
  6
CONTINUOUS
 10
1092.327554
 20
1105.860000
 11
1092.327554
 21
987.393333
  0
LINE
  8
1
 62
7
  6
CONTINUOUS
 10
1059.591646
 20
1007.393333
 11
1112.327554
 21
1007.393333
  0
LINE
  8
1
 62
7
  6
CONTINUOUS
 10
616.055190
 20
1007.393333
 11
683.525823
 21
1007.393333
  0
LINE
  8
1
 62
7
  6
CONTINUOUS
 10
652.327554
 20
1072.393333
 11
652.327554
 21
987.393333
  0
CIRCLE
  8
1
 62
7
  6
DOT
 10
652.327554
 20
1007.393333
 40
20.000000
  0
CIRCLE
  8
1
 62
7
  6
DOT
 10
1092.327554
 20
1007.393333
 40
20.000000
  0
DIMENSION
  8
1
 62
7
  6
CONTINUOUS
  2
*D3
 10
1171.760000
 20
1047.393333
 11
1171.760000
 21
1027.393333
 70
     0
  1
40
 13
1102.327554
 23
1047.393333
 14
1102.327554
 24
1007.393333
 50
-90.000000
  0
DIMENSION
  8
1
 62
7
  6
CONTINUOUS
  2
*D4
 10
1171.760000
 20
1007.393333
 11
1171.760000
 21
987.393333
 70
     0
  1
40
 13
1171.760000
 23
1007.393333
 14
1102.327554
 24
967.393333
 50
-90.000000
  0
LINE
  8
1
 62
7
  6
CONTINUOUS
 10
672.776837
 20
967.393333
 11
506.160000
 21
967.393333
  0
LINE
  8
1
 62
7
  6
CONTINUOUS
 10
1233.360000
 20
967.393333
 11
1069.595435
 21
967.393333
  0
ARC
  8
1
 62
7
  6
CONTINUOUS
 10
885.676242
 20
848.060150
 40
200.000000
 50
42.635563
 51
85.319993
  0
ARC
  8
1
 62
7
  6
CONTINUOUS
 10
856.571780
 20
847.925292
 40
200.000000
 50
94.179821
 51
137.322410
  0
ARC
  8
1
 62
7
  6
CONTINUOUS
 10
1069.595444
 20
1017.393333
 40
50.000000
 50
-137.364437
 51
-90.000001
  0
ARC
  8
1
 62
7
  6
CONTINUOUS
 10
672.776833
 20
1017.393333
 40
50.000000
 50
-90.000000
 51
-42.677590
  0
LINE
  8
1
 62
7
  6
CONTINUOUS
 10
506.160000
 20
562.393333
 11
1233.360000
 21
562.393333
  0
ARC
  8
1
 62
7
  6
CONTINUOUS
 10
506.160000
 20
636.793333
 40
74.400000
 50
180.000000
 51
-90.000000
  0
LINE
  8
1
 62
7
  6
CONTINUOUS
 10
431.760000
 20
636.793333
 11
431.760000
 21
997.993333
  0
ARC
  8
1
 62
7
  6
CONTINUOUS
 10
506.160000
 20
997.993333
 40
74.400000
 50
90.000000
 51
180.000000
  0
LINE
  8
1
 62
7
  6
CONTINUOUS
 10
1233.360000
 20
1072.393333
 11
506.160000
 21
1072.393333
  0
ARC
  8
1
 62
7
  6
CONTINUOUS
 10
1233.360000
 20
636.793333
 40
74.400000
 50
-90.000000
 51
0.000000
  0
LINE
  8
1
 62
7
  6
CONTINUOUS
 10
1307.760000
 20
997.993333
 11
1307.760000
 21
636.793333
  0
ARC
  8
1
 62
7
  6
CONTINUOUS
 10
1233.360000
 20
997.993333
 40
74.400000
 50
0.000000
 51
90.000000
  0
LINE
  8
1
 62
7
  6
CONTINUOUS
 10
1255.342903
 20
257.451527
 11
1272.466502
 21
413.374161
  0
DIMENSION
  8
1
 62
7
  6
CONTINUOUS
  2
*D5
 10
1356.782410
 20
446.046667
 11
1356.782410
 21
339.546667
 70
     0
  1
213
 13
1317.760000
 23
446.046667
 14
1317.760000
 24
233.046667
 50
-90.000000
  0
LINE
  8
1
 62
7
  6
CONTINUOUS
 10
952.870610
 20
226.046667
 11
792.327554
 21
226.046667
  0
LINE
  8
1
 62
7
  6
CONTINUOUS
 10
792.327554
 20
233.046667
 11
952.870610
 21
233.046667
  0
LINE
  8
1
 62
7
  6
CONTINUOUS
 10
456.760000
 20
446.046667
 11
1284.102732
 21
446.046667
  0
LINE
  8
1
 62
7
  6
CONTINUOUS
 10
1279.636032
 20
405.374161
 11
1263.645808
 21
259.771723
  0
LINE
  8
1
 62
7
  6
CONTINUOUS
 10
1305.760000
 20
434.046667
 11
1295.760000
 21
434.046667
  0
LINE
  8
1
 62
7
  6
CONTINUOUS
 10
433.760000
 20
434.046667
 11
443.760000
 21
434.046667
  0
LINE
  8
1
 62
7
  6
CONTINUOUS
 10
1307.760000
 20
446.046667
 11
1305.760000
 21
434.046667
  0
LINE
  8
1
 62
7
  6
CONTINUOUS
 10
431.760000
 20
446.046667
 11
433.760000
 21
434.046667
  0
ARC
  8
1
 62
7
  6
CONTINUOUS
 10
963.315054
 20
237.057595
 40
1.000000
 50
90.629587
 51
180.000000
  0
LINE
  8
1
 62
7
  6
CONTINUOUS
 10
963.304066
 20
238.057535
 11
1235.319929
 21
241.046667
  0
LINE
  8
1
 62
7
  6
CONTINUOUS
 10
962.315054
 20
234.546667
 11
962.315054
 21
237.057595
  0
ARC
  8
1
 62
7
  6
CONTINUOUS
 10
781.340054
 20
237.057333
 40
1.000000
 50
0.000000
 51
89.385565
  0
LINE
  8
1
 62
7
  6
CONTINUOUS
 10
782.340054
 20
237.057333
 11
782.340054
 21
234.546667
  0
LINE
  8
1
 62
7
  6
CONTINUOUS
 10
502.602204
 20
241.046667
 11
781.350778
 21
238.057276
  0
ARC
  8
1
 62
7
  6
CONTINUOUS
 10
1233.825098
 20
263.046667
 40
22.000000
 50
-90.000000
 51
-6.267172
  0
LINE
  8
1
 62
7
  6
CONTINUOUS
 10
1255.693619
 20
260.645041
 11
1256.813768
 21
270.844809
  0
ARC
  8
1
 62
7
  6
CONTINUOUS
 10
1233.825098
 20
263.046667
 40
30.000000
 50
-90.000000
 51
-6.267172
  0
LINE
  8
1
 62
7
  6
CONTINUOUS
 10
1233.825098
 20
233.046667
 11
984.888144
 21
233.046667
  0
ARC
  8
1
 62
7
  6
CONTINUOUS
 10
502.602204
 20
263.046667
 40
22.000000
 50
-174.863367
 51
-90.000000
  0
LINE
  8
1
 62
7
  6
CONTINUOUS
 10
480.690555
 20
261.076982
 11
480.924030
 21
258.479703
  0
ARC
  8
1
 62
7
  6
CONTINUOUS
 10
502.602204
 20
263.046667
 40
30.000000
 50
-174.863366
 51
-90.000000
  0
LINE
  8
1
 62
7
  6
CONTINUOUS
 10
502.602204
 20
233.046667
 11
759.766965
 21
233.046667
  0
LINE
  8
1
 62
7
  6
CONTINUOUS
 10
459.446880
 20
408.046667
 11
472.722683
 21
260.360733
  0
ARC
  8
1
 62
7
  6
CONTINUOUS
 10
954.370610
 20
227.546667
 40
1.500000
 50
180.000000
 51
-90.000000
  0
LINE
  8
1
 62
7
  6
CONTINUOUS
 10
954.370610
 20
226.046667
 11
962.315054
 21
226.046667
  0
LINE
  8
1
 62
7
  6
CONTINUOUS
 10
952.870610
 20
231.546667
 11
952.870610
 21
227.546667
  0
ARC
  8
1
 62
7
  6
CONTINUOUS
 10
954.370610
 20
231.546667
 40
1.500000
 50
90.000000
 51
180.000000
  0
LINE
  8
1
 62
7
  6
CONTINUOUS
 10
960.815054
 20
233.046667
 11
954.370610
 21
233.046667
  0
ARC
  8
1
 62
7
  6
CONTINUOUS
 10
960.815054
 20
234.546667
 40
1.500000
 50
-90.000000
 51
0.000000
  0
ARC
  8
1
 62
7
  6
CONTINUOUS
 10
783.840054
 20
234.546667
 40
1.500000
 50
180.000000
 51
-90.000000
  0
LINE
  8
1
 62
7
  6
CONTINUOUS
 10
790.827554
 20
233.046667
 11
783.840054
 21
233.046667
  0
ARC
  8
1
 62
7
  6
CONTINUOUS
 10
790.827554
 20
231.546667
 40
1.500000
 50
0.000000
 51
90.000000
  0
LINE
  8
1
 62
7
  6
CONTINUOUS
 10
792.327554
 20
227.546667
 11
792.327554
 21
231.546667
  0
ARC
  8
1
 62
7
  6
CONTINUOUS
 10
790.827554
 20
227.546667
 40
1.500000
 50
-90.000000
 51
0.000000
  0
LINE
  8
1
 62
7
  6
CONTINUOUS
 10
782.340054
 20
226.046667
 11
790.827554
 21
226.046667
  0
ARC
  8
1
 62
7
  6
CONTINUOUS
 10
984.888144
 20
228.046667
 40
5.000000
 50
90.000000
 51
144.462322
  0
LINE
  8
1
 62
7
  6
CONTINUOUS
 10
978.810632
 20
228.140476
 11
980.819476
 21
230.952858
  0
ARC
  8
1
 62
7
  6
CONTINUOUS
 10
974.741965
 20
231.046667
 40
5.000000
 50
-90.000000
 51
-35.537678
  0
LINE
  8
1
 62
7
  6
CONTINUOUS
 10
962.315054
 20
226.046667
 11
974.741965
 21
226.046667
  0
ARC
  8
1
 62
7
  6
CONTINUOUS
 10
769.913144
 20
231.046667
 40
5.000000
 50
-144.462322
 51
-90.000000
  0
LINE
  8
1
 62
7
  6
CONTINUOUS
 10
782.340054
 20
226.046667
 11
769.913144
 21
226.046667
  0
LINE
  8
1
 62
7
  6
CONTINUOUS
 10
765.844476
 20
228.140476
 11
763.835632
 21
230.952858
  0
ARC
  8
1
 62
7
  6
CONTINUOUS
 10
759.766965
 20
228.046667
 40
5.000000
 50
35.537678
 51
90.000000
  0
DIMENSION
  8
1
 62
7
  6
CONTINUOUS
  2
*D6
 10
782.340054
 20
289.180000
 11
872.327554
 21
289.180000
 70
     0
  1
180
 13
782.340054
 23
259.180000
 14
962.315054
 24
259.180000
 50
0.000000
  0
LINE
  8
1
 62
7
  6
CONTINUOUS
 10
1307.760000
 20
446.046667
 11
1282.760000
 21
446.046667
  0
LINE
  8
1
 62
7
  6
CONTINUOUS
 10
431.760000
 20
446.046667
 11
456.760000
 21
446.046667
  0
DIMENSION
  8
1
 62
7
  6
CONTINUOUS
  2
*D7
 10
652.327554
 20
1105.860000
 11
762.327554
 21
1105.860000
 70
     0
  1
220
 13
652.327554
 23
1082.393333
 14
872.327554
 24
1082.393333
 50
0.000000
  0
DIMENSION
  8
1
 62
7
  6
CONTINUOUS
  2
*D8
 10
872.327554
 20
1105.860000
 11
982.327554
 21
1105.860000
 70
     0
  1
220
 13
872.327554
 23
1105.860000
 14
1092.327554
 24
1082.393333
 50
0.000000
  0
DIMENSION
  8
1
 62
7
  6
CONTINUOUS
  2
*D9
 10
333.160000
 20
1072.393333
 11
333.160000
 21
817.393333
 70
     0
  1
510
 13
421.760000
 23
1072.393333
 14
421.760000
 24
562.393333
 50
-90.000000
  0
DIMENSION
  8
1
 62
7
  6
CONTINUOUS
  2
*D10
 10
466.760000
 20
326.813472
 11
494.099878
 21
331.989853
 70
     0
  1
10
 13
466.760000
 23
326.813472
 14
474.781362
 24
326.813472
 50
0.000000
  0
LINE
  8
1
 62
7
  6
CONTINUOUS
 10
1269.725395
 20
388.414417
 11
1278.766385
 21
397.455407
  0
LINE
  8
1
 62
7
  6
CONTINUOUS
 10
1267.121194
 20
364.701303
 11
1276.162184
 21
373.742293
  0
LINE
  8
1
 62
7
  6
CONTINUOUS
 10
1264.437101
 20
340.260713
 11
1273.478091
 21
349.301703
  0
LINE
  8
1
 62
7
  6
CONTINUOUS
 10
1261.837681
 20
316.591127
 11
1270.878670
 21
325.632116
  0
LINE
  8
1
 62
7
  6
CONTINUOUS
 10
1253.283237
 20
252.781150
 11
1264.061810
 21
263.559723
  0
LINE
  8
1
 62
7
  6
CONTINUOUS
 10
962.315053
 20
226.046667
 11
974.448384
 21
238.179998
  0
DIMENSION
  8
1
 62
7
  6
CONTINUOUS
  2
*D11
 10
401.760000
 20
446.046667
 11
391.760000
 21
434.250553
 70
     0
  1
12
 13
421.760000
 23
446.046667
 14
421.760000
 24
434.250553
 50
-90.000000
  0
LINE
  8
1
 62
7
  6
CONTINUOUS
 10
480.749753
 20
260.418433
 11
467.005532
 21
413.315260
  0
LINE
  8
1
 62
7
  6
CONTINUOUS
 10
503.343882
 20
241.046667
 11
500.981183
 21
241.046667
  0
LINE
  8
1
 62
7
  6
CONTINUOUS
 10
1241.411325
 20
234.021692
 11
1262.850073
 21
255.460439
  0
LINE
  8
1
 62
7
  6
CONTINUOUS
 10
1473.466667
 20
1072.393333
 11
1473.466667
 21
562.393333
  0
LINE
  8
1
 62
7
  6
CONTINUOUS
 10
1503.466667
 20
1047.393333
 11
1653.722245
 21
1038.708040
  0
LINE
  8
1
 62
7
  6
CONTINUOUS
 10
1681.306321
 20
1015.130923
 11
1686.466667
 21
991.393333
  0
ARC
  8
1
 62
7
  6
CONTINUOUS
 10
1651.991030
 20
1008.758033
 40
30.000000
 50
12.264774
 51
86.691786
  0
LINE
  8
1
 62
7
  6
CONTINUOUS
 10
1503.466667
 20
967.393333
 11
1661.466667
 21
967.393333
  0
LINE
  8
1
 62
7
  6
CONTINUOUS
 10
1686.466667
 20
942.393333
 11
1686.466667
 21
811.393333
  0
ARC
  8
1
 62
7
  6
CONTINUOUS
 10
1661.466667
 20
942.393333
 40
25.000000
 50
0.000000
 51
90.000000
  0
LINE
  8
1
 62
7
  6
CONTINUOUS
 10
1686.466667
 20
991.393333
 11
1686.466667
 21
946.627451
  0
LINE
  8
1
 62
7
  6
CONTINUOUS
 10
1694.466667
 20
991.393333
 11
1686.466667
 21
991.393333
  0
ARC
  8
1
 62
7
  6
CONTINUOUS
 10
1694.466667
 20
989.393333
 40
2.000000
 50
0.000000
 51
90.000000
  0
LINE
  8
1
 62
7
  6
CONTINUOUS
 10
1696.466667
 20
813.393333
 11
1696.466667
 21
989.393333
  0
LINE
  8
1
 62
7
  6
CONTINUOUS
 10
1686.466667
 20
811.393333
 11
1694.466667
 21
811.393333
  0
ARC
  8
1
 62
7
  6
CONTINUOUS
 10
1694.466667
 20
813.393333
 40
2.000000
 50
-90.000000
 51
0.000000
  0
LINE
  8
1
 62
7
  6
CONTINUOUS
 10
1503.466667
 20
597.393333
 11
1654.039226
 21
606.096950
  0
LINE
  8
1
 62
7
  6
CONTINUOUS
 10
1677.566565
 20
629.831268
 11
1686.466667
 21
811.393333
  0
ARC
  8
1
 62
7
  6
CONTINUOUS
 10
1652.596548
 20
631.055288
 40
25.000000
 50
-86.691786
 51
-2.806370
  0
DIMENSION
  8
1
 62
7
  6
CONTINUOUS
  2
*D12
 10
1631.962977
 20
651.447307
 11
1642.793296
 21
641.066703
 70
     4
  1
25R
 15
1670.377992
 25
613.482007
  0
LINE
  8
1
 62
7
  6
CONTINUOUS
 10
1473.466667
 20
1072.393333
 11
1485.466667
 21
1069.393333
  0
LINE
  8
1
 62
7
  6
CONTINUOUS
 10
1473.466667
 20
562.393333
 11
1485.466667
 21
565.393333
  0
LINE
  8
1
 62
7
  6
CONTINUOUS
 10
1485.466667
 20
565.393333
 11
1485.466667
 21
587.393333
  0
DIMENSION
  8
1
 62
7
  6
CONTINUOUS
  2
*D13
 10
1473.466667
 20
1104.360000
 11
1579.966667
 21
1104.360000
 70
     0
  1
213
 13
1473.466667
 23
1057.393333
 14
1686.466667
 24
1057.393333
 50
0.000000
  0
DIMENSION
  8
1
 62
7
  6
CONTINUOUS
  2
*D14
 10
1686.466667
 20
1086.719924
 11
1691.466667
 21
1086.719924
 70
     0
  1
7
 13
1686.466667
 23
1057.393333
 14
1696.466667
 24
1057.393333
 50
0.000000
  0
DIMENSION
  8
1
 62
7
  6
CONTINUOUS
  2
*D15
 10
502.602204
 20
263.046667
 11
534.159668
 21
290.669870
 70
     4
  1
25R
 15
489.137860
 25
245.648062
  0
LINE
  8
1
 62
7
  6
CONTINUOUS
 10
500.961094
 20
260.926027
 11
515.515846
 21
275.480778
  0
LINE
  8
1
 62
7
  6
CONTINUOUS
 10
652.327554
 20
1007.393333
 11
582.327554
 21
1101.360000
  0
LINE
  8
1
 62
7
  6
CONTINUOUS
 10
582.327554
 20
1101.360000
 11
499.344444
 21
1101.360000
  0
TEXT
  8
1
 62
7
  6
CONTINUOUS
 10
499.344444
 20
1101.360000
 40
15.000000
 41
1.000000
  1
給水栓穴φ
  7
KANJI
 50
0.000000
 51
30.000000
  0
LINE
  8
1
 62
7
  6
CONTINUOUS
 10
652.327554
 20
1007.393333
 11
636.635470
 21
1019.793273
  0
LINE
  8
1
 62
7
  6
CONTINUOUS
 10
652.327554
 20
1007.393333
 11
644.937781
 21
1025.978038
  0
LINE
  8
1
 62
7
  6
CONTINUOUS
 10
636.635470
 20
1019.793273
 11
644.937781
 21
1025.978038
  0
LINE
  8
1
 62
7
  6
CONTINUOUS
 10
649.442322
 20
1011.266414
 11
641.596280
 21
1017.466384
  0
LINE
  8
1
 62
7
  6
CONTINUOUS
 10
649.442322
 20
1011.266414
 11
645.747435
 21
1020.558766
  0
LINE
  8
1
 62
7
  6
CONTINUOUS
 10
641.596280
 20
1017.466384
 11
645.747435
 21
1020.558766
  0
LINE
  8
1
 62
7
  6
CONTINUOUS
 10
1092.327554
 20
1007.393333
 11
1162.327554
 21
1101.360000
  0
LINE
  8
1
 62
7
  6
CONTINUOUS
 10
1162.327554
 20
1101.360000
 11
1232.264444
 21
1101.360000
  0
TEXT
  8
1
 62
7
  6
CONTINUOUS
 10
1157.264444
 20
1101.360000
 40
15.000000
 41
1.000000
  1
給水栓穴φ
  7
KANJI
 50
0.000000
 51
30.000000
  0
LINE
  8
1
 62
7
  6
CONTINUOUS
 10
1092.327554
 20
1007.393333
 11
1099.717327
 21
1025.978038
  0
LINE
  8
1
 62
7
  6
CONTINUOUS
 10
1092.327554
 20
1007.393333
 11
1108.019638
 21
1019.793273
  0
LINE
  8
1
 62
7
  6
CONTINUOUS
 10
1099.717327
 20
1025.978038
 11
1108.019638
 21
1019.793273
  0
LINE
  8
1
 62
7
  6
CONTINUOUS
 10
1095.212786
 20
1011.266414
 11
1098.907673
 21
1020.558766
  0
LINE
  8
1
 62
7
  6
CONTINUOUS
 10
1095.212786
 20
1011.266414
 11
1103.058828
 21
1017.466384
  0
LINE
  8
1
 62
7
  6
CONTINUOUS
 10
1098.907673
 20
1020.558766
 11
1103.058828
 21
1017.466384
  0
TEXT
  8
1
 62
7
  6
CONTINUOUS
 10
44.826667
 20
1109.441788
 40
25.000000
 41
1.000000
  1
付属品：洗剤アミカゴ
  7
KANJI
 50
0.000000
 51
0.000000
  0
TEXT
  8
1
 62
7
  6
CONTINUOUS
 10
294.826667
 20
1121.941788
 40
12.500000
 41
0.500000
  1

  7
KANJI
 50
0.000000
 51
0.000000
  0
TEXT
  8
1
 62
7
  6
CONTINUOUS
 10
294.826667
 20
1109.441788
 40
12.500000
 41
0.500000
  1

  7
KANJI
 50
0.000000
 51
0.000000
  0
TEXT
  8
1
 62
7
  6
CONTINUOUS
 10
130.203075
 20
1070.942180
 40
25.000000
 41
0.916667
  1
 水切りカゴ
  7
KANJI
 50
0.000000
 51
0.000000
  0
TEXT
  8
1
 62
7
  6
CONTINUOUS
 10
267.703075
 20
1083.442180
 40
12.500000
 41
0.500000
  1

  7
KANJI
 50
0.000000
 51
0.000000
  0
TEXT
  8
1
 62
7
  6
CONTINUOUS
 10
267.703075
 20
1070.942180
 40
12.500000
 41
0.500000
  1

  7
KANJI
 50
0.000000
 51
0.000000
  0
TEXT
  8
1
 62
7
  6
CONTINUOUS
 10
44.826667
 20
1030.902588
 40
25.000000
 41
1.000000
  1
専用排水金具は別売
  7
KANJI
 50
0.000000
 51
0.000000
  0
TEXT
  8
1
 62
7
  6
CONTINUOUS
 10
269.826667
 20
1043.402588
 40
12.500000
 41
0.500000
  1

  7
KANJI
 50
0.000000
 51
0.000000
  0
TEXT
  8
1
 62
7
  6
CONTINUOUS
 10
269.826667
 20
1030.902588
 40
12.500000
 41
0.500000
  1

  7
KANJI
 50
0.000000
 51
0.000000
  0
TEXT
  8
1
 62
7
  6
CONTINUOUS
 10
44.826667
 20
1195.052392
 40
35.000000
 41
0.923077
  1
ＪＢ-８１２ シンク詳細図
  7
KANJI
 50
0.000000
 51
0.000000
  0
TEXT
  8
1
 62
7
  6
CONTINUOUS
 10
464.826667
 20
1212.552392
 40
17.500000
 41
0.500000
  1

  7
KANJI
 50
0.000000
 51
0.000000
  0
TEXT
  8
1
 62
7
  6
CONTINUOUS
 10
464.826667
 20
1195.052392
 40
17.500000
 41
0.500000
  1

  7
KANJI
 50
0.000000
 51
0.000000
  0
LINE
  8
1
 62
7
  6
CONTINUOUS
 10
506.160000
 20
967.393333
 11
505.760000
 21
967.393333
  0
ARC
  8
1
 62
7
  6
CONTINUOUS
 10
505.760000
 20
924.393333
 40
43.000000
 50
90.000000
 51
180.000000
  0
LINE
  8
1
 62
7
  6
CONTINUOUS
 10
1233.360000
 20
967.393333
 11
1233.760000
 21
967.393333
  0
LINE
  8
1
 62
7
  6
CONTINUOUS
 10
505.760000
 20
593.393333
 11
1233.760000
 21
593.393333
  0
ARC
  8
1
 62
7
  6
CONTINUOUS
 10
505.760000
 20
636.393333
 40
43.000000
 50
180.000000
 51
-90.000000
  0
ARC
  8
1
 62
7
  6
CONTINUOUS
 10
505.760000
 20
1004.393333
 40
43.000000
 50
90.000000
 51
180.000000
  0
LINE
  8
1
 62
7
  6
CONTINUOUS
 10
1233.760000
 20
1047.393333
 11
505.760000
 21
1047.393333
  0
ARC
  8
1
 62
7
  6
CONTINUOUS
 10
1233.760000
 20
636.393333
 40
43.000000
 50
-90.000000
 51
0.000000
  0
ARC
  8
1
 62
7
  6
CONTINUOUS
 10
1233.760000
 20
1004.393333
 40
43.000000
 50
0.000000
 51
90.000000
  0
LINE
  8
1
 62
7
  6
CONTINUOUS
 10
462.760000
 20
636.393333
 11
462.760000
 21
924.393333
  0
LINE
  8
1
 62
7
  6
CONTINUOUS
 10
1276.760000
 20
924.393333
 11
1276.760000
 21
636.393333
  0
ARC
  8
1
 62
7
  6
CONTINUOUS
 10
1233.760000
 20
924.393333
 40
43.000000
 50
0.000000
 51
90.000000
  0
LINE
  8
1
 62
7
  6
CONTINUOUS
 10
462.760000
 20
1004.393333
 11
462.760000
 21
924.393333
  0
LINE
  8
1
 62
7
  6
CONTINUOUS
 10
1276.760000
 20
924.393333
 11
1276.760000
 21
1004.393333
  0
LINE
  8
1
 62
7
  6
CONTINUOUS
 10
471.671530
 20
610.183103
 11
506.671530
 21
649.049098
  0
LINE
  8
1
 62
7
  6
CONTINUOUS
 10
506.671530
 20
649.049098
 11
563.189951
 21
649.049098
  0
TEXT
  8
1
 62
7
  6
CONTINUOUS
 10
513.189951
 20
649.049098
 40
20.000000
 41
0.500000
  1
43R*4
  7
KANJI
 50
0.000000
 51
30.000000
  0
LINE
  8
1
 62
7
  6
CONTINUOUS
 10
471.671530
 20
610.183103
 11
480.752580
 21
628.002601
  0
LINE
  8
1
 62
7
  6
CONTINUOUS
 10
471.671530
 20
610.183103
 11
488.445699
 21
621.074716
  0
LINE
  8
1
 62
7
  6
CONTINUOUS
 10
480.752580
 20
628.002601
 11
488.445699
 21
621.074716
  0
LINE
  8
1
 62
7
  6
CONTINUOUS
 10
474.903432
 20
613.771992
 11
479.443957
 21
622.681741
  0
LINE
  8
1
 62
7
  6
CONTINUOUS
 10
474.903432
 20
613.771992
 11
483.290517
 21
619.217798
  0
LINE
  8
1
 62
7
  6
CONTINUOUS
 10
479.443957
 20
622.681741
 11
483.290517
 21
619.217798
  0
LINE
  8
1
 62
7
  6
CONTINUOUS
 10
475.354408
 20
1034.798924
 11
502.759999
 21
1007.393333
  0
LINE
  8
1
 62
7
  6
CONTINUOUS
 10
502.759999
 20
1007.393333
 11
540.259999
 21
1007.393333
  0
TEXT
  8
1
 62
7
  6
CONTINUOUS
 10
502.759999
 20
1007.393333
 40
20.000000
 41
0.375000
  1
43R*3
  7
KANJI
 50
0.000000
 51
30.000000
  0
LINE
  8
1
 62
7
  6
CONTINUOUS
 10
475.354408
 20
1034.798924
 11
492.674916
 21
1024.798924
  0
LINE
  8
1
 62
7
  6
CONTINUOUS
 10
475.354408
 20
1034.798924
 11
485.354408
 21
1017.478416
  0
LINE
  8
1
 62
7
  6
CONTINUOUS
 10
492.674916
 20
1024.798924
 11
485.354408
 21
1017.478416
  0
LINE
  8
1
 62
7
  6
CONTINUOUS
 10
478.769471
 20
1031.383861
 11
487.429725
 21
1026.383861
  0
LINE
  8
1
 62
7
  6
CONTINUOUS
 10
478.769471
 20
1031.383861
 11
483.769471
 21
1022.723607
  0
LINE
  8
1
 62
7
  6
CONTINUOUS
 10
487.429725
 20
1026.383861
 11
483.769471
 21
1022.723607
  0
DIMENSION
  8
1
 62
7
  6
CONTINUOUS
  2
*D16
 10
431.760000
 20
1129.180000
 11
447.260000
 21
1129.180000
 70
     0
  1
31
 13
431.760000
 23
1129.180000
 14
462.760000
 24
1129.180000
 50
0.000000
  0
DIMENSION
  8
1
 62
7
  6
CONTINUOUS
  2
*D17
 10
462.760000
 20
1129.180000
 11
869.760000
 21
1129.180000
 70
     0
  1
812
 13
462.760000
 23
1129.180000
 14
1276.760000
 24
1129.180000
 50
0.000000
  0
DIMENSION
  8
1
 62
7
  6
CONTINUOUS
  2
*D18
 10
1276.760000
 20
1129.180000
 11
1292.260000
 21
1129.180000
 70
     0
  1
31
 13
1276.760000
 23
1129.180000
 14
1307.760000
 24
1129.180000
 50
0.000000
  0
DIMENSION
  8
1
 62
7
  6
CONTINUOUS
  2
*D19
 10
431.760000
 20
1149.180000
 11
869.760000
 21
1149.180000
 70
     0
  1
874
 13
431.760000
 23
1082.393333
 14
1307.760000
 24
1082.393333
 50
0.000000
  0
LINE
  8
1
 62
7
  6
CONTINUOUS
 10
467.005532
 20
413.315260
 11
464.063236
 21
446.046667
  0
LINE
  8
1
 62
7
  6
CONTINUOUS
 10
443.760000
 20
434.046667
 11
447.968284
 21
434.046667
  0
LINE
  8
1
 62
7
  6
CONTINUOUS
 10
457.928124
 20
424.941978
 11
459.446880
 21
408.046667
  0
ARC
  8
1
 62
7
  6
CONTINUOUS
 10
447.968284
 20
424.046667
 40
10.000000
 50
5.136633
 51
90.000000
  0
LINE
  8
1
 62
7
  6
CONTINUOUS
 10
439.790173
 20
434.046667
 11
447.004190
 21
446.046667
  0
LINE
  8
1
 62
7
  6
CONTINUOUS
 10
449.846075
 20
434.046667
 11
456.760000
 21
446.046667
  0
LINE
  8
1
 62
7
  6
CONTINUOUS
 10
456.846120
 20
428.649277
 11
464.732684
 21
438.599424
  0
LINE
  8
1
 62
7
  6
CONTINUOUS
 10
458.863536
 20
414.536038
 11
466.242444
 21
421.804180
  0
LINE
  8
1
 62
7
  6
CONTINUOUS
 10
460.020661
 20
401.663664
 11
467.486306
 21
407.966919
  0
DIMENSION
  8
1
 62
7
  6
CONTINUOUS
  2
*D20
 10
431.760000
 20
469.983641
 11
447.911618
 21
469.983641
 70
     0
  1
31
 13
431.760000
 23
456.046667
 14
464.063236
 24
456.046667
 50
0.000000
  0
LINE
  8
1
 62
7
  6
CONTINUOUS
 10
1272.466502
 20
413.374161
 11
1276.054634
 21
446.046667
  0
LINE
  8
1
 62
7
  6
CONTINUOUS
 10
1295.760000
 20
434.046667
 11
1291.746790
 21
434.046667
  0
LINE
  8
1
 62
7
  6
CONTINUOUS
 10
1281.806553
 20
425.138315
 11
1279.636032
 21
405.374161
  0
ARC
  8
1
 62
7
  6
CONTINUOUS
 10
1291.746790
 20
424.046667
 40
10.000000
 50
90.000000
 51
173.732828
  0
LINE
  8
1
 62
7
  6
CONTINUOUS
 10
1270.894348
 20
399.058568
 11
1280.064812
 21
409.278516
  0
LINE
  8
1
 62
7
  6
CONTINUOUS
 10
1272.466502
 20
413.374161
 11
1281.460666
 21
421.988770
  0
LINE
  8
1
 62
7
  6
CONTINUOUS
 10
1275.106751
 20
437.415514
 11
1286.447773
 21
446.046667
  0
LINE
  8
1
 62
7
  6
CONTINUOUS
 10
1290.105869
 20
434.046667
 11
1304.738254
 21
446.046667
  0
LINE
  8
1
 62
7
  6
CONTINUOUS
 10
1274.182567
 20
429.000151
 11
1294.559204
 21
446.046667
  0
DIMENSION
  8
1
 62
7
  6
CONTINUOUS
  2
*D21
 10
1276.760000
 20
469.983641
 11
1292.260000
 21
469.983641
 70
     0
  1
31
 13
1276.760000
 23
456.046667
 14
1307.760000
 24
456.046667
 50
0.000000
  0
LINE
  8
1
 62
7
  6
CONTINUOUS
 10
1503.466667
 20
967.393333
 11
1485.466667
 21
967.393333
  0
LINE
  8
1
 62
7
  6
CONTINUOUS
 10
1485.466667
 20
1069.393333
 11
1485.466667
 21
1053.153125
  0
LINE
  8
1
 62
7
  6
CONTINUOUS
 10
1582.452432
 20
1042.827682
 11
1490.178131
 21
1048.161457
  0
ARC
  8
1
 62
7
  6
CONTINUOUS
 10
1490.466667
 20
1053.153125
 40
5.000000
 50
180.000000
 51
-93.308214
  0
LINE
  8
1
 62
7
  6
CONTINUOUS
 10
1485.466667
 20
1053.153123
 11
1485.466667
 21
1047.393333
  0
LINE
  8
1
 62
7
  6
CONTINUOUS
 10
1503.466667
 20
597.393333
 11
1490.178131
 21
596.625210
  0
LINE
  8
1
 62
7
  6
CONTINUOUS
 10
1485.466667
 20
591.633542
 11
1485.466667
 21
587.393333
  0
ARC
  8
1
 62
7
  6
CONTINUOUS
 10
1490.466667
 20
591.633542
 40
5.000000
 50
93.308213
 51
180.000000
  0
LINE
  8
1
 62
7
  6
CONTINUOUS
 10
1485.466667
 20
1047.393333
 11
1485.466667
 21
591.633542
  0
LINE
  8
1
 62
7
  6
CONTINUOUS
 10
1503.466667
 20
967.393333
 11
1485.466667
 21
967.393333
  0
LINE
  8
1
 62
7
  6
CONTINUOUS
 10
1485.466667
 20
1053.153123
 11
1485.466667
 21
593.393333
  0
LINE
  8
1
 62
7
  6
CONTINUOUS
 10
465.141942
 20
434.046667
 11
1274.736780
 21
434.046667
  0
DIMENSION
  8
1
 62
7
  6
CONTINUOUS
  2
*D22
 10
360.573333
 20
562.393333
 11
360.573333
 21
577.893333
 70
     0
  1
31
 13
421.760000
 23
562.393333
 14
421.760000
 24
593.393333
 50
90.000000
  0
DIMENSION
  8
1
 62
7
  6
CONTINUOUS
  2
*D23
 10
360.573333
 20
593.393333
 11
360.573333
 21
820.393333
 70
     0
  1
453
 13
360.573333
 23
593.393333
 14
421.760000
 24
1047.393333
 50
90.000000
  0
DIMENSION
  8
1
 62
7
  6
CONTINUOUS
  2
*D24
 10
360.573333
 20
1047.393333
 11
360.573333
 21
1059.893333
 70
     0
  1
26
 13
360.573333
 23
1047.393333
 14
421.760000
 24
1072.393333
 50
90.000000
  0
TEXT
  8
1
 62
7
  6
CONTINUOUS
 10
44.826667
 20
1149.796392
 40
25.000000
 41
0.875000
  1
100％アクリル製　６色
  7
KANJI
 50
0.000000
 51
0.000000
  0
TEXT
  8
1
 62
7
  6
CONTINUOUS
 10
307.326667
 20
1162.296392
 40
12.500000
 41
0.500000
  1

  7
KANJI
 50
0.000000
 51
0.000000
  0
TEXT
  8
1
 62
7
  6
CONTINUOUS
 10
307.326667
 20
1149.796392
 40
12.500000
 41
0.500000
  1

  7
KANJI
 50
0.000000
 51
0.000000
  0
ENDSEC
  0
EOF
