  0
SECTION
  2
HEADER
  9
$ACADVER
  1
AC1003
  9
$INSBASE
 10
0.000000
 20
0.000000
  9
$EXTMIN
 10
0.000000
 20
0.000000
  9
$EXTMAX
 10
1820.000000
 20
1285.000000
  9
$LIMMIN
 10
0.000000
 20
0.000000
  9
$LIMMAX
 10
1820.000000
 20
1285.000000
  9
$VIEWCTR
 10
910.000000
 20
642.500000
  9
$VIEWSIZE
 40
1285.000000
  9
$PEXTMIN
 10
0.000000
 20
0.000000
 30
0.000000
  9
$PEXTMAX
 10
364.000000
 20
257.000000
 30
0.000000
  9
$SNAPMODE
 70
     0
  9
$SNAPUNIT
 10
1.000000
 20
1.000000
  9
$SNAPBASE
 10
0.000000
 20
0.000000
  9
$SNAPANG
 50
0.000000
  9
$SNAPISOPAIR
 70
     0
  9
$SNAPSTYLE
 70
     0
  9
$GRIDMODE
 70
     0
  9
$GRIDUNIT
 10
0.000000
 20
0.000000
  9
$ORTHOMODE
 70
     0
  9
$REGENMODE
 70
     1
  9
$FILLMODE
 70
     1
  9
$QTEXTMODE
 70
     0
  9
$DRAGMODE
 70
     2
  9
$LTSCALE
 40
1.250000
  9
$OSMODE
 70
     0
  9
$ATTMODE
 70
     1
  9
$TEXTSIZE
 40
0.200000
  9
$TRACEWID
 40
0.050000
  9
$TEXTSTYLE
  7
STANDARD
  9
$CLAYER
  8
0
  9
$CELTYPE
  6
BYLAYER
  9
$CECOLOR
 62
   256
  9
$DIMSCALE
 40
1.000000
  9
$DIMASZ
 40
1.000000
  9
$DIMEXO
 40
0.000000
  9
$DIMDLI
 40
0.500000
  9
$DIMRND
 40
0.000000
  9
$DIMDLE
 40
0.000000
  9
$DIMEXE
 40
0.000000
  9
$DIMTP
 40
0.000000
  9
$DIMTM
 40
0.000000
  9
$DIMTXT
 40
0.180000
  9
$DIMCEN
 40
0.000000
  9
$DIMTSZ
 40
0.000000
  9
$DIMTOL
 70
     0
  9
$DIMLIM
 70
     0
  9
$DIMTIH
 70
     1
  9
$DIMTOH
 70
     1
  9
$DIMSE1
 70
     0
  9
$DIMSE2
 70
     0
  9
$DIMTAD
 70
     0
  9
$DIMZIN
 70
     0
  9
$DIMBLK
  1

  9
$DIMASO
 70
     0
  9
$DIMSHO
 70
     0
  9
$DIMPOST
  1

  9
$DIMAPOST
  1

  9
$DIMALT
 70
     0
  9
$DIMALTD
 70
     0
  9
$DIMALTF
 40
25.400000
  9
$DIMLFAC
 40
1.000000
  9
$DIMTOFL
 70
     0
  9
$DIMTVP
 40
0.000000
  9
$DIMTIX
 70
     0
  9
$DIMSOXD
 70
     0
  9
$DIMSAH
 70
     0
  9
$DIMBLKL
  1

  9
$DIMBLKR
  1

  9
$LUNITS
 70
     2
  9
$LUPREC
 70
     2
  9
$AXISMODE
 70
     0
  9
$AXISUNIT
 10
1.000000
 20
1.000000
  9
$SKETCHINC
 40
0.000000
  9
$FILLETRAD
 40
0.000000
  9
$AUNITS
 70
     1
  9
$AUPREC
 70
     2
  9
$MENU
  1
ACAD
  9
$ELEVATION
 40
0.000000
  9
$THICKNESS
 40
0.000000
  9
$VIEWDIR
 10
0.000000
 20
0.000000
 30
1.000000
  9
$LIMCHECK
 70
     1
  9
$BLIPMODE
 70
     1
  9
$CHAMFERA
 40
0.000000
  9
$CHAMFERB
 40
0.000000
  9
$FASTZOOM
 70
     1
  9
$SKPOLY
 70
     0
  9
$TDCREATE
 40
0.000000
  9
$TDUPDATE
 40
0.000000
  9
$TDINDWG
 40
0.000000
  9
$TDUSRTIMER
 40
0.000000
  9
$USRTIMER
 70
     1
  9
$ANGBASE
 50
0.000000
  9
$ANGDIR
 70
     0
  9
$PDMODE
 70
     0
  9
$PDSIZE
 40
0.000000
  9
$PLINEWID
 40
0.000000
  9
$COORDS
 70
     2
  9
$USERI1
 70
     0
  9
$USERI2
 70
     0
  9
$USERI3
 70
     0
  9
$USERI4
 70
     0
  9
$USERI5
 70
     0
  9
$USERR1
 40
0.000000
  9
$USERR2
 40
0.000000
  9
$USERR3
 40
0.000000
  9
$USERR4
 40
0.000000
  9
$USERR5
 40
0.000000
  0
ENDSEC
  0
SECTION
  2
TABLES
  0
TABLE
  2
LTYPE
 70
     5
  0
LTYPE
  2
CONTINUOUS
 70
    64
  3
Solid line
 72
    65
 73
     0
 40
0.0
  0
LTYPE
  2
HIDDEN
 70
    64
  3
------------------------
 72
    65
 73
     2
 40
12.6
 49
8.4
 49
-4.2
  0
LTYPE
  2
DOT
 70
    64
  3
････････････････････････
 72
    65
 73
     2
 40
8.0
 49
6.0
 49
-2.0
  0
LTYPE
  2
DASHDOT
 70
    64
  3
--･--･--･--･--･--･--･--
 72
    65
 73
     4
 40
50.5
 49
30.0
 49
-9.0
 49
2.5
 49
-9.0
  0
LTYPE
  2
DIVIDE
 70
    64
  3
--･･--･･--･･--･･--･･--
 72
    65
 73
     6
 40
58.0
 49
30.0
 49
-9.0
 49
2.5
 49
-5.0
 49
2.5
 49
-9.0
  0
ENDTAB
  0
TABLE
  2
LAYER
 70
1
  0
LAYER
  2
1
 70
64
 62
7
  6
CONTINUOUS
  0
ENDTAB
  0
TABLE
  2
STYLE
 70
     2
  0
STYLE
  2
STANDARD
 70
    64
 40
0.0
 41
1.0
 50
0.0
 71
     0
 42
0.2
  3
TXT
  4

  0
STYLE
  2
KANJI
 70
    64
 40
0.0
 41
1.0
 50
0.0
 71
     0
 42
0.2
  3
TXT
  4
BIGFONT
  0
ENDTAB
  0
TABLE
  2
VIEW
 70
     0
  0
ENDTAB
  0
ENDSEC
  0
SECTION
  2
BLOCKS
  0
BLOCK
  8
1
 62
7
  6
CONTINUOUS
  2
*D1
 70
    65
 10
0.0
 20
0.0
  0
LINE
  8
1
 62
7
  6
CONTINUOUS
 10
782.340054
 20
289.180000
 11
962.315054
 21
289.180000
  0
LINE
  8
1
 62
7
  6
CONTINUOUS
 10
782.340054
 20
299.180000
 11
782.340054
 21
259.180000
  0
LINE
  8
1
 62
7
  6
CONTINUOUS
 10
962.315054
 20
299.180000
 11
962.315054
 21
259.180000
  0
CIRCLE
  8
1
 62
7
  6
CONTINUOUS
 10
782.340054
 20
289.180000
 40
1.500000
  0
CIRCLE
  8
1
 62
7
  6
CONTINUOUS
 10
782.340054
 20
289.180000
 40
0.750000
  0
CIRCLE
  8
1
 62
7
  6
CONTINUOUS
 10
962.315054
 20
289.180000
 40
1.500000
  0
CIRCLE
  8
1
 62
7
  6
CONTINUOUS
 10
962.315054
 20
289.180000
 40
0.750000
  0
TEXT
  8
1
 62
7
  6
CONTINUOUS
 10
857.327554
 20
289.180000
 40
20.000000
 41
0.500000
  1
180
  7
KANJI
 50
0.000000
 51
30.000000
  0
ENDBLK
  0
BLOCK
  8
1
 62
7
  6
CONTINUOUS
  2
*D2
 70
    65
 10
0.0
 20
0.0
  0
LINE
  8
1
 62
7
  6
CONTINUOUS
 10
1631.962977
 20
651.447307
 11
1670.377992
 21
613.482007
  0
LINE
  8
1
 62
7
  6
CONTINUOUS
 10
1670.377992
 20
613.482007
 11
1652.998907
 21
623.379855
  0
LINE
  8
1
 62
7
  6
CONTINUOUS
 10
1670.377992
 20
613.482007
 11
1660.276187
 21
630.743337
  0
LINE
  8
1
 62
7
  6
CONTINUOUS
 10
1652.998907
 20
623.379855
 11
1660.276187
 21
630.743337
  0
LINE
  8
1
 62
7
  6
CONTINUOUS
 10
1666.942881
 20
616.876904
 11
1658.253339
 21
621.825828
  0
LINE
  8
1
 62
7
  6
CONTINUOUS
 10
1666.942881
 20
616.876904
 11
1661.891979
 21
625.507569
  0
LINE
  8
1
 62
7
  6
CONTINUOUS
 10
1658.253339
 20
621.825828
 11
1661.891979
 21
625.507569
  0
TEXT
  8
1
 62
7
  6
CONTINUOUS
 10
1632.124429
 20
651.610672
 40
20.000000
 41
0.500000
  1
25R
  7
KANJI
 50
-44.662656
 51
30.000000
  0
ENDBLK
  0
BLOCK
  8
1
 62
7
  6
CONTINUOUS
  2
*D3
 70
    65
 10
0.0
 20
0.0
  0
LINE
  8
1
 62
7
  6
CONTINUOUS
 10
468.760000
 20
326.813472
 11
551.099878
 21
326.813472
  0
LINE
  8
1
 62
7
  6
CONTINUOUS
 10
508.760000
 20
326.813472
 11
489.441483
 21
321.637091
  0
LINE
  8
1
 62
7
  6
CONTINUOUS
 10
508.760000
 20
326.813472
 11
489.441483
 21
331.989853
  0
LINE
  8
1
 62
7
  6
CONTINUOUS
 10
489.441483
 20
321.637091
 11
489.441483
 21
331.989853
  0
LINE
  8
1
 62
7
  6
CONTINUOUS
 10
503.930371
 20
326.813472
 11
494.271113
 21
324.225282
  0
LINE
  8
1
 62
7
  6
CONTINUOUS
 10
503.930371
 20
326.813472
 11
494.271113
 21
329.401663
  0
LINE
  8
1
 62
7
  6
CONTINUOUS
 10
494.271113
 20
324.225282
 11
494.271113
 21
329.401663
  0
LINE
  8
1
 62
7
  6
CONTINUOUS
 10
516.781362
 20
326.813472
 11
536.099878
 21
331.989853
  0
LINE
  8
1
 62
7
  6
CONTINUOUS
 10
516.781362
 20
326.813472
 11
536.099878
 21
321.637091
  0
LINE
  8
1
 62
7
  6
CONTINUOUS
 10
536.099878
 20
331.989853
 11
536.099878
 21
321.637091
  0
LINE
  8
1
 62
7
  6
CONTINUOUS
 10
521.610991
 20
326.813472
 11
531.270249
 21
329.401663
  0
LINE
  8
1
 62
7
  6
CONTINUOUS
 10
521.610991
 20
326.813472
 11
531.270249
 21
324.225282
  0
LINE
  8
1
 62
7
  6
CONTINUOUS
 10
531.270249
 20
329.401663
 11
531.270249
 21
324.225282
  0
TEXT
  8
1
 62
7
  6
CONTINUOUS
 10
526.099878
 20
331.989853
 40
20.000000
 41
0.500000
  1
10
  7
KANJI
 50
0.000000
 51
30.000000
  0
ENDBLK
  0
BLOCK
  8
1
 62
7
  6
CONTINUOUS
  2
*D4
 70
    65
 10
0.0
 20
0.0
  0
LINE
  8
1
 62
7
  6
CONTINUOUS
 10
403.760000
 20
446.046667
 11
403.760000
 21
416.046667
  0
LINE
  8
1
 62
7
  6
CONTINUOUS
 10
398.760000
 20
446.046667
 11
463.760000
 21
446.046667
  0
LINE
  8
1
 62
7
  6
CONTINUOUS
 10
398.760000
 20
416.046667
 11
463.760000
 21
416.046667
  0
CIRCLE
  8
1
 62
7
  6
CONTINUOUS
 10
403.760000
 20
446.046667
 40
1.500000
  0
CIRCLE
  8
1
 62
7
  6
CONTINUOUS
 10
403.760000
 20
446.046667
 40
0.750000
  0
CIRCLE
  8
1
 62
7
  6
CONTINUOUS
 10
403.760000
 20
416.046667
 40
1.500000
  0
CIRCLE
  8
1
 62
7
  6
CONTINUOUS
 10
403.760000
 20
416.046667
 40
0.750000
  0
TEXT
  8
1
 62
7
  6
CONTINUOUS
 10
403.760000
 20
421.046667
 40
20.000000
 41
0.500000
  1
30
  7
KANJI
 50
90.000000
 51
30.000000
  0
ENDBLK
  0
BLOCK
  8
1
 62
7
  6
CONTINUOUS
  2
*D5
 70
    65
 10
0.0
 20
0.0
  0
LINE
  8
1
 62
7
  6
CONTINUOUS
 10
503.760000
 20
492.359422
 11
468.760000
 21
492.359422
  0
LINE
  8
1
 62
7
  6
CONTINUOUS
 10
498.760000
 20
497.359422
 11
498.760000
 21
456.046667
  0
LINE
  8
1
 62
7
  6
CONTINUOUS
 10
473.760000
 20
497.359422
 11
473.760000
 21
456.046667
  0
CIRCLE
  8
1
 62
7
  6
CONTINUOUS
 10
498.760000
 20
492.359422
 40
1.500000
  0
CIRCLE
  8
1
 62
7
  6
CONTINUOUS
 10
498.760000
 20
492.359422
 40
0.750000
  0
CIRCLE
  8
1
 62
7
  6
CONTINUOUS
 10
473.760000
 20
492.359422
 40
1.500000
  0
CIRCLE
  8
1
 62
7
  6
CONTINUOUS
 10
473.760000
 20
492.359422
 40
0.750000
  0
TEXT
  8
1
 62
7
  6
CONTINUOUS
 10
476.260000
 20
492.359422
 40
20.000000
 41
0.500000
  1
25
  7
KANJI
 50
0.000000
 51
30.000000
  0
ENDBLK
  0
BLOCK
  8
1
 62
7
  6
CONTINUOUS
  2
*D6
 70
    65
 10
0.0
 20
0.0
  0
LINE
  8
1
 62
7
  6
CONTINUOUS
 10
493.760000
 20
472.227059
 11
513.760000
 21
472.227059
  0
LINE
  8
1
 62
7
  6
CONTINUOUS
 10
498.760000
 20
477.227059
 11
498.760000
 21
456.046667
  0
LINE
  8
1
 62
7
  6
CONTINUOUS
 10
508.760000
 20
477.227059
 11
508.760000
 21
456.046667
  0
CIRCLE
  8
1
 62
7
  6
CONTINUOUS
 10
498.760000
 20
472.227059
 40
1.500000
  0
CIRCLE
  8
1
 62
7
  6
CONTINUOUS
 10
498.760000
 20
472.227059
 40
0.750000
  0
CIRCLE
  8
1
 62
7
  6
CONTINUOUS
 10
508.760000
 20
472.227059
 40
1.500000
  0
CIRCLE
  8
1
 62
7
  6
CONTINUOUS
 10
508.760000
 20
472.227059
 40
0.750000
  0
TEXT
  8
1
 62
7
  6
CONTINUOUS
 10
498.760000
 20
479.289365
 40
20.000000
 41
0.500000
  1
10
  7
KANJI
 50
0.000000
 51
30.000000
  0
ENDBLK
  0
BLOCK
  8
1
 62
7
  6
CONTINUOUS
  2
*D7
 70
    65
 10
0.0
 20
0.0
  0
LINE
  8
1
 62
7
  6
CONTINUOUS
 10
443.760000
 20
451.046667
 11
443.760000
 21
429.250553
  0
LINE
  8
1
 62
7
  6
CONTINUOUS
 10
433.760000
 20
446.046667
 11
463.760000
 21
446.046667
  0
LINE
  8
1
 62
7
  6
CONTINUOUS
 10
433.760000
 20
434.250553
 11
463.760000
 21
434.250553
  0
CIRCLE
  8
1
 62
7
  6
CONTINUOUS
 10
443.760000
 20
446.046667
 40
1.500000
  0
CIRCLE
  8
1
 62
7
  6
CONTINUOUS
 10
443.760000
 20
446.046667
 40
0.750000
  0
CIRCLE
  8
1
 62
7
  6
CONTINUOUS
 10
443.760000
 20
434.250553
 40
1.500000
  0
CIRCLE
  8
1
 62
7
  6
CONTINUOUS
 10
443.760000
 20
434.250553
 40
0.750000
  0
TEXT
  8
1
 62
7
  6
CONTINUOUS
 10
433.760000
 20
424.250553
 40
20.000000
 41
0.500000
  1
12
  7
KANJI
 50
90.000000
 51
30.000000
  0
ENDBLK
  0
BLOCK
  8
1
 62
7
  6
CONTINUOUS
  2
*D8
 70
    65
 10
0.0
 20
0.0
  0
LINE
  8
1
 62
7
  6
CONTINUOUS
 10
544.602204
 20
263.046667
 11
531.137860
 21
245.648062
  0
LINE
  8
1
 62
7
  6
CONTINUOUS
 10
531.137860
 20
245.648062
 11
538.867375
 21
264.094053
  0
LINE
  8
1
 62
7
  6
CONTINUOUS
 10
531.137860
 20
245.648062
 11
547.054812
 21
257.758001
  0
LINE
  8
1
 62
7
  6
CONTINUOUS
 10
538.867375
 20
264.094053
 11
547.054812
 21
257.758001
  0
LINE
  8
1
 62
7
  6
CONTINUOUS
 10
534.093668
 20
249.467553
 11
537.958426
 21
258.690549
  0
LINE
  8
1
 62
7
  6
CONTINUOUS
 10
534.093668
 20
249.467553
 11
542.052145
 21
255.522523
  0
LINE
  8
1
 62
7
  6
CONTINUOUS
 10
537.958426
 20
258.690549
 11
542.052145
 21
255.522523
  0
TEXT
  8
1
 62
7
  6
CONTINUOUS
 10
566.979434
 20
278.807185
 40
20.000000
 41
0.500000
  1
25R
  7
KANJI
 50
52.264611
 51
30.000000
  0
ENDBLK
  0
BLOCK
  8
1
 62
7
  6
CONTINUOUS
  2
*D9
 70
    65
 10
0.0
 20
0.0
  0
LINE
  8
1
 62
7
  6
CONTINUOUS
 10
1314.782410
 20
446.046667
 11
1314.782410
 21
233.046667
  0
LINE
  8
1
 62
7
  6
CONTINUOUS
 10
1324.782410
 20
446.046667
 11
1275.760000
 21
446.046667
  0
LINE
  8
1
 62
7
  6
CONTINUOUS
 10
1324.782410
 20
233.046667
 11
1275.760000
 21
233.046667
  0
CIRCLE
  8
1
 62
7
  6
CONTINUOUS
 10
1314.782410
 20
446.046667
 40
1.500000
  0
CIRCLE
  8
1
 62
7
  6
CONTINUOUS
 10
1314.782410
 20
446.046667
 40
0.750000
  0
CIRCLE
  8
1
 62
7
  6
CONTINUOUS
 10
1314.782410
 20
233.046667
 40
1.500000
  0
CIRCLE
  8
1
 62
7
  6
CONTINUOUS
 10
1314.782410
 20
233.046667
 40
0.750000
  0
TEXT
  8
1
 62
7
  6
CONTINUOUS
 10
1314.782410
 20
324.546667
 40
20.000000
 41
0.500000
  1
213
  7
KANJI
 50
90.000000
 51
30.000000
  0
ENDBLK
  0
BLOCK
  8
1
 62
7
  6
CONTINUOUS
  2
*D10
 70
    65
 10
0.0
 20
0.0
  0
LINE
  8
1
 62
7
  6
CONTINUOUS
 10
473.760000
 20
1218.072916
 11
1265.760000
 21
1218.072916
  0
LINE
  8
1
 62
7
  6
CONTINUOUS
 10
473.760000
 20
1228.072916
 11
473.760000
 21
1099.393333
  0
LINE
  8
1
 62
7
  6
CONTINUOUS
 10
1265.760000
 20
1228.072916
 11
1265.760000
 21
1099.393333
  0
CIRCLE
  8
1
 62
7
  6
CONTINUOUS
 10
473.760000
 20
1218.072916
 40
1.500000
  0
CIRCLE
  8
1
 62
7
  6
CONTINUOUS
 10
473.760000
 20
1218.072916
 40
0.750000
  0
CIRCLE
  8
1
 62
7
  6
CONTINUOUS
 10
1265.760000
 20
1218.072916
 40
1.500000
  0
CIRCLE
  8
1
 62
7
  6
CONTINUOUS
 10
1265.760000
 20
1218.072916
 40
0.750000
  0
TEXT
  8
1
 62
7
  6
CONTINUOUS
 10
854.760000
 20
1218.072916
 40
20.000000
 41
0.500000
  1
792
  7
KANJI
 50
0.000000
 51
30.000000
  0
ENDBLK
  0
BLOCK
  8
1
 62
7
  6
CONTINUOUS
  2
*D11
 70
    65
 10
0.0
 20
0.0
  0
LINE
  8
1
 62
7
  6
CONTINUOUS
 10
343.559028
 20
1089.393333
 11
343.559028
 21
562.393333
  0
LINE
  8
1
 62
7
  6
CONTINUOUS
 10
333.559028
 20
1089.393333
 11
463.760000
 21
1089.393333
  0
LINE
  8
1
 62
7
  6
CONTINUOUS
 10
333.559028
 20
562.393333
 11
463.760000
 21
562.393333
  0
CIRCLE
  8
1
 62
7
  6
CONTINUOUS
 10
343.559028
 20
1089.393333
 40
1.500000
  0
CIRCLE
  8
1
 62
7
  6
CONTINUOUS
 10
343.559028
 20
1089.393333
 40
0.750000
  0
CIRCLE
  8
1
 62
7
  6
CONTINUOUS
 10
343.559028
 20
562.393333
 40
1.500000
  0
CIRCLE
  8
1
 62
7
  6
CONTINUOUS
 10
343.559028
 20
562.393333
 40
0.750000
  0
TEXT
  8
1
 62
7
  6
CONTINUOUS
 10
343.559028
 20
810.893333
 40
20.000000
 41
0.500000
  1
527
  7
KANJI
 50
90.000000
 51
30.000000
  0
ENDBLK
  0
BLOCK
  8
1
 62
7
  6
CONTINUOUS
  2
*D12
 70
    65
 10
0.0
 20
0.0
  0
LINE
  8
1
 62
7
  6
CONTINUOUS
 10
377.022569
 20
562.393333
 11
377.022569
 21
587.393333
  0
LINE
  8
1
 62
7
  6
CONTINUOUS
 10
367.022569
 20
562.393333
 11
463.760000
 21
562.393333
  0
LINE
  8
1
 62
7
  6
CONTINUOUS
 10
367.022569
 20
587.393333
 11
463.760000
 21
587.393333
  0
CIRCLE
  8
1
 62
7
  6
CONTINUOUS
 10
377.022569
 20
562.393333
 40
1.500000
  0
CIRCLE
  8
1
 62
7
  6
CONTINUOUS
 10
377.022569
 20
562.393333
 40
0.750000
  0
CIRCLE
  8
1
 62
7
  6
CONTINUOUS
 10
377.022569
 20
587.393333
 40
1.500000
  0
CIRCLE
  8
1
 62
7
  6
CONTINUOUS
 10
377.022569
 20
587.393333
 40
0.750000
  0
TEXT
  8
1
 62
7
  6
CONTINUOUS
 10
377.022569
 20
564.893333
 40
20.000000
 41
0.500000
  1
25
  7
KANJI
 50
90.000000
 51
30.000000
  0
ENDBLK
  0
BLOCK
  8
1
 62
7
  6
CONTINUOUS
  2
*D13
 70
    65
 10
0.0
 20
0.0
  0
LINE
  8
1
 62
7
  6
CONTINUOUS
 10
377.022569
 20
587.393333
 11
377.022569
 21
1064.393333
  0
LINE
  8
1
 62
7
  6
CONTINUOUS
 10
367.022569
 20
1064.393333
 11
463.760000
 21
1064.393333
  0
CIRCLE
  8
1
 62
7
  6
CONTINUOUS
 10
377.022569
 20
1064.393333
 40
1.500000
  0
CIRCLE
  8
1
 62
7
  6
CONTINUOUS
 10
377.022569
 20
1064.393333
 40
0.750000
  0
TEXT
  8
1
 62
7
  6
CONTINUOUS
 10
377.022569
 20
810.893333
 40
20.000000
 41
0.500000
  1
477
  7
KANJI
 50
90.000000
 51
30.000000
  0
ENDBLK
  0
BLOCK
  8
1
 62
7
  6
CONTINUOUS
  2
*D14
 70
    65
 10
0.0
 20
0.0
  0
LINE
  8
1
 62
7
  6
CONTINUOUS
 10
377.022569
 20
1064.393333
 11
377.022569
 21
1089.393333
  0
LINE
  8
1
 62
7
  6
CONTINUOUS
 10
367.022569
 20
1089.393333
 11
463.760000
 21
1089.393333
  0
CIRCLE
  8
1
 62
7
  6
CONTINUOUS
 10
377.022569
 20
1089.393333
 40
1.500000
  0
CIRCLE
  8
1
 62
7
  6
CONTINUOUS
 10
377.022569
 20
1089.393333
 40
0.750000
  0
TEXT
  8
1
 62
7
  6
CONTINUOUS
 10
377.022569
 20
1066.893333
 40
20.000000
 41
0.500000
  1
25
  7
KANJI
 50
90.000000
 51
30.000000
  0
ENDBLK
  0
BLOCK
  8
1
 62
7
  6
CONTINUOUS
  2
*D15
 70
    65
 10
0.0
 20
0.0
  0
LINE
  8
1
 62
7
  6
CONTINUOUS
 10
473.760000
 20
1186.840279
 11
498.760000
 21
1186.840279
  0
LINE
  8
1
 62
7
  6
CONTINUOUS
 10
473.760000
 20
1196.840279
 11
473.760000
 21
1099.393333
  0
LINE
  8
1
 62
7
  6
CONTINUOUS
 10
498.760000
 20
1196.840279
 11
498.760000
 21
1099.393333
  0
CIRCLE
  8
1
 62
7
  6
CONTINUOUS
 10
473.760000
 20
1186.840279
 40
1.500000
  0
CIRCLE
  8
1
 62
7
  6
CONTINUOUS
 10
473.760000
 20
1186.840279
 40
0.750000
  0
CIRCLE
  8
1
 62
7
  6
CONTINUOUS
 10
498.760000
 20
1186.840279
 40
1.500000
  0
CIRCLE
  8
1
 62
7
  6
CONTINUOUS
 10
498.760000
 20
1186.840279
 40
0.750000
  0
TEXT
  8
1
 62
7
  6
CONTINUOUS
 10
476.260000
 20
1186.840279
 40
20.000000
 41
0.500000
  1
25
  7
KANJI
 50
0.000000
 51
30.000000
  0
ENDBLK
  0
BLOCK
  8
1
 62
7
  6
CONTINUOUS
  2
*D16
 70
    65
 10
0.0
 20
0.0
  0
LINE
  8
1
 62
7
  6
CONTINUOUS
 10
498.760000
 20
1186.840279
 11
1240.760000
 21
1186.840279
  0
LINE
  8
1
 62
7
  6
CONTINUOUS
 10
1240.760000
 20
1196.840279
 11
1240.760000
 21
1099.393333
  0
CIRCLE
  8
1
 62
7
  6
CONTINUOUS
 10
1240.760000
 20
1186.840279
 40
1.500000
  0
CIRCLE
  8
1
 62
7
  6
CONTINUOUS
 10
1240.760000
 20
1186.840279
 40
0.750000
  0
TEXT
  8
1
 62
7
  6
CONTINUOUS
 10
854.760000
 20
1186.840279
 40
20.000000
 41
0.500000
  1
742
  7
KANJI
 50
0.000000
 51
30.000000
  0
ENDBLK
  0
BLOCK
  8
1
 62
7
  6
CONTINUOUS
  2
*D17
 70
    65
 10
0.0
 20
0.0
  0
LINE
  8
1
 62
7
  6
CONTINUOUS
 10
1240.760000
 20
1186.840279
 11
1265.760000
 21
1186.840279
  0
LINE
  8
1
 62
7
  6
CONTINUOUS
 10
1265.760000
 20
1196.840279
 11
1265.760000
 21
1099.393333
  0
CIRCLE
  8
1
 62
7
  6
CONTINUOUS
 10
1265.760000
 20
1186.840279
 40
1.500000
  0
CIRCLE
  8
1
 62
7
  6
CONTINUOUS
 10
1265.760000
 20
1186.840279
 40
0.750000
  0
TEXT
  8
1
 62
7
  6
CONTINUOUS
 10
1243.260000
 20
1186.840279
 40
20.000000
 41
0.500000
  1
25
  7
KANJI
 50
0.000000
 51
30.000000
  0
ENDBLK
  0
BLOCK
  8
1
 62
7
  6
CONTINUOUS
  2
*D18
 70
    65
 10
0.0
 20
0.0
  0
LINE
  8
1
 62
7
  6
CONTINUOUS
 10
713.888889
 20
1064.393333
 11
713.888889
 21
910.393333
  0
LINE
  8
1
 62
7
  6
CONTINUOUS
 10
703.888889
 20
1064.393333
 11
859.760000
 21
1064.393333
  0
LINE
  8
1
 62
7
  6
CONTINUOUS
 10
703.888889
 20
910.393333
 11
859.760000
 21
910.393333
  0
CIRCLE
  8
1
 62
7
  6
CONTINUOUS
 10
713.888889
 20
1064.393333
 40
1.500000
  0
CIRCLE
  8
1
 62
7
  6
CONTINUOUS
 10
713.888889
 20
1064.393333
 40
0.750000
  0
CIRCLE
  8
1
 62
7
  6
CONTINUOUS
 10
713.888889
 20
910.393333
 40
1.500000
  0
CIRCLE
  8
1
 62
7
  6
CONTINUOUS
 10
713.888889
 20
910.393333
 40
0.750000
  0
TEXT
  8
1
 62
7
  6
CONTINUOUS
 10
713.888889
 20
972.393333
 40
20.000000
 41
0.500000
  1
154
  7
KANJI
 50
90.000000
 51
30.000000
  0
ENDBLK
  0
BLOCK
  8
1
 62
7
  6
CONTINUOUS
  2
*D19
 70
    65
 10
0.0
 20
0.0
  0
LINE
  8
1
 62
7
  6
CONTINUOUS
 10
779.760000
 20
910.393333
 11
959.760000
 21
910.393333
  0
CIRCLE
  8
1
 62
7
  6
CONTINUOUS
 10
779.760000
 20
910.393333
 40
1.500000
  0
CIRCLE
  8
1
 62
7
  6
CONTINUOUS
 10
779.760000
 20
910.393333
 40
0.750000
  0
CIRCLE
  8
1
 62
7
  6
CONTINUOUS
 10
959.760000
 20
910.393333
 40
1.500000
  0
CIRCLE
  8
1
 62
7
  6
CONTINUOUS
 10
959.760000
 20
910.393333
 40
0.750000
  0
TEXT
  8
1
 62
7
  6
CONTINUOUS
 10
876.104753
 20
910.393333
 40
20.000000
 41
0.625000
  1
φ180
  7
KANJI
 50
-0.000000
 51
30.000000
  0
ENDBLK
  0
BLOCK
  8
1
 62
7
  6
CONTINUOUS
  2
*D20
 70
    65
 10
0.0
 20
0.0
  0
LINE
  8
1
 62
7
  6
CONTINUOUS
 10
1473.466667
 20
1214.342014
 11
1686.466667
 21
1214.342014
  0
LINE
  8
1
 62
7
  6
CONTINUOUS
 10
1473.466667
 20
1224.342014
 11
1473.466667
 21
1167.375347
  0
LINE
  8
1
 62
7
  6
CONTINUOUS
 10
1686.466667
 20
1224.342014
 11
1686.466667
 21
1167.375347
  0
CIRCLE
  8
1
 62
7
  6
CONTINUOUS
 10
1473.466667
 20
1214.342014
 40
1.500000
  0
CIRCLE
  8
1
 62
7
  6
CONTINUOUS
 10
1473.466667
 20
1214.342014
 40
0.750000
  0
CIRCLE
  8
1
 62
7
  6
CONTINUOUS
 10
1686.466667
 20
1214.342014
 40
1.500000
  0
CIRCLE
  8
1
 62
7
  6
CONTINUOUS
 10
1686.466667
 20
1214.342014
 40
0.750000
  0
TEXT
  8
1
 62
7
  6
CONTINUOUS
 10
1564.966667
 20
1214.342014
 40
20.000000
 41
0.500000
  1
213
  7
KANJI
 50
0.000000
 51
30.000000
  0
ENDBLK
  0
BLOCK
  8
1
 62
7
  6
CONTINUOUS
  2
*D21
 70
    65
 10
0.0
 20
0.0
  0
LINE
  8
1
 62
7
  6
CONTINUOUS
 10
1681.466667
 20
1200.688981
 11
1701.466667
 21
1200.688981
  0
LINE
  8
1
 62
7
  6
CONTINUOUS
 10
1686.466667
 20
1210.688981
 11
1686.466667
 21
1171.362391
  0
LINE
  8
1
 62
7
  6
CONTINUOUS
 10
1696.466667
 20
1210.688981
 11
1696.466667
 21
1171.362391
  0
CIRCLE
  8
1
 62
7
  6
CONTINUOUS
 10
1686.466667
 20
1200.688981
 40
1.500000
  0
CIRCLE
  8
1
 62
7
  6
CONTINUOUS
 10
1686.466667
 20
1200.688981
 40
0.750000
  0
CIRCLE
  8
1
 62
7
  6
CONTINUOUS
 10
1696.466667
 20
1200.688981
 40
1.500000
  0
CIRCLE
  8
1
 62
7
  6
CONTINUOUS
 10
1696.466667
 20
1200.688981
 40
0.750000
  0
TEXT
  8
1
 62
7
  6
CONTINUOUS
 10
1686.466667
 20
1200.688981
 40
20.000000
 41
0.500000
  1
7
  7
KANJI
 50
0.000000
 51
30.000000
  0
ENDBLK
  0
BLOCK
  8
1
 62
7
  6
CONTINUOUS
  2
*D22
 70
    65
 10
0.0
 20
0.0
  0
LINE
  8
1
 62
7
  6
CONTINUOUS
 10
1372.917526
 20
1089.393333
 11
1372.917526
 21
562.393333
  0
LINE
  8
1
 62
7
  6
CONTINUOUS
 10
1362.917526
 20
1089.393333
 11
1463.466667
 21
1089.393333
  0
LINE
  8
1
 62
7
  6
CONTINUOUS
 10
1362.917526
 20
562.393333
 11
1463.466667
 21
562.393333
  0
CIRCLE
  8
1
 62
7
  6
CONTINUOUS
 10
1372.917526
 20
1089.393333
 40
1.500000
  0
CIRCLE
  8
1
 62
7
  6
CONTINUOUS
 10
1372.917526
 20
1089.393333
 40
0.750000
  0
CIRCLE
  8
1
 62
7
  6
CONTINUOUS
 10
1372.917526
 20
562.393333
 40
1.500000
  0
CIRCLE
  8
1
 62
7
  6
CONTINUOUS
 10
1372.917526
 20
562.393333
 40
0.750000
  0
TEXT
  8
1
 62
7
  6
CONTINUOUS
 10
1372.917526
 20
810.893333
 40
20.000000
 41
0.500000
  1
527
  7
KANJI
 50
90.000000
 51
30.000000
  0
ENDBLK
  0
ENDSEC
  0
SECTION
  2
ENTITIES
  0
TEXT
  8
1
 62
7
  6
CONTINUOUS
 10
39.900000
 20
144.259375
 40
24.750000
 41
0.800000
  1
取引先：
  7
KANJI
 50
0.000000
 51
0.000000
  0
TEXT
  8
1
 62
7
  6
CONTINUOUS
 10
119.100000
 20
156.634375
 40
12.375000
 41
0.400000
  1

  7
KANJI
 50
0.000000
 51
0.000000
  0
TEXT
  8
1
 62
7
  6
CONTINUOUS
 10
119.100000
 20
144.259375
 40
12.375000
 41
0.400000
  1

  7
KANJI
 50
0.000000
 51
0.000000
  0
TEXT
  8
1
 62
7
  6
CONTINUOUS
 10
39.900000
 20
94.759375
 40
24.750000
 41
0.800000
  1
物件名：
  7
KANJI
 50
0.000000
 51
0.000000
  0
TEXT
  8
1
 62
7
  6
CONTINUOUS
 10
119.100000
 20
107.134375
 40
12.375000
 41
0.400000
  1

  7
KANJI
 50
0.000000
 51
0.000000
  0
TEXT
  8
1
 62
7
  6
CONTINUOUS
 10
119.100000
 20
94.759375
 40
12.375000
 41
0.400000
  1

  7
KANJI
 50
0.000000
 51
0.000000
  0
TEXT
  8
1
 62
7
  6
CONTINUOUS
 10
39.900000
 20
45.259375
 40
24.750000
 41
0.700000
  1
納 期：
  7
KANJI
 50
0.000000
 51
0.000000
  0
TEXT
  8
1
 62
7
  6
CONTINUOUS
 10
109.200000
 20
57.634375
 40
12.375000
 41
0.400000
  1

  7
KANJI
 50
0.000000
 51
0.000000
  0
TEXT
  8
1
 62
7
  6
CONTINUOUS
 10
109.200000
 20
45.259375
 40
12.375000
 41
0.400000
  1

  7
KANJI
 50
0.000000
 51
0.000000
  0
LINE
  8
1
 62
7
  6
CONTINUOUS
 10
30.000000
 20
188.500000
 11
30.000000
 21
40.000000
  0
LINE
  8
1
 62
7
  6
CONTINUOUS
 10
30.000000
 20
188.500000
 11
327.000000
 21
188.500000
  0
LINE
  8
1
 62
7
  6
CONTINUOUS
 10
327.000000
 20
188.500000
 11
327.000000
 21
139.000000
  0
LINE
  8
1
 62
7
  6
CONTINUOUS
 10
327.000000
 20
139.000000
 11
30.000000
 21
139.000000
  0
LINE
  8
1
 62
7
  6
CONTINUOUS
 10
30.000000
 20
139.000000
 11
30.000000
 21
89.500000
  0
LINE
  8
1
 62
7
  6
CONTINUOUS
 10
30.000000
 20
89.500000
 11
327.000000
 21
89.500000
  0
LINE
  8
1
 62
7
  6
CONTINUOUS
 10
327.000000
 20
89.500000
 11
327.000000
 21
139.000000
  0
LINE
  8
1
 62
7
  6
CONTINUOUS
 10
327.000000
 20
139.000000
 11
327.000000
 21
40.000000
  0
LINE
  8
1
 62
7
  6
CONTINUOUS
 10
327.000000
 20
40.000000
 11
30.000000
 21
40.000000
  0
TEXT
  8
1
 62
7
  6
CONTINUOUS
 10
341.850000
 20
144.259375
 40
24.750000
 41
0.800000
  1
　色柄：
  7
KANJI
 50
0.000000
 51
0.000000
  0
TEXT
  8
1
 62
7
  6
CONTINUOUS
 10
421.050000
 20
156.634375
 40
12.375000
 41
0.400000
  1

  7
KANJI
 50
0.000000
 51
0.000000
  0
TEXT
  8
1
 62
7
  6
CONTINUOUS
 10
421.050000
 20
144.259375
 40
12.375000
 41
0.400000
  1

  7
KANJI
 50
0.000000
 51
0.000000
  0
TEXT
  8
1
 62
7
  6
CONTINUOUS
 10
341.850000
 20
94.759375
 40
24.750000
 41
0.800000
  1
　厚み：
  7
KANJI
 50
0.000000
 51
0.000000
  0
TEXT
  8
1
 62
7
  6
CONTINUOUS
 10
421.050000
 20
107.134375
 40
12.375000
 41
0.400000
  1

  7
KANJI
 50
0.000000
 51
0.000000
  0
TEXT
  8
1
 62
7
  6
CONTINUOUS
 10
421.050000
 20
94.759375
 40
12.375000
 41
0.400000
  1

  7
KANJI
 50
0.000000
 51
0.000000
  0
TEXT
  8
1
 62
7
  6
CONTINUOUS
 10
341.850000
 20
45.259375
 40
24.750000
 41
0.800000
  1
付属品：
  7
KANJI
 50
0.000000
 51
0.000000
  0
TEXT
  8
1
 62
7
  6
CONTINUOUS
 10
421.050000
 20
57.634375
 40
12.375000
 41
0.400000
  1

  7
KANJI
 50
0.000000
 51
0.000000
  0
TEXT
  8
1
 62
7
  6
CONTINUOUS
 10
421.050000
 20
45.259375
 40
12.375000
 41
0.400000
  1

  7
KANJI
 50
0.000000
 51
0.000000
  0
LINE
  8
1
 62
7
  6
CONTINUOUS
 10
429.073950
 20
40.000000
 11
429.073950
 21
188.500000
  0
TEXT
  8
1
 62
7
  6
CONTINUOUS
 10
438.973950
 20
164.987500
 40
19.800000
 41
1.000000
  1
単色シリーズ
  7
KANJI
 50
0.000000
 51
0.000000
  0
TEXT
  8
1
 62
7
  6
CONTINUOUS
 10
557.773950
 20
174.887500
 40
9.900000
 41
0.500000
  1

  7
KANJI
 50
0.000000
 51
0.000000
  0
TEXT
  8
1
 62
7
  6
CONTINUOUS
 10
557.773950
 20
164.987500
 40
9.900000
 41
0.500000
  1

  7
KANJI
 50
0.000000
 51
0.000000
  0
LINE
  8
1
 62
7
  6
CONTINUOUS
 10
1615.489950
 20
40.000000
 11
1615.489950
 21
188.500000
  0
TEXT
  8
1
 62
7
  6
CONTINUOUS
 10
1235.923950
 20
94.759375
 40
24.750000
 41
0.800000
  1
埼玉県比企郡川島町表２１－５
  7
KANJI
 50
0.000000
 51
0.000000
  0
TEXT
  8
1
 62
7
  6
CONTINUOUS
 10
1513.123950
 20
107.134375
 40
12.375000
 41
0.400000
  1

  7
KANJI
 50
0.000000
 51
0.000000
  0
TEXT
  8
1
 62
7
  6
CONTINUOUS
 10
1513.123950
 20
94.759375
 40
12.375000
 41
0.400000
  1

  7
KANJI
 50
0.000000
 51
0.000000
  0
TEXT
  8
1
 62
7
  6
CONTINUOUS
 10
1235.923950
 20
70.009375
 40
24.750000
 41
0.647059
  1
  TEL ０４９２－９７－７２７１
  7
KANJI
 50
0.000000
 51
0.000000
  0
TEXT
  8
1
 62
7
  6
CONTINUOUS
 10
1495.798950
 20
82.384375
 40
12.375000
 41
0.388235
  1

  7
KANJI
 50
0.000000
 51
0.000000
  0
TEXT
  8
1
 62
7
  6
CONTINUOUS
 10
1495.798950
 20
70.009375
 40
12.375000
 41
0.388235
  1

  7
KANJI
 50
0.000000
 51
0.000000
  0
TEXT
  8
1
 62
7
  6
CONTINUOUS
 10
1235.923950
 20
45.259375
 40
24.750000
 41
0.647059
  1
  FAX ０４９２－９７－７２７３
  7
KANJI
 50
0.000000
 51
0.000000
  0
TEXT
  8
1
 62
7
  6
CONTINUOUS
 10
1495.798950
 20
57.634375
 40
12.375000
 41
0.388235
  1

  7
KANJI
 50
0.000000
 51
0.000000
  0
TEXT
  8
1
 62
7
  6
CONTINUOUS
 10
1495.798950
 20
45.259375
 40
12.375000
 41
0.388235
  1

  7
KANJI
 50
0.000000
 51
0.000000
  0
TEXT
  8
1
 62
7
  6
CONTINUOUS
 10
1235.923950
 20
117.653125
 40
34.650000
 41
1.285714
  1
㈱三井ＰＣＯ
  7
KANJI
 50
0.000000
 51
0.000000
  0
TEXT
  8
1
 62
7
  6
CONTINUOUS
 10
1468.573950
 20
134.978125
 40
17.325000
 41
0.642857
  1

  7
KANJI
 50
0.000000
 51
0.000000
  0
TEXT
  8
1
 62
7
  6
CONTINUOUS
 10
1468.573950
 20
117.653125
 40
17.325000
 41
0.642857
  1

  7
KANJI
 50
0.000000
 51
0.000000
  0
LINE
  8
1
 62
7
  6
CONTINUOUS
 10
429.073950
 20
188.500000
 11
578.420400
 21
188.500000
  0
LINE
  8
1
 62
7
  6
CONTINUOUS
 10
578.420400
 20
188.500000
 11
722.960400
 21
188.500000
  0
LINE
  8
1
 62
7
  6
CONTINUOUS
 10
722.960400
 20
188.500000
 11
872.851350
 21
188.500000
  0
LINE
  8
1
 62
7
  6
CONTINUOUS
 10
872.851350
 20
40.000000
 11
429.073950
 21
40.000000
  0
LINE
  8
1
 62
7
  6
CONTINUOUS
 10
429.073950
 20
139.000000
 11
872.851350
 21
139.000000
  0
LINE
  8
1
 62
7
  6
CONTINUOUS
 10
872.851350
 20
89.500000
 11
429.073950
 21
89.500000
  0
LINE
  8
1
 62
7
  6
CONTINUOUS
 10
578.420400
 20
188.500000
 11
578.420400
 21
89.500000
  0
LINE
  8
1
 62
7
  6
CONTINUOUS
 10
906.348000
 20
139.000000
 11
872.851350
 21
139.000000
  0
LINE
  8
1
 62
7
  6
CONTINUOUS
 10
872.851350
 20
139.000000
 11
906.348000
 21
139.000000
  0
LINE
  8
1
 62
7
  6
CONTINUOUS
 10
906.348000
 20
89.500000
 11
872.851350
 21
89.500000
  0
LINE
  8
1
 62
7
  6
CONTINUOUS
 10
872.851350
 20
89.500000
 11
906.348000
 21
89.500000
  0
LINE
  8
1
 62
7
  6
CONTINUOUS
 10
578.420400
 20
89.500000
 11
578.420400
 21
40.000000
  0
LINE
  8
1
 62
7
  6
CONTINUOUS
 10
872.851350
 20
188.500000
 11
906.348000
 21
188.500000
  0
LINE
  8
1
 62
7
  6
CONTINUOUS
 10
906.348000
 20
40.000000
 11
872.851350
 21
40.000000
  0
LINE
  8
1
 62
7
  6
CONTINUOUS
 10
1129.098000
 20
188.500000
 11
1129.098000
 21
40.000000
  0
LINE
  8
1
 62
7
  6
CONTINUOUS
 10
1129.098000
 20
40.000000
 11
1615.489950
 21
40.000000
  0
LINE
  8
1
 62
7
  6
CONTINUOUS
 10
1615.489950
 20
188.500000
 11
1129.098000
 21
188.500000
  0
LINE
  8
1
 62
7
  6
CONTINUOUS
 10
906.348000
 20
188.500000
 11
1121.673000
 21
188.500000
  0
LINE
  8
1
 62
7
  6
CONTINUOUS
 10
1121.673000
 20
188.500000
 11
1121.673000
 21
40.000000
  0
LINE
  8
1
 62
7
  6
CONTINUOUS
 10
1121.673000
 20
40.000000
 11
906.348000
 21
40.000000
  0
LINE
  8
1
 62
7
  6
CONTINUOUS
 10
906.348000
 20
139.000000
 11
1121.673000
 21
139.000000
  0
LINE
  8
1
 62
7
  6
CONTINUOUS
 10
1121.673000
 20
89.500000
 11
906.348000
 21
89.500000
  0
TEXT
  8
1
 62
7
  6
CONTINUOUS
 10
931.360845
 20
164.987500
 40
19.800000
 41
1.000000
  1
モンタナシリーズ
  7
KANJI
 50
0.000000
 51
0.000000
  0
TEXT
  8
1
 62
7
  6
CONTINUOUS
 10
1089.760845
 20
174.887500
 40
9.900000
 41
0.500000
  1

  7
KANJI
 50
0.000000
 51
0.000000
  0
TEXT
  8
1
 62
7
  6
CONTINUOUS
 10
1089.760845
 20
164.987500
 40
9.900000
 41
0.500000
  1

  7
KANJI
 50
0.000000
 51
0.000000
  0
TEXT
  8
1
 62
7
  6
CONTINUOUS
 10
755.473485
 20
164.987500
 40
19.800000
 41
1.000000
  1
シエラシリーズ
  7
KANJI
 50
0.000000
 51
0.000000
  0
TEXT
  8
1
 62
7
  6
CONTINUOUS
 10
894.073485
 20
174.887500
 40
9.900000
 41
0.500000
  1

  7
KANJI
 50
0.000000
 51
0.000000
  0
TEXT
  8
1
 62
7
  6
CONTINUOUS
 10
894.073485
 20
164.987500
 40
9.900000
 41
0.500000
  1

  7
KANJI
 50
0.000000
 51
0.000000
  0
LINE
  8
1
 62
7
  6
CONTINUOUS
 10
919.192260
 20
188.500000
 11
919.192260
 21
40.000000
  0
TEXT
  8
1
 62
7
  6
CONTINUOUS
 10
588.320400
 20
161.275000
 40
19.800000
 41
1.000000
  1
ベナーロシリーズ
  7
KANJI
 50
0.000000
 51
0.000000
  0
TEXT
  8
1
 62
7
  6
CONTINUOUS
 10
746.720400
 20
171.175000
 40
9.900000
 41
0.500000
  1

  7
KANJI
 50
0.000000
 51
0.000000
  0
TEXT
  8
1
 62
7
  6
CONTINUOUS
 10
746.720400
 20
161.275000
 40
9.900000
 41
0.500000
  1

  7
KANJI
 50
0.000000
 51
0.000000
  0
LINE
  8
1
 62
7
  6
CONTINUOUS
 10
749.190450
 20
188.500000
 11
749.190450
 21
40.000000
  0
TEXT
  8
1
 62
7
  6
CONTINUOUS
 10
429.073950
 20
48.380350
 40
24.750000
 41
0.800000
  1
シーム剤  本
  7
KANJI
 50
0.000000
 51
0.000000
  0
TEXT
  8
1
 62
7
  6
CONTINUOUS
 10
557.773950
 20
60.755350
 40
12.375000
 41
0.466667
  1

  7
KANJI
 50
0.000000
 51
0.000000
  0
TEXT
  8
1
 62
7
  6
CONTINUOUS
 10
557.773950
 20
48.380350
 40
12.375000
 41
0.466667
  1

  7
KANJI
 50
0.000000
 51
0.000000
  0
TEXT
  8
1
 62
7
  6
CONTINUOUS
 10
924.142260
 20
52.589335
 40
24.750000
 41
1.000000
  1
梱包個数　　梱
  7
KANJI
 50
0.000000
 51
0.000000
  0
TEXT
  8
1
 62
7
  6
CONTINUOUS
 10
1097.392260
 20
64.964335
 40
12.375000
 41
0.500000
  1

  7
KANJI
 50
0.000000
 51
0.000000
  0
TEXT
  8
1
 62
7
  6
CONTINUOUS
 10
1097.392260
 20
52.589335
 40
12.375000
 41
0.500000
  1

  7
KANJI
 50
0.000000
 51
0.000000
  0
TEXT
  8
1
 62
7
  6
CONTINUOUS
 10
735.879900
 20
52.271050
 40
24.750000
 41
0.746667
  1
 断熱テープ   本
  7
KANJI
 50
0.000000
 51
0.000000
  0
TEXT
  8
1
 62
7
  6
CONTINUOUS
 10
900.467400
 20
64.646050
 40
12.375000
 41
0.466667
  1

  7
KANJI
 50
0.000000
 51
0.000000
  0
TEXT
  8
1
 62
7
  6
CONTINUOUS
 10
900.467400
 20
52.271050
 40
12.375000
 41
0.466667
  1

  7
KANJI
 50
0.000000
 51
0.000000
  0
TEXT
  8
1
 62
7
  6
CONTINUOUS
 10
583.370400
 20
47.910595
 40
24.750000
 41
0.656250
  1
瞬間接着剤 　本
  7
KANJI
 50
0.000000
 51
0.000000
  0
TEXT
  8
1
 62
7
  6
CONTINUOUS
 10
713.307900
 20
60.285595
 40
12.375000
 41
0.350000
  1

  7
KANJI
 50
0.000000
 51
0.000000
  0
TEXT
  8
1
 62
7
  6
CONTINUOUS
 10
713.307900
 20
47.910595
 40
12.375000
 41
0.350000
  1

  7
KANJI
 50
0.000000
 51
0.000000
  0
TEXT
  8
1
 62
7
  6
CONTINUOUS
 10
438.973950
 20
97.234375
 40
24.750000
 41
1.041667
  1
   ㎜
  7
KANJI
 50
0.000000
 51
0.000000
  0
TEXT
  8
1
 62
7
  6
CONTINUOUS
 10
525.598950
 20
109.609375
 40
12.375000
 41
0.833333
  1

  7
KANJI
 50
0.000000
 51
0.000000
  0
TEXT
  8
1
 62
7
  6
CONTINUOUS
 10
525.598950
 20
97.234375
 40
12.375000
 41
0.833333
  1

  7
KANJI
 50
0.000000
 51
0.000000
  0
TEXT
  8
1
 62
7
  6
CONTINUOUS
 10
588.320400
 20
97.234375
 40
24.750000
 41
1.041667
  1
   ㎜
  7
KANJI
 50
0.000000
 51
0.000000
  0
TEXT
  8
1
 62
7
  6
CONTINUOUS
 10
674.945400
 20
109.609375
 40
12.375000
 41
0.833333
  1

  7
KANJI
 50
0.000000
 51
0.000000
  0
TEXT
  8
1
 62
7
  6
CONTINUOUS
 10
674.945400
 20
97.234375
 40
12.375000
 41
0.833333
  1

  7
KANJI
 50
0.000000
 51
0.000000
  0
TEXT
  8
1
 62
7
  6
CONTINUOUS
 10
755.473485
 20
97.234375
 40
24.750000
 41
1.041667
  1
   ㎜
  7
KANJI
 50
0.000000
 51
0.000000
  0
TEXT
  8
1
 62
7
  6
CONTINUOUS
 10
842.098485
 20
109.609375
 40
12.375000
 41
0.833333
  1

  7
KANJI
 50
0.000000
 51
0.000000
  0
TEXT
  8
1
 62
7
  6
CONTINUOUS
 10
842.098485
 20
97.234375
 40
12.375000
 41
0.833333
  1

  7
KANJI
 50
0.000000
 51
0.000000
  0
TEXT
  8
1
 62
7
  6
CONTINUOUS
 10
924.142260
 20
97.234375
 40
24.750000
 41
1.050000
  1
    ㎜
  7
KANJI
 50
0.000000
 51
0.000000
  0
TEXT
  8
1
 62
7
  6
CONTINUOUS
 10
1035.517260
 20
109.609375
 40
12.375000
 41
0.875000
  1

  7
KANJI
 50
0.000000
 51
0.000000
  0
TEXT
  8
1
 62
7
  6
CONTINUOUS
 10
1035.517260
 20
97.234375
 40
12.375000
 41
0.875000
  1

  7
KANJI
 50
0.000000
 51
0.000000
  0
TEXT
  8
1
 62
7
  6
CONTINUOUS
 10
1138.998000
 20
159.109375
 40
24.750000
 41
0.800000
  1
デュポンコーリアン認定加工／施工工場　　Ｍｐｃｏ　
  7
KANJI
 50
0.000000
 51
0.000000
  0
TEXT
  8
1
 62
7
  6
CONTINUOUS
 10
1633.998000
 20
171.484375
 40
12.375000
 41
0.400000
  1

  7
KANJI
 50
0.000000
 51
0.000000
  0
TEXT
  8
1
 62
7
  6
CONTINUOUS
 10
1633.998000
 20
159.109375
 40
12.375000
 41
0.400000
  1

  7
KANJI
 50
0.000000
 51
0.000000
  0
LINE
  8
1
 62
7
  6
CONTINUOUS
 10
1622.914950
 20
40.000000
 11
1734.473100
 21
40.000000
  0
TEXT
  8
1
 62
7
  6
CONTINUOUS
 10
1627.864950
 20
95.378125
 40
34.650000
 41
0.714286
  1
図面番号
  7
KANJI
 50
0.000000
 51
0.000000
  0
TEXT
  8
1
 62
7
  6
CONTINUOUS
 10
1726.864950
 20
112.703125
 40
17.325000
 41
0.357143
  1

  7
KANJI
 50
0.000000
 51
0.000000
  0
TEXT
  8
1
 62
7
  6
CONTINUOUS
 10
1726.864950
 20
95.378125
 40
17.325000
 41
0.357143
  1

  7
KANJI
 50
0.000000
 51
0.000000
  0
LINE
  8
1
 62
7
  6
CONTINUOUS
 10
1622.914950
 20
139.000000
 11
1622.914950
 21
40.000000
  0
LINE
  8
1
 62
7
  6
CONTINUOUS
 10
1622.914950
 20
40.000000
 11
1734.473100
 21
40.000000
  0
LINE
  8
1
 62
7
  6
CONTINUOUS
 10
1734.473100
 20
40.000000
 11
1734.473100
 21
139.000000
  0
LINE
  8
1
 62
7
  6
CONTINUOUS
 10
1734.473100
 20
139.000000
 11
1622.914950
 21
139.000000
  0
LINE
  8
1
 62
7
  6
CONTINUOUS
 10
1622.914950
 20
139.000000
 11
1622.914950
 21
188.500000
  0
LINE
  8
1
 62
7
  6
CONTINUOUS
 10
1622.914950
 20
188.500000
 11
1734.473100
 21
188.500000
  0
LINE
  8
1
 62
7
  6
CONTINUOUS
 10
1734.473100
 20
188.500000
 11
1734.473100
 21
139.000000
  0
TEXT
  8
1
 62
7
  6
CONTINUOUS
 10
1627.864950
 20
161.275000
 40
19.800000
 41
0.875000
  1
CAD-NO
  7
KANJI
 50
0.000000
 51
0.000000
  0
TEXT
  8
1
 62
7
  6
CONTINUOUS
 10
1723.152450
 20
171.175000
 40
9.900000
 41
0.875000
  1

  7
KANJI
 50
0.000000
 51
0.000000
  0
TEXT
  8
1
 62
7
  6
CONTINUOUS
 10
1723.152450
 20
161.275000
 40
9.900000
 41
0.875000
  1

  7
KANJI
 50
0.000000
 51
0.000000
  0
LINE
  8
1
 62
7
  6
CONTINUOUS
 10
710.901378
 20
233.046667
 11
716.606328
 21
238.751617
  0
LINE
  8
1
 62
7
  6
CONTINUOUS
 10
731.707929
 20
233.046667
 11
737.192111
 21
238.530848
  0
LINE
  8
1
 62
7
  6
CONTINUOUS
 10
752.514484
 20
233.046667
 11
757.777897
 21
238.310079
  0
LINE
  8
1
 62
7
  6
CONTINUOUS
 10
765.844476
 20
228.140476
 11
775.820584
 21
238.116584
  0
LINE
  8
1
 62
7
  6
CONTINUOUS
 10
969.750927
 20
226.046667
 11
981.966878
 21
238.262617
  0
LINE
  8
1
 62
7
  6
CONTINUOUS
 10
952.870610
 20
226.046667
 11
792.327554
 21
226.046667
  0
LINE
  8
1
 62
7
  6
CONTINUOUS
 10
792.327554
 20
233.046667
 11
952.870610
 21
233.046667
  0
ARC
  8
1
 62
7
  6
CONTINUOUS
 10
963.315054
 20
237.057595
 40
1.000000
 50
90.629587
 51
180.000000
  0
LINE
  8
1
 62
7
  6
CONTINUOUS
 10
962.315054
 20
234.546667
 11
962.315054
 21
237.057595
  0
ARC
  8
1
 62
7
  6
CONTINUOUS
 10
781.340054
 20
237.057333
 40
1.000000
 50
0.000000
 51
89.385565
  0
LINE
  8
1
 62
7
  6
CONTINUOUS
 10
782.340054
 20
237.057333
 11
782.340054
 21
234.546667
  0
ARC
  8
1
 62
7
  6
CONTINUOUS
 10
954.370610
 20
227.546667
 40
1.500000
 50
180.000000
 51
-90.000000
  0
LINE
  8
1
 62
7
  6
CONTINUOUS
 10
954.370610
 20
226.046667
 11
962.315054
 21
226.046667
  0
LINE
  8
1
 62
7
  6
CONTINUOUS
 10
952.870610
 20
231.546667
 11
952.870610
 21
227.546667
  0
ARC
  8
1
 62
7
  6
CONTINUOUS
 10
954.370610
 20
231.546667
 40
1.500000
 50
90.000000
 51
180.000000
  0
LINE
  8
1
 62
7
  6
CONTINUOUS
 10
960.815054
 20
233.046667
 11
954.370610
 21
233.046667
  0
ARC
  8
1
 62
7
  6
CONTINUOUS
 10
960.815054
 20
234.546667
 40
1.500000
 50
-90.000000
 51
0.000000
  0
ARC
  8
1
 62
7
  6
CONTINUOUS
 10
783.840054
 20
234.546667
 40
1.500000
 50
180.000000
 51
-90.000000
  0
LINE
  8
1
 62
7
  6
CONTINUOUS
 10
790.827554
 20
233.046667
 11
783.840054
 21
233.046667
  0
ARC
  8
1
 62
7
  6
CONTINUOUS
 10
790.827554
 20
231.546667
 40
1.500000
 50
0.000000
 51
90.000000
  0
LINE
  8
1
 62
7
  6
CONTINUOUS
 10
792.327554
 20
227.546667
 11
792.327554
 21
231.546667
  0
ARC
  8
1
 62
7
  6
CONTINUOUS
 10
790.827554
 20
227.546667
 40
1.500000
 50
-90.000000
 51
0.000000
  0
LINE
  8
1
 62
7
  6
CONTINUOUS
 10
782.340054
 20
226.046667
 11
790.827554
 21
226.046667
  0
ARC
  8
1
 62
7
  6
CONTINUOUS
 10
984.888144
 20
228.046667
 40
5.000000
 50
90.000000
 51
144.462322
  0
LINE
  8
1
 62
7
  6
CONTINUOUS
 10
978.810632
 20
228.140476
 11
980.819476
 21
230.952858
  0
ARC
  8
1
 62
7
  6
CONTINUOUS
 10
974.741965
 20
231.046667
 40
5.000000
 50
-90.000000
 51
-35.537678
  0
LINE
  8
1
 62
7
  6
CONTINUOUS
 10
962.315054
 20
226.046667
 11
974.741965
 21
226.046667
  0
ARC
  8
1
 62
7
  6
CONTINUOUS
 10
769.913144
 20
231.046667
 40
5.000000
 50
-144.462322
 51
-90.000000
  0
LINE
  8
1
 62
7
  6
CONTINUOUS
 10
782.340054
 20
226.046667
 11
769.913144
 21
226.046667
  0
LINE
  8
1
 62
7
  6
CONTINUOUS
 10
765.844476
 20
228.140476
 11
763.835632
 21
230.952858
  0
ARC
  8
1
 62
7
  6
CONTINUOUS
 10
759.766965
 20
228.046667
 40
5.000000
 50
35.537678
 51
90.000000
  0
DIMENSION
  8
1
 62
7
  6
CONTINUOUS
  2
*D1
 10
782.340054
 20
289.180000
 11
872.327554
 21
289.180000
 70
     0
  1
180
 13
782.340054
 23
259.180000
 14
962.315054
 24
259.180000
 50
0.000000
  0
LINE
  8
1
 62
7
  6
CONTINUOUS
 10
962.315053
 20
226.046667
 11
974.448384
 21
238.179998
  0
LINE
  8
1
 62
7
  6
CONTINUOUS
 10
1473.466667
 20
1072.393333
 11
1473.466667
 21
562.393333
  0
LINE
  8
1
 62
7
  6
CONTINUOUS
 10
1485.466667
 20
1047.393333
 11
1485.466667
 21
587.393333
  0
LINE
  8
1
 62
7
  6
CONTINUOUS
 10
1503.466667
 20
597.393333
 11
1503.466667
 21
1037.393333
  0
LINE
  8
1
 62
7
  6
CONTINUOUS
 10
1503.466667
 20
1037.393333
 11
1503.466667
 21
1047.393333
  0
LINE
  8
1
 62
7
  6
CONTINUOUS
 10
1686.466667
 20
942.393333
 11
1686.466667
 21
811.393333
  0
LINE
  8
1
 62
7
  6
CONTINUOUS
 10
1686.466667
 20
991.393333
 11
1686.466667
 21
946.627451
  0
LINE
  8
1
 62
7
  6
CONTINUOUS
 10
1696.466667
 20
813.393333
 11
1696.466667
 21
989.393333
  0
LINE
  8
1
 62
7
  6
CONTINUOUS
 10
1686.466667
 20
811.393333
 11
1694.466667
 21
811.393333
  0
ARC
  8
1
 62
7
  6
CONTINUOUS
 10
1694.466667
 20
813.393333
 40
2.000000
 50
-90.000000
 51
0.000000
  0
LINE
  8
1
 62
7
  6
CONTINUOUS
 10
1503.466667
 20
597.393333
 11
1654.039226
 21
606.096950
  0
LINE
  8
1
 62
7
  6
CONTINUOUS
 10
1677.566565
 20
629.831268
 11
1686.466667
 21
811.393333
  0
ARC
  8
1
 62
7
  6
CONTINUOUS
 10
1652.596548
 20
631.055288
 40
25.000000
 50
-86.691786
 51
-2.806370
  0
DIMENSION
  8
1
 62
7
  6
CONTINUOUS
  2
*D2
 10
1631.962977
 20
651.447307
 11
1642.793296
 21
641.066703
 70
     4
  1
25R
 15
1670.377992
 25
613.482007
  0
LINE
  8
1
 62
7
  6
CONTINUOUS
 10
1485.466667
 20
1069.393333
 11
1485.466667
 21
1047.393333
  0
LINE
  8
1
 62
7
  6
CONTINUOUS
 10
1473.466667
 20
562.393333
 11
1485.466667
 21
565.393333
  0
LINE
  8
1
 62
7
  6
CONTINUOUS
 10
1485.466667
 20
565.393333
 11
1485.466667
 21
587.393333
  0
LINE
  8
1
 62
7
  6
CONTINUOUS
 10
1485.466667
 20
587.393333
 11
1497.466667
 21
587.393333
  0
LINE
  8
1
 62
7
  6
CONTINUOUS
 10
1503.466667
 20
593.393333
 11
1503.466667
 21
597.393333
  0
ARC
  8
1
 62
7
  6
CONTINUOUS
 10
1497.466667
 20
593.393333
 40
6.000000
 50
-90.000000
 51
0.000000
  0
TEXT
  8
1
 62
7
  6
CONTINUOUS
 10
44.826667
 20
1149.796392
 40
25.000000
 41
0.833333
  1
100％アクリル製
  7
KANJI
 50
0.000000
 51
0.000000
  0
TEXT
  8
1
 62
7
  6
CONTINUOUS
 10
232.326667
 20
1162.296392
 40
12.500000
 41
0.500000
  1

  7
KANJI
 50
0.000000
 51
0.000000
  0
TEXT
  8
1
 62
7
  6
CONTINUOUS
 10
232.326667
 20
1149.796392
 40
12.500000
 41
0.500000
  1

  7
KANJI
 50
0.000000
 51
0.000000
  0
TEXT
  8
1
 62
7
  6
CONTINUOUS
 10
44.826667
 20
1030.902588
 40
25.000000
 41
1.000000
  1
専用排水金具は別売
  7
KANJI
 50
0.000000
 51
0.000000
  0
TEXT
  8
1
 62
7
  6
CONTINUOUS
 10
269.826667
 20
1043.402588
 40
12.500000
 41
0.500000
  1

  7
KANJI
 50
0.000000
 51
0.000000
  0
TEXT
  8
1
 62
7
  6
CONTINUOUS
 10
269.826667
 20
1030.902588
 40
12.500000
 41
0.500000
  1

  7
KANJI
 50
0.000000
 51
0.000000
  0
LINE
  8
1
 62
7
  6
CONTINUOUS
 10
493.087494
 20
409.185621
 11
499.948539
 21
416.046667
  0
LINE
  8
1
 62
7
  6
CONTINUOUS
 10
499.948539
 20
416.046667
 11
493.087494
 21
409.185621
  0
ARC
  8
1
 62
7
  6
CONTINUOUS
 10
495.760000
 20
415.046667
 40
7.000000
 50
180.000000
 51
-90.000000
  0
LINE
  8
1
 62
7
  6
CONTINUOUS
 10
495.760000
 20
408.046667
 11
501.446880
 21
408.046667
  0
LINE
  8
1
 62
7
  6
CONTINUOUS
 10
488.760000
 20
431.046667
 11
488.760000
 21
415.046667
  0
LINE
  8
1
 62
7
  6
CONTINUOUS
 10
508.760000
 20
326.813472
 11
516.118608
 21
334.186237
  0
LINE
  8
1
 62
7
  6
CONTINUOUS
 10
506.734763
 20
349.221898
 11
514.104536
 21
356.591670
  0
LINE
  8
1
 62
7
  6
CONTINUOUS
 10
505.016322
 20
368.338606
 11
512.386095
 21
375.708379
  0
LINE
  8
1
 62
7
  6
CONTINUOUS
 10
503.243228
 20
388.063294
 11
510.613000
 21
395.433067
  0
LINE
  8
1
 62
7
  6
CONTINUOUS
 10
510.267429
 20
309.922957
 11
517.637202
 21
317.292730
  0
LINE
  8
1
 62
7
  6
CONTINUOUS
 10
512.086160
 20
289.690586
 11
519.455933
 21
297.060358
  0
LINE
  8
1
 62
7
  6
CONTINUOUS
 10
513.859254
 20
269.965900
 11
521.229027
 21
277.335673
  0
LINE
  8
1
 62
7
  6
CONTINUOUS
 10
516.798340
 20
251.779671
 11
522.971400
 21
257.952731
  0
LINE
  8
1
 62
7
  6
CONTINUOUS
 10
525.447535
 20
239.957737
 11
531.137860
 21
245.648062
  0
LINE
  8
1
 62
7
  6
CONTINUOUS
 10
544.602203
 20
233.046667
 11
552.517319
 21
240.961782
  0
LINE
  8
1
 62
7
  6
CONTINUOUS
 10
562.268371
 20
233.046667
 11
569.996039
 21
240.774335
  0
LINE
  8
1
 62
7
  6
CONTINUOUS
 10
582.512585
 20
233.046667
 11
590.025451
 21
240.559533
  0
LINE
  8
1
 62
7
  6
CONTINUOUS
 10
603.881477
 20
233.046667
 11
611.167608
 21
240.332798
  0
LINE
  8
1
 62
7
  6
CONTINUOUS
 10
626.375046
 20
233.046667
 11
633.422508
 21
240.094129
  0
LINE
  8
1
 62
7
  6
CONTINUOUS
 10
646.056920
 20
233.046667
 11
652.895547
 21
239.885294
  0
LINE
  8
1
 62
7
  6
CONTINUOUS
 10
667.988151
 20
233.046667
 11
674.594076
 21
239.652591
  0
LINE
  8
1
 62
7
  6
CONTINUOUS
 10
689.919382
 20
233.046667
 11
696.292604
 21
239.419889
  0
LINE
  8
1
 62
7
  6
CONTINUOUS
 10
488.760000
 20
416.046667
 11
498.760000
 21
426.046666
  0
LINE
  8
1
 62
7
  6
CONTINUOUS
 10
486.760000
 20
434.046667
 11
498.030979
 21
446.046667
  0
ARC
  8
1
 62
7
  6
CONTINUOUS
 10
506.017580
 20
413.046667
 40
3.000000
 50
5.136634
 51
90.000000
  0
LINE
  8
1
 62
7
  6
CONTINUOUS
 10
501.760000
 20
416.046667
 11
506.017580
 21
416.046667
  0
ARC
  8
1
 62
7
  6
CONTINUOUS
 10
501.760000
 20
419.046667
 40
3.000000
 50
180.000000
 51
-90.000000
  0
LINE
  8
1
 62
7
  6
CONTINUOUS
 10
498.760000
 20
434.046667
 11
498.760000
 21
419.046667
  0
ARC
  8
1
 62
7
  6
CONTINUOUS
 10
485.760000
 20
431.046667
 40
3.000000
 50
0.000000
 51
90.000000
  0
LINE
  8
1
 62
7
  6
CONTINUOUS
 10
475.760000
 20
434.046667
 11
485.760000
 21
434.046667
  0
LINE
  8
1
 62
7
  6
CONTINUOUS
 10
473.760000
 20
446.046667
 11
475.760000
 21
434.046667
  0
ARC
  8
1
 62
7
  6
CONTINUOUS
 10
544.602204
 20
263.046667
 40
22.000000
 50
-174.863367
 51
-90.000000
  0
LINE
  8
1
 62
7
  6
CONTINUOUS
 10
522.690555
 20
261.076982
 11
522.924030
 21
258.479703
  0
ARC
  8
1
 62
7
  6
CONTINUOUS
 10
544.602204
 20
263.046667
 40
30.000000
 50
-174.863366
 51
-90.000000
  0
LINE
  8
1
 62
7
  6
CONTINUOUS
 10
501.446880
 20
408.046667
 11
514.722683
 21
260.360733
  0
LINE
  8
1
 62
7
  6
CONTINUOUS
 10
498.760000
 20
446.046667
 11
498.760000
 21
434.046667
  0
LINE
  8
1
 62
7
  6
CONTINUOUS
 10
473.760000
 20
446.046667
 11
498.760000
 21
446.046667
  0
DIMENSION
  8
1
 62
7
  6
CONTINUOUS
  2
*D3
 10
508.760000
 20
326.813472
 11
536.099878
 21
331.989853
 70
     0
  1
10
 13
508.760000
 23
326.813472
 14
516.781362
 24
326.813472
 50
0.000000
  0
DIMENSION
  8
1
 62
7
  6
CONTINUOUS
  2
*D4
 10
403.760000
 20
446.046667
 11
403.760000
 21
431.046667
 70
     0
  1
30
 13
463.760000
 23
446.046667
 14
463.760000
 24
416.046667
 50
-90.000000
  0
DIMENSION
  8
1
 62
7
  6
CONTINUOUS
  2
*D5
 10
498.760000
 20
492.359422
 11
486.260000
 21
492.359422
 70
     0
  1
25
 13
498.760000
 23
456.046667
 14
473.760000
 24
456.046667
 50
180.000000
  0
DIMENSION
  8
1
 62
7
  6
CONTINUOUS
  2
*D6
 10
498.760000
 20
472.227059
 11
508.760000
 21
479.289365
 70
     0
  1
10
 13
498.760000
 23
456.046667
 14
508.760000
 24
456.046667
 50
0.000000
  0
DIMENSION
  8
1
 62
7
  6
CONTINUOUS
  2
*D7
 10
443.760000
 20
446.046667
 11
433.760000
 21
434.250553
 70
     0
  1
12
 13
463.760000
 23
446.046667
 14
463.760000
 24
434.250553
 50
-90.000000
  0
LINE
  8
1
 62
7
  6
CONTINUOUS
 10
522.749753
 20
260.418433
 11
509.005532
 21
413.315260
  0
LINE
  8
1
 62
7
  6
CONTINUOUS
 10
545.343882
 20
241.046667
 11
542.981183
 21
241.046667
  0
DIMENSION
  8
1
 62
7
  6
CONTINUOUS
  2
*D8
 10
544.602204
 20
263.046667
 11
576.159668
 21
290.669870
 70
     4
  1
25R
 15
531.137860
 25
245.648062
  0
LINE
  8
1
 62
7
  6
CONTINUOUS
 10
542.961094
 20
260.926027
 11
557.515846
 21
275.480778
  0
LINE
  8
1
 62
7
  6
CONTINUOUS
 10
544.602204
 20
233.046667
 11
711.759999
 21
233.046667
  0
LINE
  8
1
 62
7
  6
CONTINUOUS
 10
544.602204
 20
241.046667
 11
711.759999
 21
239.254012
  0
LINE
  8
1
 62
7
  6
CONTINUOUS
 10
711.759999
 20
239.254012
 11
781.350778
 21
238.057276
  0
LINE
  8
1
 62
7
  6
CONTINUOUS
 10
711.759999
 20
233.046667
 11
759.766965
 21
233.046667
  0
LINE
  8
1
 62
7
  6
CONTINUOUS
 10
711.759999
 20
446.046667
 11
1027.759999
 21
446.046667
  0
LINE
  8
1
 62
7
  6
CONTINUOUS
 10
711.759999
 20
416.046667
 11
1027.759999
 21
416.046667
  0
ARC
  8
1
 62
7
  6
CONTINUOUS
 10
1243.760000
 20
415.046667
 40
7.000000
 50
-90.000000
 51
0.000000
  0
LINE
  8
1
 62
7
  6
CONTINUOUS
 10
1250.760000
 20
431.046667
 11
1250.760000
 21
415.046667
  0
LINE
  8
1
 62
7
  6
CONTINUOUS
 10
1243.760000
 20
408.046667
 11
1240.618103
 21
408.046667
  0
LINE
  8
1
 62
7
  6
CONTINUOUS
 10
1229.088673
 20
400.828034
 11
1250.760000
 21
422.499361
  0
LINE
  8
1
 62
7
  6
CONTINUOUS
 10
1226.437068
 20
376.683278
 11
1235.478058
 21
385.724268
  0
LINE
  8
1
 62
7
  6
CONTINUOUS
 10
1223.799644
 20
352.667638
 11
1232.840634
 21
361.708628
  0
LINE
  8
1
 62
7
  6
CONTINUOUS
 10
1221.148039
 20
328.522881
 11
1230.189029
 21
337.563871
  0
LINE
  8
1
 62
7
  6
CONTINUOUS
 10
1218.581513
 20
305.152823
 11
1227.622503
 21
314.193813
  0
LINE
  8
1
 62
7
  6
CONTINUOUS
 10
1215.944089
 20
281.137183
 11
1224.985078
 21
290.178173
  0
LINE
  8
1
 62
7
  6
CONTINUOUS
 10
1217.342193
 20
293.867928
 11
1226.465494
 21
303.658417
  0
LINE
  8
1
 62
7
  6
CONTINUOUS
 10
1188.886977
 20
233.046667
 11
1197.680513
 21
241.840203
  0
LINE
  8
1
 62
7
  6
CONTINUOUS
 10
1167.853572
 20
233.046667
 11
1175.659505
 21
240.852600
  0
LINE
  8
1
 62
7
  6
CONTINUOUS
 10
1146.475357
 20
233.046667
 11
1154.043758
 21
240.615068
  0
LINE
  8
1
 62
7
  6
CONTINUOUS
 10
1125.671825
 20
233.046667
 11
1133.009080
 21
240.383922
  0
LINE
  8
1
 62
7
  6
CONTINUOUS
 10
1104.178672
 20
233.046667
 11
1111.277119
 21
240.145113
  0
LINE
  8
1
 62
7
  6
CONTINUOUS
 10
1082.800457
 20
233.046667
 11
1089.661372
 21
239.907582
  0
LINE
  8
1
 62
7
  6
CONTINUOUS
 10
1061.307306
 20
233.046667
 11
1067.929413
 21
239.668774
  0
LINE
  8
1
 62
7
  6
CONTINUOUS
 10
1040.273899
 20
233.046667
 11
1046.662305
 21
239.435073
  0
LINE
  8
1
 62
7
  6
CONTINUOUS
 10
1213.342903
 20
257.451527
 11
1230.466502
 21
413.374161
  0
LINE
  8
1
 62
7
  6
CONTINUOUS
 10
1240.618103
 20
408.046667
 11
1250.760000
 21
418.789886
  0
LINE
  8
1
 62
7
  6
CONTINUOUS
 10
1240.760000
 20
434.046667
 11
1252.760000
 21
446.046667
  0
DIMENSION
  8
1
 62
7
  6
CONTINUOUS
  2
*D9
 10
1314.782410
 20
446.046667
 11
1314.782410
 21
339.546667
 70
     0
  1
213
 13
1275.760000
 23
446.046667
 14
1275.760000
 24
233.046667
 50
-90.000000
  0
ARC
  8
1
 62
7
  6
CONTINUOUS
 10
1237.760000
 20
419.046667
 40
3.000000
 50
-90.000000
 51
0.000000
  0
LINE
  8
1
 62
7
  6
CONTINUOUS
 10
1240.760000
 20
446.046667
 11
1240.760000
 21
419.046667
  0
LINE
  8
1
 62
7
  6
CONTINUOUS
 10
1237.760000
 20
416.046667
 11
1233.448573
 21
416.046667
  0
ARC
  8
1
 62
7
  6
CONTINUOUS
 10
1233.448573
 20
413.046667
 40
3.000000
 50
90.000000
 51
173.732828
  0
ARC
  8
1
 62
7
  6
CONTINUOUS
 10
1240.618103
 20
405.046667
 40
3.000000
 50
90.000000
 51
173.732828
  0
LINE
  8
1
 62
7
  6
CONTINUOUS
 10
1237.636032
 20
405.374161
 11
1221.645808
 21
259.771723
  0
ARC
  8
1
 62
7
  6
CONTINUOUS
 10
1253.760000
 20
431.046667
 40
3.000000
 50
90.000000
 51
180.000000
  0
LINE
  8
1
 62
7
  6
CONTINUOUS
 10
1263.760000
 20
434.046667
 11
1253.760000
 21
434.046667
  0
LINE
  8
1
 62
7
  6
CONTINUOUS
 10
1265.760000
 20
446.046667
 11
1263.760000
 21
434.046667
  0
ARC
  8
1
 62
7
  6
CONTINUOUS
 10
1191.825098
 20
263.046667
 40
22.000000
 50
-90.000000
 51
-6.267172
  0
LINE
  8
1
 62
7
  6
CONTINUOUS
 10
1213.693619
 20
260.645041
 11
1214.813768
 21
270.844809
  0
ARC
  8
1
 62
7
  6
CONTINUOUS
 10
1191.825098
 20
263.046667
 40
30.000000
 50
-90.000000
 51
-6.267172
  0
LINE
  8
1
 62
7
  6
CONTINUOUS
 10
1265.760000
 20
446.046667
 11
1240.760000
 21
446.046667
  0
LINE
  8
1
 62
7
  6
CONTINUOUS
 10
1240.760000
 20
423.050100
 11
1263.756567
 21
446.046667
  0
LINE
  8
1
 62
7
  6
CONTINUOUS
 10
1227.725395
 20
388.414417
 11
1236.766385
 21
397.455407
  0
LINE
  8
1
 62
7
  6
CONTINUOUS
 10
1225.121194
 20
364.701303
 11
1234.162184
 21
373.742293
  0
LINE
  8
1
 62
7
  6
CONTINUOUS
 10
1222.437101
 20
340.260713
 11
1231.478091
 21
349.301703
  0
LINE
  8
1
 62
7
  6
CONTINUOUS
 10
1219.837681
 20
316.591127
 11
1228.878670
 21
325.632116
  0
LINE
  8
1
 62
7
  6
CONTINUOUS
 10
1211.283237
 20
252.781150
 11
1222.061810
 21
263.559723
  0
LINE
  8
1
 62
7
  6
CONTINUOUS
 10
1199.411325
 20
234.021692
 11
1220.850073
 21
255.460439
  0
LINE
  8
1
 62
7
  6
CONTINUOUS
 10
1027.759999
 20
239.227359
 11
1193.319929
 21
241.046667
  0
LINE
  8
1
 62
7
  6
CONTINUOUS
 10
1191.825098
 20
233.046667
 11
1027.759999
 21
233.046667
  0
LINE
  8
1
 62
7
  6
CONTINUOUS
 10
963.304066
 20
238.057535
 11
1027.759999
 21
239.254012
  0
LINE
  8
1
 62
7
  6
CONTINUOUS
 10
1027.759999
 20
233.046667
 11
984.888144
 21
233.046667
  0
LINE
  8
1
 62
7
  6
CONTINUOUS
 10
988.715550
 20
233.046667
 11
993.093348
 21
238.610505
  0
LINE
  8
1
 62
7
  6
CONTINUOUS
 10
1000.721565
 20
233.046667
 11
1003.959263
 21
238.812206
  0
LINE
  8
1
 62
7
  6
CONTINUOUS
 10
1013.871009
 20
233.046667
 11
1016.917209
 21
239.052740
  0
LINE
  8
1
 62
7
  6
CONTINUOUS
 10
1027.759999
 20
233.046667
 11
1030.185434
 21
239.254012
  0
LINE
  8
1
 62
7
  6
CONTINUOUS
 10
498.760000
 20
446.046667
 11
1240.760000
 21
446.046667
  0
LINE
  8
1
 62
7
  6
CONTINUOUS
 10
506.017580
 20
416.046667
 11
1233.448573
 21
416.046667
  0
LINE
  8
1
 62
7
  6
CONTINUOUS
 10
1686.466667
 20
942.393333
 11
1686.466667
 21
946.627451
  0
LINE
  8
1
 62
7
  6
CONTINUOUS
 10
1473.466667
 20
1089.393333
 11
1485.466667
 21
1084.393333
  0
LINE
  8
1
 62
7
  6
CONTINUOUS
 10
1485.466667
 20
1084.393333
 11
1485.466667
 21
1064.393333
  0
TEXT
  8
1
 62
7
  6
CONTINUOUS
 10
44.826667
 20
1195.052392
 40
35.000000
 41
0.833333
  1
ＪＢ-780シンク詳細図
  7
KANJI
 50
0.000000
 51
0.000000
  0
TEXT
  8
1
 62
7
  6
CONTINUOUS
 10
394.826667
 20
1212.552392
 40
17.500000
 41
0.500000
  1

  7
KANJI
 50
0.000000
 51
0.000000
  0
TEXT
  8
1
 62
7
  6
CONTINUOUS
 10
394.826667
 20
1195.052392
 40
17.500000
 41
0.500000
  1

  7
KANJI
 50
0.000000
 51
0.000000
  0
ARC
  8
1
 62
7
  6
CONTINUOUS
 10
582.407428
 20
989.393333
 40
75.000000
 50
90.000000
 51
173.944955
  0
ARC
  8
1
 62
7
  6
CONTINUOUS
 10
582.407428
 20
989.393333
 40
100.000000
 50
90.000000
 51
173.944955
  0
ARC
  8
1
 62
7
  6
CONTINUOUS
 10
582.407428
 20
662.393333
 40
75.000000
 50
-173.944955
 51
-90.000000
  0
ARC
  8
1
 62
7
  6
CONTINUOUS
 10
582.407428
 20
662.393333
 40
100.000000
 50
-173.944955
 51
-90.000000
  0
ARC
  8
1
 62
7
  6
CONTINUOUS
 10
2123.760000
 20
825.893333
 40
1650.000000
 50
173.944955
 51
-173.944952
  0
ARC
  8
1
 62
7
  6
CONTINUOUS
 10
2123.760000
 20
825.893333
 40
1625.000000
 50
173.944953
 51
-173.944952
  0
ARC
  8
1
 62
7
  6
CONTINUOUS
 10
1157.112572
 20
989.393333
 40
75.000000
 50
6.055045
 51
90.000000
  0
ARC
  8
1
 62
7
  6
CONTINUOUS
 10
1157.112572
 20
989.393333
 40
100.000000
 50
6.055045
 51
90.000000
  0
ARC
  8
1
 62
7
  6
CONTINUOUS
 10
1157.112572
 20
662.393333
 40
75.000000
 50
-90.000000
 51
-6.055045
  0
ARC
  8
1
 62
7
  6
CONTINUOUS
 10
1157.112572
 20
662.393333
 40
100.000000
 50
-90.000000
 51
-6.055045
  0
ARC
  8
1
 62
7
  6
CONTINUOUS
 10
-384.240000
 20
825.893333
 40
1650.000000
 50
-6.055048
 51
6.055045
  0
ARC
  8
1
 62
7
  6
CONTINUOUS
 10
-384.240000
 20
825.893333
 40
1625.000000
 50
-6.055048
 51
6.055047
  0
LINE
  8
1
 62
7
  6
CONTINUOUS
 10
582.407411
 20
1089.393333
 11
1157.112589
 21
1089.393333
  0
LINE
  8
1
 62
7
  6
CONTINUOUS
 10
1157.112587
 20
1064.393333
 11
582.407413
 21
1064.393333
  0
LINE
  8
1
 62
7
  6
CONTINUOUS
 10
582.407428
 20
587.393333
 11
1157.112572
 21
587.393333
  0
LINE
  8
1
 62
7
  6
CONTINUOUS
 10
1157.112571
 20
562.393333
 11
582.407428
 21
562.393333
  0
DIMENSION
  8
1
 62
7
  6
CONTINUOUS
  2
*D10
 10
473.760000
 20
1218.072916
 11
869.760000
 21
1218.072916
 70
     0
  1
792
 13
473.760000
 23
1099.393333
 14
1265.760000
 24
1099.393333
 50
0.000000
  0
DIMENSION
  8
1
 62
7
  6
CONTINUOUS
  2
*D11
 10
343.559028
 20
1089.393333
 11
343.559028
 21
825.893333
 70
     0
  1
527
 13
463.760000
 23
1089.393333
 14
463.760000
 24
562.393333
 50
-90.000000
  0
DIMENSION
  8
1
 62
7
  6
CONTINUOUS
  2
*D12
 10
377.022569
 20
562.393333
 11
377.022569
 21
574.893333
 70
     0
  1
25
 13
463.760000
 23
562.393333
 14
463.760000
 24
587.393333
 50
90.000000
  0
DIMENSION
  8
1
 62
7
  6
CONTINUOUS
  2
*D13
 10
377.022569
 20
587.393333
 11
377.022569
 21
825.893333
 70
     0
  1
477
 13
377.022569
 23
587.393333
 14
463.760000
 24
1064.393333
 50
90.000000
  0
DIMENSION
  8
1
 62
7
  6
CONTINUOUS
  2
*D14
 10
377.022569
 20
1064.393333
 11
377.022569
 21
1076.893333
 70
     0
  1
25
 13
377.022569
 23
1064.393333
 14
463.760000
 24
1089.393333
 50
90.000000
  0
DIMENSION
  8
1
 62
7
  6
CONTINUOUS
  2
*D15
 10
473.760000
 20
1186.840279
 11
486.260000
 21
1186.840279
 70
     0
  1
25
 13
473.760000
 23
1099.393333
 14
498.760000
 24
1099.393333
 50
0.000000
  0
DIMENSION
  8
1
 62
7
  6
CONTINUOUS
  2
*D16
 10
498.760000
 20
1186.840279
 11
869.760000
 21
1186.840279
 70
     0
  1
742
 13
498.760000
 23
1186.840279
 14
1240.760000
 24
1099.393333
 50
0.000000
  0
DIMENSION
  8
1
 62
7
  6
CONTINUOUS
  2
*D17
 10
1240.760000
 20
1186.840279
 11
1253.260000
 21
1186.840279
 70
     0
  1
25
 13
1240.760000
 23
1186.840279
 14
1265.760000
 24
1099.393333
 50
0.000000
  0
CIRCLE
  8
1
 62
7
  6
CONTINUOUS
 10
869.760000
 20
910.393333
 40
90.000000
  0
CIRCLE
  8
1
 62
7
  6
CONTINUOUS
 10
869.760000
 20
910.393333
 40
77.500000
  0
LINE
  8
1
 62
7
  6
CONTINUOUS
 10
756.276042
 20
910.393333
 11
994.982639
 21
910.393333
  0
LINE
  8
1
 62
7
  6
CONTINUOUS
 10
869.759999
 20
1023.984375
 11
869.759999
 21
796.432291
  0
DIMENSION
  8
1
 62
7
  6
CONTINUOUS
  2
*D18
 10
713.888889
 20
1064.393333
 11
713.888889
 21
987.393333
 70
     0
  1
154
 13
859.760000
 23
1064.393333
 14
859.760000
 24
910.393333
 50
-90.000000
  0
DIMENSION
  8
1
 62
7
  6
CONTINUOUS
  2
*D19
 10
779.760000
 20
910.393333
 11
901.104753
 21
910.393333
 70
     3
  1
φ180
 13
779.760000
 23
910.393333
 14
959.760000
 24
910.393333
 15
959.760000
 25
910.393333
  0
LINE
  8
1
 62
7
  6
CONTINUOUS
 10
525.227252
 20
613.860587
 11
573.760000
 21
662.393335
  0
LINE
  8
1
 62
7
  6
CONTINUOUS
 10
573.760000
 20
662.393335
 11
634.479167
 21
662.393335
  0
TEXT
  8
1
 62
7
  6
CONTINUOUS
 10
596.979167
 20
662.393335
 40
20.000000
 41
0.375000
  1
75R*4
  7
KANJI
 50
0.000000
 51
30.000000
  0
LINE
  8
1
 62
7
  6
CONTINUOUS
 10
525.227252
 20
613.860587
 11
535.227252
 21
631.181095
  0
LINE
  8
1
 62
7
  6
CONTINUOUS
 10
525.227252
 20
613.860587
 11
542.547760
 21
623.860587
  0
LINE
  8
1
 62
7
  6
CONTINUOUS
 10
535.227252
 20
631.181095
 11
542.547760
 21
623.860587
  0
LINE
  8
1
 62
7
  6
CONTINUOUS
 10
528.642316
 20
617.275651
 11
533.642316
 21
625.935905
  0
LINE
  8
1
 62
7
  6
CONTINUOUS
 10
528.642316
 20
617.275651
 11
537.302570
 21
622.275651
  0
LINE
  8
1
 62
7
  6
CONTINUOUS
 10
533.642316
 20
625.935905
 11
537.302570
 21
622.275651
  0
LINE
  8
1
 62
7
  6
CONTINUOUS
 10
498.760000
 20
587.393333
 11
429.750174
 21
518.383509
  0
LINE
  8
1
 62
7
  6
CONTINUOUS
 10
429.750174
 20
518.383509
 11
379.062500
 21
518.383509
  0
TEXT
  8
1
 62
7
  6
CONTINUOUS
 10
379.062500
 20
518.383509
 40
20.000000
 41
0.375000
  1
100R*4
  7
KANJI
 50
0.000000
 51
30.000000
  0
LINE
  8
1
 62
7
  6
CONTINUOUS
 10
498.760000
 20
587.393333
 11
488.760000
 21
570.072825
  0
LINE
  8
1
 62
7
  6
CONTINUOUS
 10
498.760000
 20
587.393333
 11
481.439492
 21
577.393334
  0
LINE
  8
1
 62
7
  6
CONTINUOUS
 10
488.760000
 20
570.072825
 11
481.439492
 21
577.393334
  0
LINE
  8
1
 62
7
  6
CONTINUOUS
 10
495.344936
 20
583.978270
 11
490.344936
 21
575.318016
  0
LINE
  8
1
 62
7
  6
CONTINUOUS
 10
495.344936
 20
583.978270
 11
486.684682
 21
578.978270
  0
LINE
  8
1
 62
7
  6
CONTINUOUS
 10
490.344936
 20
575.318016
 11
486.684682
 21
578.978270
  0
ARC
  8
1
 62
7
  6
CONTINUOUS
 10
582.407428
 20
662.393333
 40
65.000000
 50
-173.944955
 51
-90.000000
  0
LINE
  8
1
 62
7
  6
CONTINUOUS
 10
582.407428
 20
597.393333
 11
869.760000
 21
597.393333
  0
ARC
  8
1
 62
7
  6
CONTINUOUS
 10
2123.760000
 20
825.893333
 40
1615.000000
 50
180.000000
 51
-173.944951
  0
ARC
  8
1
 62
7
  6
CONTINUOUS
 10
869.760000
 20
514.393333
 40
550.000000
 50
89.999999
 51
128.150745
  0
ARC
  8
1
 62
7
  6
CONTINUOUS
 10
2123.760000
 20
825.893333
 40
1615.000000
 50
177.007760
 51
-180.000000
  0
ARC
  8
1
 62
7
  6
CONTINUOUS
 10
560.893700
 20
907.587444
 40
50.000000
 50
128.150745
 51
177.007760
  0
ARC
  8
1
 62
7
  6
CONTINUOUS
 10
-384.240000
 20
825.893333
 40
1615.000000
 50
-6.055049
 51
0.000000
  0
ARC
  8
1
 62
7
  6
CONTINUOUS
 10
869.760000
 20
514.393333
 40
550.000000
 50
51.849255
 51
90.000001
  0
ARC
  8
1
 62
7
  6
CONTINUOUS
 10
-384.240000
 20
825.893333
 40
1615.000000
 50
-0.000000
 51
2.992240
  0
ARC
  8
1
 62
7
  6
CONTINUOUS
 10
1178.626300
 20
907.587444
 40
50.000000
 50
2.992240
 51
51.849255
  0
ARC
  8
1
 62
7
  6
CONTINUOUS
 10
869.760000
 20
514.393333
 40
550.000000
 50
51.305814
 51
89.999999
  0
ARC
  8
1
 62
7
  6
CONTINUOUS
 10
1157.112572
 20
662.393333
 40
75.000000
 50
-90.000000
 51
-6.055045
  0
ARC
  8
1
 62
7
  6
CONTINUOUS
 10
1157.112572
 20
662.393333
 40
65.000000
 50
-90.000000
 51
-6.055045
  0
LINE
  8
1
 62
7
  6
CONTINUOUS
 10
1157.112572
 20
597.393333
 11
869.760000
 21
597.393333
  0
ARC
  8
1
 62
7
  6
CONTINUOUS
 10
-384.240000
 20
825.893333
 40
1615.000000
 50
-6.055049
 51
0.000000
  0
LINE
  8
1
 62
7
  6
DASHDOT
 10
446.166300
 20
825.893333
 11
1308.107306
 21
825.893333
  0
LINE
  8
1
 62
7
  6
CONTINUOUS
 10
511.658295
 20
729.181944
 11
597.366984
 21
825.893333
  0
LINE
  8
1
 62
7
  6
CONTINUOUS
 10
597.366984
 20
825.893333
 11
638.985519
 21
825.893333
  0
TEXT
  8
1
 62
7
  6
CONTINUOUS
 10
601.485519
 20
825.893333
 40
20.000000
 41
0.375000
  1
1625R
  7
KANJI
 50
0.000000
 51
30.000000
  0
LINE
  8
1
 62
7
  6
CONTINUOUS
 10
511.658295
 20
729.181944
 11
520.597360
 21
747.073090
  0
LINE
  8
1
 62
7
  6
CONTINUOUS
 10
511.658295
 20
729.181944
 11
528.345326
 21
740.206598
  0
LINE
  8
1
 62
7
  6
CONTINUOUS
 10
520.597360
 20
747.073090
 11
528.345326
 21
740.206598
  0
LINE
  8
1
 62
7
  6
CONTINUOUS
 10
514.861557
 20
732.796419
 11
519.331090
 21
741.741992
  0
LINE
  8
1
 62
7
  6
CONTINUOUS
 10
514.861557
 20
732.796419
 11
523.205072
 21
738.308746
  0
LINE
  8
1
 62
7
  6
CONTINUOUS
 10
519.331090
 20
741.741992
 11
523.205072
 21
738.308746
  0
LINE
  8
1
 62
7
  6
CONTINUOUS
 10
597.366984
 20
825.893333
 11
509.307628
 21
867.947310
  0
LINE
  8
1
 62
7
  6
CONTINUOUS
 10
509.307628
 20
867.947310
 11
528.970977
 21
864.293175
  0
LINE
  8
1
 62
7
  6
CONTINUOUS
 10
509.307628
 20
867.947310
 11
524.509520
 21
854.951062
  0
LINE
  8
1
 62
7
  6
CONTINUOUS
 10
528.970977
 20
864.293175
 11
524.509520
 21
854.951062
  0
LINE
  8
1
 62
7
  6
CONTINUOUS
 10
513.665783
 20
865.866012
 11
523.497457
 21
864.038945
  0
LINE
  8
1
 62
7
  6
CONTINUOUS
 10
513.665783
 20
865.866012
 11
521.266729
 21
859.367888
  0
LINE
  8
1
 62
7
  6
CONTINUOUS
 10
523.497457
 20
864.038945
 11
521.266729
 21
859.367888
  0
LINE
  8
1
 62
7
  6
CONTINUOUS
 10
509.307628
 20
867.947310
 11
514.893085
 21
865.279897
  0
CIRCLE
  8
1
 62
7
  6
DOT
 10
553.008488
 20
1010.144846
 40
17.500000
  0
CIRCLE
  8
1
 62
7
  6
DOT
 10
1186.511511
 20
1010.144846
 40
17.500000
  0
LINE
  8
1
 62
7
  6
CONTINUOUS
 10
553.008488
 20
1010.144846
 11
669.958206
 21
1127.094564
  0
LINE
  8
1
 62
7
  6
CONTINUOUS
 10
669.958206
 20
1127.094564
 11
760.513955
 21
1127.094564
  0
TEXT
  8
1
 62
7
  6
CONTINUOUS
 10
670.513955
 20
1127.094564
 40
20.000000
 41
0.750000
  1
水栓穴　？φ
  7
KANJI
 50
0.000000
 51
30.000000
  0
LINE
  8
1
 62
7
  6
CONTINUOUS
 10
553.008488
 20
1010.144846
 11
563.008488
 21
1027.465354
  0
LINE
  8
1
 62
7
  6
CONTINUOUS
 10
553.008488
 20
1010.144846
 11
570.328996
 21
1020.144846
  0
LINE
  8
1
 62
7
  6
CONTINUOUS
 10
563.008488
 20
1027.465354
 11
570.328996
 21
1020.144846
  0
LINE
  8
1
 62
7
  6
CONTINUOUS
 10
556.423551
 20
1013.559909
 11
561.423551
 21
1022.220163
  0
LINE
  8
1
 62
7
  6
CONTINUOUS
 10
556.423551
 20
1013.559909
 11
565.083805
 21
1018.559909
  0
LINE
  8
1
 62
7
  6
CONTINUOUS
 10
561.423551
 20
1022.220163
 11
565.083805
 21
1018.559909
  0
LINE
  8
1
 62
7
  6
CONTINUOUS
 10
1186.511511
 20
1010.144846
 11
1122.186862
 21
1127.094564
  0
LINE
  8
1
 62
7
  6
CONTINUOUS
 10
1122.186862
 20
1127.094564
 11
1032.186862
 21
1127.094564
  0
TEXT
  8
1
 62
7
  6
CONTINUOUS
 10
1032.186862
 20
1127.094564
 40
20.000000
 41
0.750000
  1
水栓穴　？φ
  7
KANJI
 50
0.000000
 51
30.000000
  0
LINE
  8
1
 62
7
  6
CONTINUOUS
 10
1186.511511
 20
1010.144846
 11
1172.665710
 21
1024.577233
  0
LINE
  8
1
 62
7
  6
CONTINUOUS
 10
1186.511511
 20
1010.144846
 11
1181.736889
 21
1029.566560
  0
LINE
  8
1
 62
7
  6
CONTINUOUS
 10
1172.665710
 20
1024.577233
 11
1181.736889
 21
1029.566560
  0
LINE
  8
1
 62
7
  6
CONTINUOUS
 10
1184.183958
 20
1014.376608
 11
1177.261058
 21
1021.592802
  0
LINE
  8
1
 62
7
  6
CONTINUOUS
 10
1184.183958
 20
1014.376608
 11
1181.796647
 21
1024.087466
  0
LINE
  8
1
 62
7
  6
CONTINUOUS
 10
1177.261058
 20
1021.592802
 11
1181.796647
 21
1024.087466
  0
LINE
  8
1
 62
7
  6
CONTINUOUS
 10
1686.466667
 20
991.393333
 11
1686.466667
 21
1000.393333
  0
LINE
  8
1
 62
7
  6
CONTINUOUS
 10
1686.466667
 20
1000.393333
 11
1686.466667
 21
991.393333
  0
LINE
  8
1
 62
7
  6
CONTINUOUS
 10
1686.466667
 20
1000.393333
 11
1693.466667
 21
1000.393333
  0
LINE
  8
1
 62
7
  6
CONTINUOUS
 10
1696.466667
 20
997.393333
 11
1696.466667
 21
989.393333
  0
ARC
  8
1
 62
7
  6
CONTINUOUS
 10
1693.466667
 20
997.393333
 40
3.000000
 50
-0.000000
 51
90.000000
  0
LINE
  8
1
 62
7
  6
CONTINUOUS
 10
1503.466667
 20
1047.393333
 11
1503.466667
 21
1074.393333
  0
DIMENSION
  8
1
 62
7
  6
CONTINUOUS
  2
*D20
 10
1473.466667
 20
1214.342014
 11
1579.966667
 21
1214.342014
 70
     0
  1
213
 13
1473.466667
 23
1167.375347
 14
1686.466667
 24
1167.375347
 50
0.000000
  0
DIMENSION
  8
1
 62
7
  6
CONTINUOUS
  2
*D21
 10
1686.466667
 20
1200.688981
 11
1691.466667
 21
1200.688981
 70
     0
  1
7
 13
1686.466667
 23
1171.362391
 14
1696.466667
 24
1171.362391
 50
0.000000
  0
LINE
  8
1
 62
7
  6
CONTINUOUS
 10
1473.466667
 20
1089.393333
 11
1473.466667
 21
1074.393333
  0
LINE
  8
1
 62
7
  6
CONTINUOUS
 10
1485.466667
 20
1074.393333
 11
1666.466667
 21
1074.393333
  0
LINE
  8
1
 62
7
  6
CONTINUOUS
 10
1686.466667
 20
1000.393333
 11
1686.466667
 21
1054.393333
  0
ARC
  8
1
 62
7
  6
CONTINUOUS
 10
1666.466667
 20
1054.393333
 40
20.000000
 50
0.000000
 51
90.000000
  0
LINE
  8
1
 62
7
  6
CONTINUOUS
 10
1503.466667
 20
940.599100
 11
1686.466667
 21
940.599100
  0
DIMENSION
  8
1
 62
7
  6
CONTINUOUS
  2
*D22
 10
1372.917526
 20
1089.393333
 11
1372.917526
 21
825.893333
 70
     0
  1
527
 13
1463.466667
 23
1089.393333
 14
1463.466667
 24
562.393333
 50
-90.000000
  0
LINE
  8
1
 62
7
  6
CONTINUOUS
 10
1061.709813
 20
1029.810901
 11
1048.463722
 21
1000.393333
  0
LINE
  8
1
 62
7
  6
CONTINUOUS
 10
1048.463722
 20
1000.393333
 11
1002.329925
 21
1000.393333
  0
TEXT
  8
1
 62
7
  6
CONTINUOUS
 10
1002.329925
 20
1000.393333
 40
20.000000
 41
0.468750
  1
550Ｒ
  7
KANJI
 50
0.000000
 51
30.000000
  0
LINE
  8
1
 62
7
  6
CONTINUOUS
 10
1061.709813
 20
1029.810901
 11
1058.498062
 21
1010.070469
  0
LINE
  8
1
 62
7
  6
CONTINUOUS
 10
1061.709813
 20
1029.810901
 11
1049.058139
 21
1014.321061
  0
LINE
  8
1
 62
7
  6
CONTINUOUS
 10
1058.498062
 20
1010.070469
 11
1049.058139
 21
1014.321061
  0
LINE
  8
1
 62
7
  6
CONTINUOUS
 10
1059.726885
 20
1025.407117
 11
1058.121009
 21
1015.536901
  0
LINE
  8
1
 62
7
  6
CONTINUOUS
 10
1059.726885
 20
1025.407117
 11
1053.401048
 21
1017.662197
  0
LINE
  8
1
 62
7
  6
CONTINUOUS
 10
1058.121009
 20
1015.536901
 11
1053.401048
 21
1017.662197
  0
LINE
  8
1
 62
7
  6
CONTINUOUS
 10
872.605843
 20
256.539898
 11
873.073097
 21
200.477127
  0
TEXT
  8
1
 62
7
  6
CONTINUOUS
 10
44.826667
 20
1109.441788
 40
25.000000
 41
1.000000
  1
付属品：水切りカゴ
  7
KANJI
 50
0.000000
 51
0.000000
  0
TEXT
  8
1
 62
7
  6
CONTINUOUS
 10
269.826667
 20
1121.941788
 40
12.500000
 41
0.500000
  1

  7
KANJI
 50
0.000000
 51
0.000000
  0
TEXT
  8
1
 62
7
  6
CONTINUOUS
 10
269.826667
 20
1109.441788
 40
12.500000
 41
0.500000
  1

  7
KANJI
 50
0.000000
 51
0.000000
  0
TEXT
  8
1
 62
7
  6
CONTINUOUS
 10
45.036795
 20
1074.393333
 40
25.000000
 41
1.000000
  1
カラー：６色
  7
KANJI
 50
0.000000
 51
0.000000
  0
TEXT
  8
1
 62
7
  6
CONTINUOUS
 10
195.036795
 20
1086.893333
 40
12.500000
 41
0.500000
  1

  7
KANJI
 50
0.000000
 51
0.000000
  0
TEXT
  8
1
 62
7
  6
CONTINUOUS
 10
195.036795
 20
1074.393333
 40
12.500000
 41
0.500000
  1

  7
KANJI
 50
0.000000
 51
0.000000
  0
ENDSEC
  0
EOF
