  0
SECTION
  2
HEADER
  9
$ACADVER
  1
AC1003
  9
$INSBASE
 10
0.000000
 20
0.000000
  9
$EXTMIN
 10
0.000000
 20
0.000000
  9
$EXTMAX
 10
1820.000000
 20
1285.000000
  9
$LIMMIN
 10
0.000000
 20
0.000000
  9
$LIMMAX
 10
1820.000000
 20
1285.000000
  9
$VIEWCTR
 10
910.000000
 20
642.500000
  9
$VIEWSIZE
 40
1285.000000
  9
$PEXTMIN
 10
0.000000
 20
0.000000
 30
0.000000
  9
$PEXTMAX
 10
364.000000
 20
257.000000
 30
0.000000
  9
$SNAPMODE
 70
     0
  9
$SNAPUNIT
 10
1.000000
 20
1.000000
  9
$SNAPBASE
 10
0.000000
 20
0.000000
  9
$SNAPANG
 50
0.000000
  9
$SNAPISOPAIR
 70
     0
  9
$SNAPSTYLE
 70
     0
  9
$GRIDMODE
 70
     0
  9
$GRIDUNIT
 10
0.000000
 20
0.000000
  9
$ORTHOMODE
 70
     0
  9
$REGENMODE
 70
     1
  9
$FILLMODE
 70
     1
  9
$QTEXTMODE
 70
     0
  9
$DRAGMODE
 70
     2
  9
$LTSCALE
 40
1.250000
  9
$OSMODE
 70
     0
  9
$ATTMODE
 70
     1
  9
$TEXTSIZE
 40
0.200000
  9
$TRACEWID
 40
0.050000
  9
$TEXTSTYLE
  7
STANDARD
  9
$CLAYER
  8
0
  9
$CELTYPE
  6
BYLAYER
  9
$CECOLOR
 62
   256
  9
$DIMSCALE
 40
1.000000
  9
$DIMASZ
 40
1.000000
  9
$DIMEXO
 40
0.000000
  9
$DIMDLI
 40
0.500000
  9
$DIMRND
 40
0.000000
  9
$DIMDLE
 40
0.000000
  9
$DIMEXE
 40
0.000000
  9
$DIMTP
 40
0.000000
  9
$DIMTM
 40
0.000000
  9
$DIMTXT
 40
0.180000
  9
$DIMCEN
 40
0.000000
  9
$DIMTSZ
 40
0.000000
  9
$DIMTOL
 70
     0
  9
$DIMLIM
 70
     0
  9
$DIMTIH
 70
     1
  9
$DIMTOH
 70
     1
  9
$DIMSE1
 70
     0
  9
$DIMSE2
 70
     0
  9
$DIMTAD
 70
     0
  9
$DIMZIN
 70
     0
  9
$DIMBLK
  1

  9
$DIMASO
 70
     0
  9
$DIMSHO
 70
     0
  9
$DIMPOST
  1

  9
$DIMAPOST
  1

  9
$DIMALT
 70
     0
  9
$DIMALTD
 70
     0
  9
$DIMALTF
 40
25.400000
  9
$DIMLFAC
 40
1.000000
  9
$DIMTOFL
 70
     0
  9
$DIMTVP
 40
0.000000
  9
$DIMTIX
 70
     0
  9
$DIMSOXD
 70
     0
  9
$DIMSAH
 70
     0
  9
$DIMBLKL
  1

  9
$DIMBLKR
  1

  9
$LUNITS
 70
     2
  9
$LUPREC
 70
     2
  9
$AXISMODE
 70
     0
  9
$AXISUNIT
 10
1.000000
 20
1.000000
  9
$SKETCHINC
 40
0.000000
  9
$FILLETRAD
 40
0.000000
  9
$AUNITS
 70
     1
  9
$AUPREC
 70
     2
  9
$MENU
  1
ACAD
  9
$ELEVATION
 40
0.000000
  9
$THICKNESS
 40
0.000000
  9
$VIEWDIR
 10
0.000000
 20
0.000000
 30
1.000000
  9
$LIMCHECK
 70
     1
  9
$BLIPMODE
 70
     1
  9
$CHAMFERA
 40
0.000000
  9
$CHAMFERB
 40
0.000000
  9
$FASTZOOM
 70
     1
  9
$SKPOLY
 70
     0
  9
$TDCREATE
 40
0.000000
  9
$TDUPDATE
 40
0.000000
  9
$TDINDWG
 40
0.000000
  9
$TDUSRTIMER
 40
0.000000
  9
$USRTIMER
 70
     1
  9
$ANGBASE
 50
0.000000
  9
$ANGDIR
 70
     0
  9
$PDMODE
 70
     0
  9
$PDSIZE
 40
0.000000
  9
$PLINEWID
 40
0.000000
  9
$COORDS
 70
     2
  9
$USERI1
 70
     0
  9
$USERI2
 70
     0
  9
$USERI3
 70
     0
  9
$USERI4
 70
     0
  9
$USERI5
 70
     0
  9
$USERR1
 40
0.000000
  9
$USERR2
 40
0.000000
  9
$USERR3
 40
0.000000
  9
$USERR4
 40
0.000000
  9
$USERR5
 40
0.000000
  0
ENDSEC
  0
SECTION
  2
TABLES
  0
TABLE
  2
LTYPE
 70
     5
  0
LTYPE
  2
CONTINUOUS
 70
    64
  3
Solid line
 72
    65
 73
     0
 40
0.0
  0
LTYPE
  2
HIDDEN
 70
    64
  3
------------------------
 72
    65
 73
     2
 40
12.6
 49
8.4
 49
-4.2
  0
LTYPE
  2
DOT
 70
    64
  3
････････････････････････
 72
    65
 73
     2
 40
8.0
 49
6.0
 49
-2.0
  0
LTYPE
  2
DASHDOT
 70
    64
  3
--･--･--･--･--･--･--･--
 72
    65
 73
     4
 40
50.5
 49
30.0
 49
-9.0
 49
2.5
 49
-9.0
  0
LTYPE
  2
DIVIDE
 70
    64
  3
--･･--･･--･･--･･--･･--
 72
    65
 73
     6
 40
58.0
 49
30.0
 49
-9.0
 49
2.5
 49
-5.0
 49
2.5
 49
-9.0
  0
ENDTAB
  0
TABLE
  2
LAYER
 70
1
  0
LAYER
  2
1
 70
64
 62
7
  6
CONTINUOUS
  0
ENDTAB
  0
TABLE
  2
STYLE
 70
     2
  0
STYLE
  2
STANDARD
 70
    64
 40
0.0
 41
1.0
 50
0.0
 71
     0
 42
0.2
  3
TXT
  4

  0
STYLE
  2
KANJI
 70
    64
 40
0.0
 41
1.0
 50
0.0
 71
     0
 42
0.2
  3
TXT
  4
BIGFONT
  0
ENDTAB
  0
TABLE
  2
VIEW
 70
     0
  0
ENDTAB
  0
ENDSEC
  0
SECTION
  2
BLOCKS
  0
BLOCK
  8
1
 62
7
  6
CONTINUOUS
  2
*D1
 70
    65
 10
0.0
 20
0.0
  0
LINE
  8
1
 62
7
  6
CONTINUOUS
 10
557.725694
 20
1193.532986
 11
1070.725694
 21
1193.532986
  0
LINE
  8
1
 62
7
  6
CONTINUOUS
 10
557.725694
 20
1203.532986
 11
557.725694
 21
1063.446181
  0
LINE
  8
1
 62
7
  6
CONTINUOUS
 10
1070.725694
 20
1203.532986
 11
1070.725694
 21
1063.446181
  0
CIRCLE
  8
1
 62
7
  6
CONTINUOUS
 10
557.725694
 20
1193.532986
 40
1.500000
  0
CIRCLE
  8
1
 62
7
  6
CONTINUOUS
 10
557.725694
 20
1193.532986
 40
0.750000
  0
CIRCLE
  8
1
 62
7
  6
CONTINUOUS
 10
1070.725694
 20
1193.532986
 40
1.500000
  0
CIRCLE
  8
1
 62
7
  6
CONTINUOUS
 10
1070.725694
 20
1193.532986
 40
0.750000
  0
TEXT
  8
1
 62
7
  6
CONTINUOUS
 10
799.225694
 20
1193.532986
 40
20.000000
 41
0.500000
  1
513
  7
KANJI
 50
0.000000
 51
30.000000
  0
ENDBLK
  0
BLOCK
  8
1
 62
7
  6
CONTINUOUS
  2
*D2
 70
    65
 10
0.0
 20
0.0
  0
LINE
  8
1
 62
7
  6
CONTINUOUS
 10
582.725694
 20
1160.069444
 11
1045.725694
 21
1160.069444
  0
LINE
  8
1
 62
7
  6
CONTINUOUS
 10
582.725694
 20
1170.069444
 11
582.725694
 21
1063.446181
  0
LINE
  8
1
 62
7
  6
CONTINUOUS
 10
1045.725694
 20
1170.069444
 11
1045.725694
 21
1063.446181
  0
CIRCLE
  8
1
 62
7
  6
CONTINUOUS
 10
582.725694
 20
1160.069444
 40
1.500000
  0
CIRCLE
  8
1
 62
7
  6
CONTINUOUS
 10
582.725694
 20
1160.069444
 40
0.750000
  0
CIRCLE
  8
1
 62
7
  6
CONTINUOUS
 10
1045.725694
 20
1160.069444
 40
1.500000
  0
CIRCLE
  8
1
 62
7
  6
CONTINUOUS
 10
1045.725694
 20
1160.069444
 40
0.750000
  0
TEXT
  8
1
 62
7
  6
CONTINUOUS
 10
799.225694
 20
1160.069444
 40
20.000000
 41
0.500000
  1
463
  7
KANJI
 50
0.000000
 51
30.000000
  0
ENDBLK
  0
BLOCK
  8
1
 62
7
  6
CONTINUOUS
  2
*D3
 70
    65
 10
0.0
 20
0.0
  0
LINE
  8
1
 62
7
  6
CONTINUOUS
 10
435.026042
 20
1053.446181
 11
435.026042
 21
655.446181
  0
LINE
  8
1
 62
7
  6
CONTINUOUS
 10
425.026042
 20
1053.446181
 11
547.725694
 21
1053.446181
  0
LINE
  8
1
 62
7
  6
CONTINUOUS
 10
425.026042
 20
655.446181
 11
547.725694
 21
655.446181
  0
CIRCLE
  8
1
 62
7
  6
CONTINUOUS
 10
435.026042
 20
1053.446181
 40
1.500000
  0
CIRCLE
  8
1
 62
7
  6
CONTINUOUS
 10
435.026042
 20
1053.446181
 40
0.750000
  0
CIRCLE
  8
1
 62
7
  6
CONTINUOUS
 10
435.026042
 20
655.446181
 40
1.500000
  0
CIRCLE
  8
1
 62
7
  6
CONTINUOUS
 10
435.026042
 20
655.446181
 40
0.750000
  0
TEXT
  8
1
 62
7
  6
CONTINUOUS
 10
435.026042
 20
839.446181
 40
20.000000
 41
0.500000
  1
398
  7
KANJI
 50
90.000000
 51
30.000000
  0
ENDBLK
  0
BLOCK
  8
1
 62
7
  6
CONTINUOUS
  2
*D4
 70
    65
 10
0.0
 20
0.0
  0
LINE
  8
1
 62
7
  6
CONTINUOUS
 10
468.489583
 20
680.446181
 11
468.489583
 21
1028.446181
  0
LINE
  8
1
 62
7
  6
CONTINUOUS
 10
458.489583
 20
680.446181
 11
547.725694
 21
680.446181
  0
LINE
  8
1
 62
7
  6
CONTINUOUS
 10
458.489583
 20
1028.446181
 11
547.725694
 21
1028.446181
  0
CIRCLE
  8
1
 62
7
  6
CONTINUOUS
 10
468.489583
 20
680.446181
 40
1.500000
  0
CIRCLE
  8
1
 62
7
  6
CONTINUOUS
 10
468.489583
 20
680.446181
 40
0.750000
  0
CIRCLE
  8
1
 62
7
  6
CONTINUOUS
 10
468.489583
 20
1028.446181
 40
1.500000
  0
CIRCLE
  8
1
 62
7
  6
CONTINUOUS
 10
468.489583
 20
1028.446181
 40
0.750000
  0
TEXT
  8
1
 62
7
  6
CONTINUOUS
 10
468.489583
 20
839.446181
 40
20.000000
 41
0.500000
  1
348
  7
KANJI
 50
90.000000
 51
30.000000
  0
ENDBLK
  0
BLOCK
  8
1
 62
7
  6
CONTINUOUS
  2
*D5
 70
    65
 10
0.0
 20
0.0
  0
LINE
  8
1
 62
7
  6
CONTINUOUS
 10
494.780232
 20
938.446181
 11
494.780232
 21
1028.446181
  0
LINE
  8
1
 62
7
  6
CONTINUOUS
 10
484.780232
 20
938.446181
 11
547.725694
 21
938.446181
  0
LINE
  8
1
 62
7
  6
CONTINUOUS
 10
484.780232
 20
1028.446181
 11
547.725694
 21
1028.446181
  0
CIRCLE
  8
1
 62
7
  6
CONTINUOUS
 10
494.780232
 20
938.446181
 40
1.500000
  0
CIRCLE
  8
1
 62
7
  6
CONTINUOUS
 10
494.780232
 20
938.446181
 40
0.750000
  0
CIRCLE
  8
1
 62
7
  6
CONTINUOUS
 10
494.780232
 20
1028.446181
 40
1.500000
  0
CIRCLE
  8
1
 62
7
  6
CONTINUOUS
 10
494.780232
 20
1028.446181
 40
0.750000
  0
TEXT
  8
1
 62
7
  6
CONTINUOUS
 10
494.780232
 20
973.446181
 40
20.000000
 41
0.500000
  1
90
  7
KANJI
 50
90.000000
 51
30.000000
  0
ENDBLK
  0
BLOCK
  8
1
 62
7
  6
CONTINUOUS
  2
*D6
 70
    65
 10
0.0
 20
0.0
  0
LINE
  8
1
 62
7
  6
CONTINUOUS
 10
552.725694
 20
1160.069444
 11
587.725694
 21
1160.069444
  0
LINE
  8
1
 62
7
  6
CONTINUOUS
 10
557.725694
 20
1170.069444
 11
557.725694
 21
1063.446181
  0
LINE
  8
1
 62
7
  6
CONTINUOUS
 10
582.725694
 20
1170.069444
 11
582.725694
 21
1063.446181
  0
CIRCLE
  8
1
 62
7
  6
CONTINUOUS
 10
557.725694
 20
1160.069444
 40
1.500000
  0
CIRCLE
  8
1
 62
7
  6
CONTINUOUS
 10
557.725694
 20
1160.069444
 40
0.750000
  0
CIRCLE
  8
1
 62
7
  6
CONTINUOUS
 10
582.725694
 20
1160.069444
 40
1.500000
  0
CIRCLE
  8
1
 62
7
  6
CONTINUOUS
 10
582.725694
 20
1160.069444
 40
0.750000
  0
TEXT
  8
1
 62
7
  6
CONTINUOUS
 10
560.225694
 20
1160.069444
 40
20.000000
 41
0.500000
  1
25
  7
KANJI
 50
0.000000
 51
30.000000
  0
ENDBLK
  0
BLOCK
  8
1
 62
7
  6
CONTINUOUS
  2
*D7
 70
    65
 10
0.0
 20
0.0
  0
LINE
  8
1
 62
7
  6
CONTINUOUS
 10
468.626787
 20
1023.446181
 11
468.626787
 21
1058.446181
  0
LINE
  8
1
 62
7
  6
CONTINUOUS
 10
458.626787
 20
1028.446181
 11
547.725694
 21
1028.446181
  0
LINE
  8
1
 62
7
  6
CONTINUOUS
 10
458.626787
 20
1053.446181
 11
547.725694
 21
1053.446181
  0
CIRCLE
  8
1
 62
7
  6
CONTINUOUS
 10
468.626787
 20
1028.446181
 40
1.500000
  0
CIRCLE
  8
1
 62
7
  6
CONTINUOUS
 10
468.626787
 20
1028.446181
 40
0.750000
  0
CIRCLE
  8
1
 62
7
  6
CONTINUOUS
 10
468.626787
 20
1053.446181
 40
1.500000
  0
CIRCLE
  8
1
 62
7
  6
CONTINUOUS
 10
468.626787
 20
1053.446181
 40
0.750000
  0
TEXT
  8
1
 62
7
  6
CONTINUOUS
 10
468.626787
 20
1030.946181
 40
20.000000
 41
0.500000
  1
25
  7
KANJI
 50
90.000000
 51
30.000000
  0
ENDBLK
  0
BLOCK
  8
1
 62
7
  6
CONTINUOUS
  2
*D8
 70
    65
 10
0.0
 20
0.0
  0
LINE
  8
1
 62
7
  6
CONTINUOUS
 10
435.026041
 20
481.875000
 11
435.026041
 21
316.875000
  0
LINE
  8
1
 62
7
  6
CONTINUOUS
 10
425.026041
 20
481.875000
 11
547.726240
 21
481.875000
  0
LINE
  8
1
 62
7
  6
CONTINUOUS
 10
425.026041
 20
316.875000
 11
547.725694
 21
316.875000
  0
CIRCLE
  8
1
 62
7
  6
CONTINUOUS
 10
435.026041
 20
481.875000
 40
1.500000
  0
CIRCLE
  8
1
 62
7
  6
CONTINUOUS
 10
435.026041
 20
481.875000
 40
0.750000
  0
CIRCLE
  8
1
 62
7
  6
CONTINUOUS
 10
435.026041
 20
316.875000
 40
1.500000
  0
CIRCLE
  8
1
 62
7
  6
CONTINUOUS
 10
435.026041
 20
316.875000
 40
0.750000
  0
TEXT
  8
1
 62
7
  6
CONTINUOUS
 10
435.026041
 20
384.375000
 40
20.000000
 41
0.500000
  1
165
  7
KANJI
 50
90.000000
 51
30.000000
  0
ENDBLK
  0
BLOCK
  8
1
 62
7
  6
CONTINUOUS
  2
*D9
 70
    65
 10
0.0
 20
0.0
  0
LINE
  8
1
 62
7
  6
CONTINUOUS
 10
468.489583
 20
464.875000
 11
468.489583
 21
486.875000
  0
LINE
  8
1
 62
7
  6
CONTINUOUS
 10
458.489583
 20
469.875000
 11
514.534779
 21
469.875000
  0
LINE
  8
1
 62
7
  6
CONTINUOUS
 10
458.489583
 20
481.875000
 11
514.534779
 21
481.875000
  0
CIRCLE
  8
1
 62
7
  6
CONTINUOUS
 10
468.489583
 20
469.875000
 40
1.500000
  0
CIRCLE
  8
1
 62
7
  6
CONTINUOUS
 10
468.489583
 20
469.875000
 40
0.750000
  0
CIRCLE
  8
1
 62
7
  6
CONTINUOUS
 10
468.489583
 20
481.875000
 40
1.500000
  0
CIRCLE
  8
1
 62
7
  6
CONTINUOUS
 10
468.489583
 20
481.875000
 40
0.750000
  0
TEXT
  8
1
 62
7
  6
CONTINUOUS
 10
468.489583
 20
465.875000
 40
20.000000
 41
0.500000
  1
12
  7
KANJI
 50
90.000000
 51
30.000000
  0
ENDBLK
  0
BLOCK
  8
1
 62
7
  6
CONTINUOUS
  2
*D10
 70
    65
 10
0.0
 20
0.0
  0
LINE
  8
1
 62
7
  6
CONTINUOUS
 10
791.725694
 20
893.038221
 11
836.725694
 21
893.038221
  0
LINE
  8
1
 62
7
  6
CONTINUOUS
 10
791.725694
 20
883.038221
 11
791.725694
 21
928.446181
  0
LINE
  8
1
 62
7
  6
CONTINUOUS
 10
836.725694
 20
883.038221
 11
836.725694
 21
928.446181
  0
CIRCLE
  8
1
 62
7
  6
CONTINUOUS
 10
791.725694
 20
893.038221
 40
1.500000
  0
CIRCLE
  8
1
 62
7
  6
CONTINUOUS
 10
791.725694
 20
893.038221
 40
0.750000
  0
CIRCLE
  8
1
 62
7
  6
CONTINUOUS
 10
836.725694
 20
893.038221
 40
1.500000
  0
CIRCLE
  8
1
 62
7
  6
CONTINUOUS
 10
836.725694
 20
893.038221
 40
0.750000
  0
TEXT
  8
1
 62
7
  6
CONTINUOUS
 10
804.225694
 20
893.038221
 40
20.000000
 41
0.500000
  1
42
  7
KANJI
 50
0.000000
 51
30.000000
  0
ENDBLK
  0
BLOCK
  8
1
 62
7
  6
CONTINUOUS
  2
*D11
 70
    65
 10
0.0
 20
0.0
  0
LINE
  8
1
 62
7
  6
CONTINUOUS
 10
786.725694
 20
870.187506
 11
841.725694
 21
870.187506
  0
LINE
  8
1
 62
7
  6
CONTINUOUS
 10
786.725694
 20
860.187506
 11
786.725694
 21
928.446181
  0
LINE
  8
1
 62
7
  6
CONTINUOUS
 10
841.725694
 20
860.187506
 11
841.725694
 21
928.446181
  0
CIRCLE
  8
1
 62
7
  6
CONTINUOUS
 10
786.725694
 20
870.187506
 40
1.500000
  0
CIRCLE
  8
1
 62
7
  6
CONTINUOUS
 10
786.725694
 20
870.187506
 40
0.750000
  0
CIRCLE
  8
1
 62
7
  6
CONTINUOUS
 10
841.725694
 20
870.187506
 40
1.500000
  0
CIRCLE
  8
1
 62
7
  6
CONTINUOUS
 10
841.725694
 20
870.187506
 40
0.750000
  0
TEXT
  8
1
 62
7
  6
CONTINUOUS
 10
804.225694
 20
870.187506
 40
20.000000
 41
0.500000
  1
60
  7
KANJI
 50
0.000000
 51
30.000000
  0
ENDBLK
  0
BLOCK
  8
1
 62
7
  6
CONTINUOUS
  2
*D12
 70
    65
 10
0.0
 20
0.0
  0
LINE
  8
1
 62
7
  6
CONTINUOUS
 10
784.225693
 20
256.998262
 11
844.225693
 21
256.998262
  0
LINE
  8
1
 62
7
  6
CONTINUOUS
 10
784.225693
 20
246.998262
 11
784.225693
 21
306.875000
  0
LINE
  8
1
 62
7
  6
CONTINUOUS
 10
844.225693
 20
246.998262
 11
844.225693
 21
306.875000
  0
CIRCLE
  8
1
 62
7
  6
CONTINUOUS
 10
784.225693
 20
256.998262
 40
1.500000
  0
CIRCLE
  8
1
 62
7
  6
CONTINUOUS
 10
784.225693
 20
256.998262
 40
0.750000
  0
CIRCLE
  8
1
 62
7
  6
CONTINUOUS
 10
844.225693
 20
256.998262
 40
1.500000
  0
CIRCLE
  8
1
 62
7
  6
CONTINUOUS
 10
844.225693
 20
256.998262
 40
0.750000
  0
TEXT
  8
1
 62
7
  6
CONTINUOUS
 10
804.225693
 20
256.998262
 40
20.000000
 41
0.500000
  1
60
  7
KANJI
 50
0.000000
 51
30.000000
  0
ENDBLK
  0
BLOCK
  8
1
 62
7
  6
CONTINUOUS
  2
*D13
 70
    65
 10
0.0
 20
0.0
  0
LINE
  8
1
 62
7
  6
CONTINUOUS
 10
791.725694
 20
288.579649
 11
836.725694
 21
288.579649
  0
LINE
  8
1
 62
7
  6
CONTINUOUS
 10
791.725694
 20
278.579649
 11
791.725694
 21
306.875000
  0
LINE
  8
1
 62
7
  6
CONTINUOUS
 10
836.725694
 20
278.579649
 11
836.725694
 21
306.875000
  0
CIRCLE
  8
1
 62
7
  6
CONTINUOUS
 10
791.725694
 20
288.579649
 40
1.500000
  0
CIRCLE
  8
1
 62
7
  6
CONTINUOUS
 10
791.725694
 20
288.579649
 40
0.750000
  0
CIRCLE
  8
1
 62
7
  6
CONTINUOUS
 10
836.725694
 20
288.579649
 40
1.500000
  0
CIRCLE
  8
1
 62
7
  6
CONTINUOUS
 10
836.725694
 20
288.579649
 40
0.750000
  0
TEXT
  8
1
 62
7
  6
CONTINUOUS
 10
804.225694
 20
288.579649
 40
20.000000
 41
0.500000
  1
42
  7
KANJI
 50
0.000000
 51
30.000000
  0
ENDBLK
  0
BLOCK
  8
1
 62
7
  6
CONTINUOUS
  2
*D14
 70
    65
 10
0.0
 20
0.0
  0
LINE
  8
1
 62
7
  6
CONTINUOUS
 10
1040.725694
 20
1160.069444
 11
1075.725694
 21
1160.069444
  0
LINE
  8
1
 62
7
  6
CONTINUOUS
 10
1045.725694
 20
1170.069444
 11
1045.725694
 21
1063.446181
  0
LINE
  8
1
 62
7
  6
CONTINUOUS
 10
1070.725694
 20
1170.069444
 11
1070.725694
 21
1063.446181
  0
CIRCLE
  8
1
 62
7
  6
CONTINUOUS
 10
1045.725694
 20
1160.069444
 40
1.500000
  0
CIRCLE
  8
1
 62
7
  6
CONTINUOUS
 10
1045.725694
 20
1160.069444
 40
0.750000
  0
CIRCLE
  8
1
 62
7
  6
CONTINUOUS
 10
1070.725694
 20
1160.069444
 40
1.500000
  0
CIRCLE
  8
1
 62
7
  6
CONTINUOUS
 10
1070.725694
 20
1160.069444
 40
0.750000
  0
TEXT
  8
1
 62
7
  6
CONTINUOUS
 10
1048.225694
 20
1160.069444
 40
20.000000
 41
0.500000
  1
25
  7
KANJI
 50
0.000000
 51
30.000000
  0
ENDBLK
  0
BLOCK
  8
1
 62
7
  6
CONTINUOUS
  2
*D15
 70
    65
 10
0.0
 20
0.0
  0
LINE
  8
1
 62
7
  6
CONTINUOUS
 10
1504.430314
 20
915.946181
 11
1504.430314
 21
960.946181
  0
LINE
  8
1
 62
7
  6
CONTINUOUS
 10
1514.430314
 20
915.946181
 11
1448.845486
 21
915.946181
  0
LINE
  8
1
 62
7
  6
CONTINUOUS
 10
1514.430314
 20
960.946181
 11
1448.845486
 21
960.946181
  0
CIRCLE
  8
1
 62
7
  6
CONTINUOUS
 10
1504.430314
 20
915.946181
 40
1.500000
  0
CIRCLE
  8
1
 62
7
  6
CONTINUOUS
 10
1504.430314
 20
915.946181
 40
0.750000
  0
CIRCLE
  8
1
 62
7
  6
CONTINUOUS
 10
1504.430314
 20
960.946181
 40
1.500000
  0
CIRCLE
  8
1
 62
7
  6
CONTINUOUS
 10
1504.430314
 20
960.946181
 40
0.750000
  0
TEXT
  8
1
 62
7
  6
CONTINUOUS
 10
1504.430314
 20
928.446181
 40
20.000000
 41
0.500000
  1
42
  7
KANJI
 50
90.000000
 51
30.000000
  0
ENDBLK
  0
BLOCK
  8
1
 62
7
  6
CONTINUOUS
  2
*D16
 70
    65
 10
0.0
 20
0.0
  0
LINE
  8
1
 62
7
  6
CONTINUOUS
 10
1538.117813
 20
968.446181
 11
1538.117813
 21
908.446181
  0
LINE
  8
1
 62
7
  6
CONTINUOUS
 10
1548.117813
 20
968.446181
 11
1448.845486
 21
968.446181
  0
LINE
  8
1
 62
7
  6
CONTINUOUS
 10
1548.117813
 20
908.446181
 11
1448.845486
 21
908.446181
  0
CIRCLE
  8
1
 62
7
  6
CONTINUOUS
 10
1538.117813
 20
968.446181
 40
1.500000
  0
CIRCLE
  8
1
 62
7
  6
CONTINUOUS
 10
1538.117813
 20
968.446181
 40
0.750000
  0
CIRCLE
  8
1
 62
7
  6
CONTINUOUS
 10
1538.117813
 20
908.446181
 40
1.500000
  0
CIRCLE
  8
1
 62
7
  6
CONTINUOUS
 10
1538.117813
 20
908.446181
 40
0.750000
  0
TEXT
  8
1
 62
7
  6
CONTINUOUS
 10
1538.117813
 20
928.446181
 40
20.000000
 41
0.500000
  1
60
  7
KANJI
 50
90.000000
 51
30.000000
  0
ENDBLK
  0
BLOCK
  8
1
 62
7
  6
CONTINUOUS
  2
*D17
 70
    65
 10
0.0
 20
0.0
  0
LINE
  8
1
 62
7
  6
CONTINUOUS
 10
1199.682184
 20
655.126392
 11
1199.682184
 21
1053.446181
  0
LINE
  8
1
 62
7
  6
CONTINUOUS
 10
1189.682184
 20
655.126392
 11
1263.845486
 21
655.126392
  0
LINE
  8
1
 62
7
  6
CONTINUOUS
 10
1189.682184
 20
1053.446181
 11
1263.845486
 21
1053.446181
  0
CIRCLE
  8
1
 62
7
  6
CONTINUOUS
 10
1199.682184
 20
655.126392
 40
1.500000
  0
CIRCLE
  8
1
 62
7
  6
CONTINUOUS
 10
1199.682184
 20
655.126392
 40
0.750000
  0
CIRCLE
  8
1
 62
7
  6
CONTINUOUS
 10
1199.682184
 20
1053.446181
 40
1.500000
  0
CIRCLE
  8
1
 62
7
  6
CONTINUOUS
 10
1199.682184
 20
1053.446181
 40
0.750000
  0
TEXT
  8
1
 62
7
  6
CONTINUOUS
 10
1199.682184
 20
839.286286
 40
20.000000
 41
0.500000
  1
398
  7
KANJI
 50
90.000000
 51
30.000000
  0
ENDBLK
  0
BLOCK
  8
1
 62
7
  6
CONTINUOUS
  2
*D18
 70
    65
 10
0.0
 20
0.0
  0
LINE
  8
1
 62
7
  6
CONTINUOUS
 10
1224.065560
 20
655.446181
 11
1224.065560
 21
680.446181
  0
LINE
  8
1
 62
7
  6
CONTINUOUS
 10
1214.065560
 20
655.446181
 11
1263.845486
 21
655.446181
  0
LINE
  8
1
 62
7
  6
CONTINUOUS
 10
1214.065560
 20
680.446181
 11
1263.845486
 21
680.446181
  0
CIRCLE
  8
1
 62
7
  6
CONTINUOUS
 10
1224.065560
 20
655.446181
 40
1.500000
  0
CIRCLE
  8
1
 62
7
  6
CONTINUOUS
 10
1224.065560
 20
655.446181
 40
0.750000
  0
CIRCLE
  8
1
 62
7
  6
CONTINUOUS
 10
1224.065560
 20
680.446181
 40
1.500000
  0
CIRCLE
  8
1
 62
7
  6
CONTINUOUS
 10
1224.065560
 20
680.446181
 40
0.750000
  0
TEXT
  8
1
 62
7
  6
CONTINUOUS
 10
1224.065560
 20
657.946181
 40
20.000000
 41
0.500000
  1
25
  7
KANJI
 50
90.000000
 51
30.000000
  0
ENDBLK
  0
BLOCK
  8
1
 62
7
  6
CONTINUOUS
  2
*D19
 70
    65
 10
0.0
 20
0.0
  0
LINE
  8
1
 62
7
  6
CONTINUOUS
 10
1224.065560
 20
680.446181
 11
1224.065560
 21
1028.446181
  0
LINE
  8
1
 62
7
  6
CONTINUOUS
 10
1214.065560
 20
1028.446181
 11
1263.845486
 21
1028.446181
  0
CIRCLE
  8
1
 62
7
  6
CONTINUOUS
 10
1224.065560
 20
1028.446181
 40
1.500000
  0
CIRCLE
  8
1
 62
7
  6
CONTINUOUS
 10
1224.065560
 20
1028.446181
 40
0.750000
  0
TEXT
  8
1
 62
7
  6
CONTINUOUS
 10
1224.065560
 20
839.446181
 40
20.000000
 41
0.500000
  1
348
  7
KANJI
 50
90.000000
 51
30.000000
  0
ENDBLK
  0
BLOCK
  8
1
 62
7
  6
CONTINUOUS
  2
*D20
 70
    65
 10
0.0
 20
0.0
  0
LINE
  8
1
 62
7
  6
CONTINUOUS
 10
1224.065560
 20
1028.446181
 11
1224.065560
 21
1053.446181
  0
LINE
  8
1
 62
7
  6
CONTINUOUS
 10
1214.065560
 20
1053.446181
 11
1263.845486
 21
1053.446181
  0
CIRCLE
  8
1
 62
7
  6
CONTINUOUS
 10
1224.065560
 20
1053.446181
 40
1.500000
  0
CIRCLE
  8
1
 62
7
  6
CONTINUOUS
 10
1224.065560
 20
1053.446181
 40
0.750000
  0
TEXT
  8
1
 62
7
  6
CONTINUOUS
 10
1224.065560
 20
1030.946181
 40
20.000000
 41
0.500000
  1
25
  7
KANJI
 50
90.000000
 51
30.000000
  0
ENDBLK
  0
BLOCK
  8
1
 62
7
  6
CONTINUOUS
  2
*D21
 70
    65
 10
0.0
 20
0.0
  0
LINE
  8
1
 62
7
  6
CONTINUOUS
 10
1268.845486
 20
1092.515142
 11
1290.845486
 21
1092.515142
  0
LINE
  8
1
 62
7
  6
CONTINUOUS
 10
1273.845486
 20
1102.515142
 11
1273.845486
 21
1063.446181
  0
LINE
  8
1
 62
7
  6
CONTINUOUS
 10
1285.845486
 20
1102.515142
 11
1285.845486
 21
1063.446181
  0
CIRCLE
  8
1
 62
7
  6
CONTINUOUS
 10
1273.845486
 20
1092.515142
 40
1.500000
  0
CIRCLE
  8
1
 62
7
  6
CONTINUOUS
 10
1273.845486
 20
1092.515142
 40
0.750000
  0
CIRCLE
  8
1
 62
7
  6
CONTINUOUS
 10
1285.845486
 20
1092.515142
 40
1.500000
  0
CIRCLE
  8
1
 62
7
  6
CONTINUOUS
 10
1285.845486
 20
1092.515142
 40
0.750000
  0
TEXT
  8
1
 62
7
  6
CONTINUOUS
 10
1269.845486
 20
1092.515142
 40
20.000000
 41
0.500000
  1
12
  7
KANJI
 50
0.000000
 51
30.000000
  0
ENDBLK
  0
BLOCK
  8
1
 62
7
  6
CONTINUOUS
  2
*D22
 70
    65
 10
0.0
 20
0.0
  0
LINE
  8
1
 62
7
  6
CONTINUOUS
 10
1413.368124
 20
905.946181
 11
1413.368124
 21
970.946181
  0
LINE
  8
1
 62
7
  6
CONTINUOUS
 10
1403.368124
 20
905.946181
 11
1415.845486
 21
905.946181
  0
LINE
  8
1
 62
7
  6
CONTINUOUS
 10
1403.368124
 20
970.946181
 11
1415.845486
 21
970.946181
  0
CIRCLE
  8
1
 62
7
  6
CONTINUOUS
 10
1413.368124
 20
905.946181
 40
1.500000
  0
CIRCLE
  8
1
 62
7
  6
CONTINUOUS
 10
1413.368124
 20
905.946181
 40
0.750000
  0
CIRCLE
  8
1
 62
7
  6
CONTINUOUS
 10
1413.368124
 20
970.946181
 40
1.500000
  0
CIRCLE
  8
1
 62
7
  6
CONTINUOUS
 10
1413.368124
 20
970.946181
 40
0.750000
  0
TEXT
  8
1
 62
7
  6
CONTINUOUS
 10
1413.368124
 20
928.446181
 40
20.000000
 41
0.500000
  1
70
  7
KANJI
 50
90.000000
 51
30.000000
  0
ENDBLK
  0
BLOCK
  8
1
 62
7
  6
CONTINUOUS
  2
*D23
 70
    65
 10
0.0
 20
0.0
  0
LINE
  8
1
 62
7
  6
CONTINUOUS
 10
1249.366139
 20
938.446181
 11
1249.366139
 21
1028.446181
  0
LINE
  8
1
 62
7
  6
CONTINUOUS
 10
1239.366139
 20
938.446181
 11
1263.845486
 21
938.446181
  0
LINE
  8
1
 62
7
  6
CONTINUOUS
 10
1239.366139
 20
1028.446181
 11
1263.845486
 21
1028.446181
  0
CIRCLE
  8
1
 62
7
  6
CONTINUOUS
 10
1249.366139
 20
938.446181
 40
1.500000
  0
CIRCLE
  8
1
 62
7
  6
CONTINUOUS
 10
1249.366139
 20
938.446181
 40
0.750000
  0
CIRCLE
  8
1
 62
7
  6
CONTINUOUS
 10
1249.366139
 20
1028.446181
 40
1.500000
  0
CIRCLE
  8
1
 62
7
  6
CONTINUOUS
 10
1249.366139
 20
1028.446181
 40
0.750000
  0
TEXT
  8
1
 62
7
  6
CONTINUOUS
 10
1249.366139
 20
973.446181
 40
20.000000
 41
0.500000
  1
90
  7
KANJI
 50
90.000000
 51
30.000000
  0
ENDBLK
  0
BLOCK
  8
1
 62
7
  6
CONTINUOUS
  2
*D24
 70
    65
 10
0.0
 20
0.0
  0
LINE
  8
1
 62
7
  6
CONTINUOUS
 10
1325.736880
 20
1015.252415
 11
1327.109216
 21
1023.032939
  0
CIRCLE
  8
1
 62
7
  6
CONTINUOUS
 10
1325.736880
 20
1015.252415
 40
1.500000
  0
CIRCLE
  8
1
 62
7
  6
CONTINUOUS
 10
1325.736880
 20
1015.252415
 40
0.750000
  0
CIRCLE
  8
1
 62
7
  6
CONTINUOUS
 10
1327.109216
 20
1023.032939
 40
1.500000
  0
CIRCLE
  8
1
 62
7
  6
CONTINUOUS
 10
1327.109216
 20
1023.032939
 40
0.750000
  0
TEXT
  8
1
 62
7
  6
CONTINUOUS
 10
1322.949053
 20
999.446704
 40
20.000000
 41
0.500000
  1
   8
  7
KANJI
 50
79.997000
 51
30.000000
  0
ENDBLK
  0
BLOCK
  8
1
 62
7
  6
CONTINUOUS
  2
*D25
 70
    65
 10
0.0
 20
0.0
  0
LINE
  8
1
 62
7
  6
CONTINUOUS
 10
1273.845486
 20
1141.267139
 11
1438.845486
 21
1141.267139
  0
LINE
  8
1
 62
7
  6
CONTINUOUS
 10
1273.845486
 20
1151.267139
 11
1273.845486
 21
1063.446181
  0
LINE
  8
1
 62
7
  6
CONTINUOUS
 10
1438.845486
 20
1151.267139
 11
1438.845486
 21
1063.446181
  0
CIRCLE
  8
1
 62
7
  6
CONTINUOUS
 10
1273.845486
 20
1141.267139
 40
1.500000
  0
CIRCLE
  8
1
 62
7
  6
CONTINUOUS
 10
1273.845486
 20
1141.267139
 40
0.750000
  0
CIRCLE
  8
1
 62
7
  6
CONTINUOUS
 10
1438.845486
 20
1141.267139
 40
1.500000
  0
CIRCLE
  8
1
 62
7
  6
CONTINUOUS
 10
1438.845486
 20
1141.267139
 40
0.750000
  0
TEXT
  8
1
 62
7
  6
CONTINUOUS
 10
1341.345486
 20
1141.267139
 40
20.000000
 41
0.500000
  1
165
  7
KANJI
 50
0.000000
 51
30.000000
  0
ENDBLK
  0
ENDSEC
  0
SECTION
  2
ENTITIES
  0
TEXT
  8
1
 62
7
  6
CONTINUOUS
 10
39.900000
 20
144.259375
 40
24.750000
 41
0.800000
  1
取引先：
  7
KANJI
 50
0.000000
 51
0.000000
  0
TEXT
  8
1
 62
7
  6
CONTINUOUS
 10
119.100000
 20
156.634375
 40
12.375000
 41
0.400000
  1

  7
KANJI
 50
0.000000
 51
0.000000
  0
TEXT
  8
1
 62
7
  6
CONTINUOUS
 10
119.100000
 20
144.259375
 40
12.375000
 41
0.400000
  1

  7
KANJI
 50
0.000000
 51
0.000000
  0
TEXT
  8
1
 62
7
  6
CONTINUOUS
 10
39.900000
 20
94.759375
 40
24.750000
 41
0.800000
  1
物件名：
  7
KANJI
 50
0.000000
 51
0.000000
  0
TEXT
  8
1
 62
7
  6
CONTINUOUS
 10
119.100000
 20
107.134375
 40
12.375000
 41
0.400000
  1

  7
KANJI
 50
0.000000
 51
0.000000
  0
TEXT
  8
1
 62
7
  6
CONTINUOUS
 10
119.100000
 20
94.759375
 40
12.375000
 41
0.400000
  1

  7
KANJI
 50
0.000000
 51
0.000000
  0
TEXT
  8
1
 62
7
  6
CONTINUOUS
 10
39.900000
 20
45.259375
 40
24.750000
 41
0.700000
  1
納 期：
  7
KANJI
 50
0.000000
 51
0.000000
  0
TEXT
  8
1
 62
7
  6
CONTINUOUS
 10
109.200000
 20
57.634375
 40
12.375000
 41
0.400000
  1

  7
KANJI
 50
0.000000
 51
0.000000
  0
TEXT
  8
1
 62
7
  6
CONTINUOUS
 10
109.200000
 20
45.259375
 40
12.375000
 41
0.400000
  1

  7
KANJI
 50
0.000000
 51
0.000000
  0
LINE
  8
1
 62
7
  6
CONTINUOUS
 10
30.000000
 20
188.500000
 11
30.000000
 21
40.000000
  0
LINE
  8
1
 62
7
  6
CONTINUOUS
 10
30.000000
 20
188.500000
 11
327.000000
 21
188.500000
  0
LINE
  8
1
 62
7
  6
CONTINUOUS
 10
327.000000
 20
188.500000
 11
327.000000
 21
139.000000
  0
LINE
  8
1
 62
7
  6
CONTINUOUS
 10
327.000000
 20
139.000000
 11
30.000000
 21
139.000000
  0
LINE
  8
1
 62
7
  6
CONTINUOUS
 10
30.000000
 20
139.000000
 11
30.000000
 21
89.500000
  0
LINE
  8
1
 62
7
  6
CONTINUOUS
 10
30.000000
 20
89.500000
 11
327.000000
 21
89.500000
  0
LINE
  8
1
 62
7
  6
CONTINUOUS
 10
327.000000
 20
89.500000
 11
327.000000
 21
139.000000
  0
LINE
  8
1
 62
7
  6
CONTINUOUS
 10
327.000000
 20
139.000000
 11
327.000000
 21
40.000000
  0
LINE
  8
1
 62
7
  6
CONTINUOUS
 10
327.000000
 20
40.000000
 11
30.000000
 21
40.000000
  0
TEXT
  8
1
 62
7
  6
CONTINUOUS
 10
341.850000
 20
144.259375
 40
24.750000
 41
0.800000
  1
　色柄：
  7
KANJI
 50
0.000000
 51
0.000000
  0
TEXT
  8
1
 62
7
  6
CONTINUOUS
 10
421.050000
 20
156.634375
 40
12.375000
 41
0.400000
  1

  7
KANJI
 50
0.000000
 51
0.000000
  0
TEXT
  8
1
 62
7
  6
CONTINUOUS
 10
421.050000
 20
144.259375
 40
12.375000
 41
0.400000
  1

  7
KANJI
 50
0.000000
 51
0.000000
  0
TEXT
  8
1
 62
7
  6
CONTINUOUS
 10
341.850000
 20
94.759375
 40
24.750000
 41
0.800000
  1
　厚み：
  7
KANJI
 50
0.000000
 51
0.000000
  0
TEXT
  8
1
 62
7
  6
CONTINUOUS
 10
421.050000
 20
107.134375
 40
12.375000
 41
0.400000
  1

  7
KANJI
 50
0.000000
 51
0.000000
  0
TEXT
  8
1
 62
7
  6
CONTINUOUS
 10
421.050000
 20
94.759375
 40
12.375000
 41
0.400000
  1

  7
KANJI
 50
0.000000
 51
0.000000
  0
TEXT
  8
1
 62
7
  6
CONTINUOUS
 10
341.850000
 20
45.259375
 40
24.750000
 41
0.800000
  1
付属品：
  7
KANJI
 50
0.000000
 51
0.000000
  0
TEXT
  8
1
 62
7
  6
CONTINUOUS
 10
421.050000
 20
57.634375
 40
12.375000
 41
0.400000
  1

  7
KANJI
 50
0.000000
 51
0.000000
  0
TEXT
  8
1
 62
7
  6
CONTINUOUS
 10
421.050000
 20
45.259375
 40
12.375000
 41
0.400000
  1

  7
KANJI
 50
0.000000
 51
0.000000
  0
LINE
  8
1
 62
7
  6
CONTINUOUS
 10
429.073950
 20
40.000000
 11
429.073950
 21
188.500000
  0
TEXT
  8
1
 62
7
  6
CONTINUOUS
 10
438.973950
 20
164.987500
 40
19.800000
 41
1.000000
  1
単色シリーズ
  7
KANJI
 50
0.000000
 51
0.000000
  0
TEXT
  8
1
 62
7
  6
CONTINUOUS
 10
557.773950
 20
174.887500
 40
9.900000
 41
0.500000
  1

  7
KANJI
 50
0.000000
 51
0.000000
  0
TEXT
  8
1
 62
7
  6
CONTINUOUS
 10
557.773950
 20
164.987500
 40
9.900000
 41
0.500000
  1

  7
KANJI
 50
0.000000
 51
0.000000
  0
LINE
  8
1
 62
7
  6
CONTINUOUS
 10
1615.489950
 20
40.000000
 11
1615.489950
 21
188.500000
  0
TEXT
  8
1
 62
7
  6
CONTINUOUS
 10
1235.923950
 20
94.759375
 40
24.750000
 41
0.800000
  1
埼玉県比企郡川島町表２１－５
  7
KANJI
 50
0.000000
 51
0.000000
  0
TEXT
  8
1
 62
7
  6
CONTINUOUS
 10
1513.123950
 20
107.134375
 40
12.375000
 41
0.400000
  1

  7
KANJI
 50
0.000000
 51
0.000000
  0
TEXT
  8
1
 62
7
  6
CONTINUOUS
 10
1513.123950
 20
94.759375
 40
12.375000
 41
0.400000
  1

  7
KANJI
 50
0.000000
 51
0.000000
  0
TEXT
  8
1
 62
7
  6
CONTINUOUS
 10
1235.923950
 20
70.009375
 40
24.750000
 41
0.647059
  1
  TEL ０４９２－９７－７２７１
  7
KANJI
 50
0.000000
 51
0.000000
  0
TEXT
  8
1
 62
7
  6
CONTINUOUS
 10
1495.798950
 20
82.384375
 40
12.375000
 41
0.388235
  1

  7
KANJI
 50
0.000000
 51
0.000000
  0
TEXT
  8
1
 62
7
  6
CONTINUOUS
 10
1495.798950
 20
70.009375
 40
12.375000
 41
0.388235
  1

  7
KANJI
 50
0.000000
 51
0.000000
  0
TEXT
  8
1
 62
7
  6
CONTINUOUS
 10
1235.923950
 20
45.259375
 40
24.750000
 41
0.647059
  1
  FAX ０４９２－９７－７２７３
  7
KANJI
 50
0.000000
 51
0.000000
  0
TEXT
  8
1
 62
7
  6
CONTINUOUS
 10
1495.798950
 20
57.634375
 40
12.375000
 41
0.388235
  1

  7
KANJI
 50
0.000000
 51
0.000000
  0
TEXT
  8
1
 62
7
  6
CONTINUOUS
 10
1495.798950
 20
45.259375
 40
12.375000
 41
0.388235
  1

  7
KANJI
 50
0.000000
 51
0.000000
  0
TEXT
  8
1
 62
7
  6
CONTINUOUS
 10
1235.923950
 20
117.653125
 40
34.650000
 41
1.285714
  1
㈱三井ＰＣＯ
  7
KANJI
 50
0.000000
 51
0.000000
  0
TEXT
  8
1
 62
7
  6
CONTINUOUS
 10
1468.573950
 20
134.978125
 40
17.325000
 41
0.642857
  1

  7
KANJI
 50
0.000000
 51
0.000000
  0
TEXT
  8
1
 62
7
  6
CONTINUOUS
 10
1468.573950
 20
117.653125
 40
17.325000
 41
0.642857
  1

  7
KANJI
 50
0.000000
 51
0.000000
  0
LINE
  8
1
 62
7
  6
CONTINUOUS
 10
429.073950
 20
188.500000
 11
578.420400
 21
188.500000
  0
LINE
  8
1
 62
7
  6
CONTINUOUS
 10
578.420400
 20
188.500000
 11
722.960400
 21
188.500000
  0
LINE
  8
1
 62
7
  6
CONTINUOUS
 10
722.960400
 20
188.500000
 11
872.851350
 21
188.500000
  0
LINE
  8
1
 62
7
  6
CONTINUOUS
 10
872.851350
 20
40.000000
 11
429.073950
 21
40.000000
  0
LINE
  8
1
 62
7
  6
CONTINUOUS
 10
429.073950
 20
139.000000
 11
872.851350
 21
139.000000
  0
LINE
  8
1
 62
7
  6
CONTINUOUS
 10
872.851350
 20
89.500000
 11
429.073950
 21
89.500000
  0
LINE
  8
1
 62
7
  6
CONTINUOUS
 10
578.420400
 20
188.500000
 11
578.420400
 21
89.500000
  0
LINE
  8
1
 62
7
  6
CONTINUOUS
 10
906.348000
 20
139.000000
 11
872.851350
 21
139.000000
  0
LINE
  8
1
 62
7
  6
CONTINUOUS
 10
872.851350
 20
139.000000
 11
906.348000
 21
139.000000
  0
LINE
  8
1
 62
7
  6
CONTINUOUS
 10
906.348000
 20
89.500000
 11
872.851350
 21
89.500000
  0
LINE
  8
1
 62
7
  6
CONTINUOUS
 10
872.851350
 20
89.500000
 11
906.348000
 21
89.500000
  0
LINE
  8
1
 62
7
  6
CONTINUOUS
 10
578.420400
 20
89.500000
 11
578.420400
 21
40.000000
  0
LINE
  8
1
 62
7
  6
CONTINUOUS
 10
872.851350
 20
188.500000
 11
906.348000
 21
188.500000
  0
LINE
  8
1
 62
7
  6
CONTINUOUS
 10
906.348000
 20
40.000000
 11
872.851350
 21
40.000000
  0
LINE
  8
1
 62
7
  6
CONTINUOUS
 10
1129.098000
 20
188.500000
 11
1129.098000
 21
40.000000
  0
LINE
  8
1
 62
7
  6
CONTINUOUS
 10
1129.098000
 20
40.000000
 11
1615.489950
 21
40.000000
  0
LINE
  8
1
 62
7
  6
CONTINUOUS
 10
1615.489950
 20
188.500000
 11
1129.098000
 21
188.500000
  0
LINE
  8
1
 62
7
  6
CONTINUOUS
 10
906.348000
 20
188.500000
 11
1121.673000
 21
188.500000
  0
LINE
  8
1
 62
7
  6
CONTINUOUS
 10
1121.673000
 20
188.500000
 11
1121.673000
 21
40.000000
  0
LINE
  8
1
 62
7
  6
CONTINUOUS
 10
1121.673000
 20
40.000000
 11
906.348000
 21
40.000000
  0
LINE
  8
1
 62
7
  6
CONTINUOUS
 10
906.348000
 20
139.000000
 11
1121.673000
 21
139.000000
  0
LINE
  8
1
 62
7
  6
CONTINUOUS
 10
1121.673000
 20
89.500000
 11
906.348000
 21
89.500000
  0
TEXT
  8
1
 62
7
  6
CONTINUOUS
 10
931.360845
 20
164.987500
 40
19.800000
 41
1.000000
  1
モンタナシリーズ
  7
KANJI
 50
0.000000
 51
0.000000
  0
TEXT
  8
1
 62
7
  6
CONTINUOUS
 10
1089.760845
 20
174.887500
 40
9.900000
 41
0.500000
  1

  7
KANJI
 50
0.000000
 51
0.000000
  0
TEXT
  8
1
 62
7
  6
CONTINUOUS
 10
1089.760845
 20
164.987500
 40
9.900000
 41
0.500000
  1

  7
KANJI
 50
0.000000
 51
0.000000
  0
TEXT
  8
1
 62
7
  6
CONTINUOUS
 10
755.473485
 20
164.987500
 40
19.800000
 41
1.000000
  1
シエラシリーズ
  7
KANJI
 50
0.000000
 51
0.000000
  0
TEXT
  8
1
 62
7
  6
CONTINUOUS
 10
894.073485
 20
174.887500
 40
9.900000
 41
0.500000
  1

  7
KANJI
 50
0.000000
 51
0.000000
  0
TEXT
  8
1
 62
7
  6
CONTINUOUS
 10
894.073485
 20
164.987500
 40
9.900000
 41
0.500000
  1

  7
KANJI
 50
0.000000
 51
0.000000
  0
LINE
  8
1
 62
7
  6
CONTINUOUS
 10
919.192260
 20
188.500000
 11
919.192260
 21
40.000000
  0
TEXT
  8
1
 62
7
  6
CONTINUOUS
 10
588.320400
 20
161.275000
 40
19.800000
 41
1.000000
  1
ベナーロシリーズ
  7
KANJI
 50
0.000000
 51
0.000000
  0
TEXT
  8
1
 62
7
  6
CONTINUOUS
 10
746.720400
 20
171.175000
 40
9.900000
 41
0.500000
  1

  7
KANJI
 50
0.000000
 51
0.000000
  0
TEXT
  8
1
 62
7
  6
CONTINUOUS
 10
746.720400
 20
161.275000
 40
9.900000
 41
0.500000
  1

  7
KANJI
 50
0.000000
 51
0.000000
  0
LINE
  8
1
 62
7
  6
CONTINUOUS
 10
749.190450
 20
188.500000
 11
749.190450
 21
40.000000
  0
TEXT
  8
1
 62
7
  6
CONTINUOUS
 10
429.073950
 20
48.380350
 40
24.750000
 41
0.800000
  1
シーム剤  本
  7
KANJI
 50
0.000000
 51
0.000000
  0
TEXT
  8
1
 62
7
  6
CONTINUOUS
 10
557.773950
 20
60.755350
 40
12.375000
 41
0.466667
  1

  7
KANJI
 50
0.000000
 51
0.000000
  0
TEXT
  8
1
 62
7
  6
CONTINUOUS
 10
557.773950
 20
48.380350
 40
12.375000
 41
0.466667
  1

  7
KANJI
 50
0.000000
 51
0.000000
  0
TEXT
  8
1
 62
7
  6
CONTINUOUS
 10
924.142260
 20
52.589335
 40
24.750000
 41
1.000000
  1
梱包個数　　梱
  7
KANJI
 50
0.000000
 51
0.000000
  0
TEXT
  8
1
 62
7
  6
CONTINUOUS
 10
1097.392260
 20
64.964335
 40
12.375000
 41
0.500000
  1

  7
KANJI
 50
0.000000
 51
0.000000
  0
TEXT
  8
1
 62
7
  6
CONTINUOUS
 10
1097.392260
 20
52.589335
 40
12.375000
 41
0.500000
  1

  7
KANJI
 50
0.000000
 51
0.000000
  0
TEXT
  8
1
 62
7
  6
CONTINUOUS
 10
735.879900
 20
52.271050
 40
24.750000
 41
0.746667
  1
 断熱テープ   本
  7
KANJI
 50
0.000000
 51
0.000000
  0
TEXT
  8
1
 62
7
  6
CONTINUOUS
 10
900.467400
 20
64.646050
 40
12.375000
 41
0.466667
  1

  7
KANJI
 50
0.000000
 51
0.000000
  0
TEXT
  8
1
 62
7
  6
CONTINUOUS
 10
900.467400
 20
52.271050
 40
12.375000
 41
0.466667
  1

  7
KANJI
 50
0.000000
 51
0.000000
  0
TEXT
  8
1
 62
7
  6
CONTINUOUS
 10
583.370400
 20
47.910595
 40
24.750000
 41
0.656250
  1
瞬間接着剤 　本
  7
KANJI
 50
0.000000
 51
0.000000
  0
TEXT
  8
1
 62
7
  6
CONTINUOUS
 10
713.307900
 20
60.285595
 40
12.375000
 41
0.350000
  1

  7
KANJI
 50
0.000000
 51
0.000000
  0
TEXT
  8
1
 62
7
  6
CONTINUOUS
 10
713.307900
 20
47.910595
 40
12.375000
 41
0.350000
  1

  7
KANJI
 50
0.000000
 51
0.000000
  0
TEXT
  8
1
 62
7
  6
CONTINUOUS
 10
438.973950
 20
97.234375
 40
24.750000
 41
1.041667
  1
   ㎜
  7
KANJI
 50
0.000000
 51
0.000000
  0
TEXT
  8
1
 62
7
  6
CONTINUOUS
 10
525.598950
 20
109.609375
 40
12.375000
 41
0.833333
  1

  7
KANJI
 50
0.000000
 51
0.000000
  0
TEXT
  8
1
 62
7
  6
CONTINUOUS
 10
525.598950
 20
97.234375
 40
12.375000
 41
0.833333
  1

  7
KANJI
 50
0.000000
 51
0.000000
  0
TEXT
  8
1
 62
7
  6
CONTINUOUS
 10
588.320400
 20
97.234375
 40
24.750000
 41
1.041667
  1
   ㎜
  7
KANJI
 50
0.000000
 51
0.000000
  0
TEXT
  8
1
 62
7
  6
CONTINUOUS
 10
674.945400
 20
109.609375
 40
12.375000
 41
0.833333
  1

  7
KANJI
 50
0.000000
 51
0.000000
  0
TEXT
  8
1
 62
7
  6
CONTINUOUS
 10
674.945400
 20
97.234375
 40
12.375000
 41
0.833333
  1

  7
KANJI
 50
0.000000
 51
0.000000
  0
TEXT
  8
1
 62
7
  6
CONTINUOUS
 10
755.473485
 20
97.234375
 40
24.750000
 41
1.041667
  1
   ㎜
  7
KANJI
 50
0.000000
 51
0.000000
  0
TEXT
  8
1
 62
7
  6
CONTINUOUS
 10
842.098485
 20
109.609375
 40
12.375000
 41
0.833333
  1

  7
KANJI
 50
0.000000
 51
0.000000
  0
TEXT
  8
1
 62
7
  6
CONTINUOUS
 10
842.098485
 20
97.234375
 40
12.375000
 41
0.833333
  1

  7
KANJI
 50
0.000000
 51
0.000000
  0
TEXT
  8
1
 62
7
  6
CONTINUOUS
 10
924.142260
 20
97.234375
 40
24.750000
 41
1.050000
  1
    ㎜
  7
KANJI
 50
0.000000
 51
0.000000
  0
TEXT
  8
1
 62
7
  6
CONTINUOUS
 10
1035.517260
 20
109.609375
 40
12.375000
 41
0.875000
  1

  7
KANJI
 50
0.000000
 51
0.000000
  0
TEXT
  8
1
 62
7
  6
CONTINUOUS
 10
1035.517260
 20
97.234375
 40
12.375000
 41
0.875000
  1

  7
KANJI
 50
0.000000
 51
0.000000
  0
TEXT
  8
1
 62
7
  6
CONTINUOUS
 10
1138.998000
 20
159.109375
 40
24.750000
 41
0.800000
  1
デュポンコーリアン認定加工／施工工場　　Ｍｐｃｏ　
  7
KANJI
 50
0.000000
 51
0.000000
  0
TEXT
  8
1
 62
7
  6
CONTINUOUS
 10
1633.998000
 20
171.484375
 40
12.375000
 41
0.400000
  1

  7
KANJI
 50
0.000000
 51
0.000000
  0
TEXT
  8
1
 62
7
  6
CONTINUOUS
 10
1633.998000
 20
159.109375
 40
12.375000
 41
0.400000
  1

  7
KANJI
 50
0.000000
 51
0.000000
  0
LINE
  8
1
 62
7
  6
CONTINUOUS
 10
1622.914950
 20
40.000000
 11
1734.473100
 21
40.000000
  0
TEXT
  8
1
 62
7
  6
CONTINUOUS
 10
1627.864950
 20
95.378125
 40
34.650000
 41
0.714286
  1
図面番号
  7
KANJI
 50
0.000000
 51
0.000000
  0
TEXT
  8
1
 62
7
  6
CONTINUOUS
 10
1726.864950
 20
112.703125
 40
17.325000
 41
0.357143
  1

  7
KANJI
 50
0.000000
 51
0.000000
  0
TEXT
  8
1
 62
7
  6
CONTINUOUS
 10
1726.864950
 20
95.378125
 40
17.325000
 41
0.357143
  1

  7
KANJI
 50
0.000000
 51
0.000000
  0
LINE
  8
1
 62
7
  6
CONTINUOUS
 10
1622.914950
 20
139.000000
 11
1622.914950
 21
40.000000
  0
LINE
  8
1
 62
7
  6
CONTINUOUS
 10
1622.914950
 20
40.000000
 11
1734.473100
 21
40.000000
  0
LINE
  8
1
 62
7
  6
CONTINUOUS
 10
1734.473100
 20
40.000000
 11
1734.473100
 21
139.000000
  0
LINE
  8
1
 62
7
  6
CONTINUOUS
 10
1734.473100
 20
139.000000
 11
1622.914950
 21
139.000000
  0
LINE
  8
1
 62
7
  6
CONTINUOUS
 10
1622.914950
 20
139.000000
 11
1622.914950
 21
188.500000
  0
LINE
  8
1
 62
7
  6
CONTINUOUS
 10
1622.914950
 20
188.500000
 11
1734.473100
 21
188.500000
  0
LINE
  8
1
 62
7
  6
CONTINUOUS
 10
1734.473100
 20
188.500000
 11
1734.473100
 21
139.000000
  0
TEXT
  8
1
 62
7
  6
CONTINUOUS
 10
1627.864950
 20
161.275000
 40
19.800000
 41
0.875000
  1
CAD-NO
  7
KANJI
 50
0.000000
 51
0.000000
  0
TEXT
  8
1
 62
7
  6
CONTINUOUS
 10
1723.152450
 20
171.175000
 40
9.900000
 41
0.875000
  1

  7
KANJI
 50
0.000000
 51
0.000000
  0
TEXT
  8
1
 62
7
  6
CONTINUOUS
 10
1723.152450
 20
161.275000
 40
9.900000
 41
0.875000
  1

  7
KANJI
 50
0.000000
 51
0.000000
  0
DIMENSION
  8
1
 62
7
  6
CONTINUOUS
  2
*D1
 10
557.725694
 20
1193.532986
 11
814.225694
 21
1193.532986
 70
     0
  1
513
 13
557.725694
 23
1063.446181
 14
1070.725694
 24
1063.446181
 50
0.000000
  0
DIMENSION
  8
1
 62
7
  6
CONTINUOUS
  2
*D2
 10
582.725694
 20
1160.069444
 11
814.225694
 21
1160.069444
 70
     0
  1
463
 13
582.725694
 23
1063.446181
 14
1045.725694
 24
1063.446181
 50
0.000000
  0
DIMENSION
  8
1
 62
7
  6
CONTINUOUS
  2
*D3
 10
435.026042
 20
1053.446181
 11
435.026042
 21
854.446181
 70
     0
  1
398
 13
547.725694
 23
1053.446181
 14
547.725694
 24
655.446181
 50
-90.000000
  0
DIMENSION
  8
1
 62
7
  6
CONTINUOUS
  2
*D4
 10
468.489583
 20
680.446181
 11
468.489583
 21
854.446181
 70
     0
  1
348
 13
547.725694
 23
680.446181
 14
547.725694
 24
1028.446181
 50
90.000000
  0
LINE
  8
1
 62
7
  6
CONTINUOUS
 10
1070.725694
 20
854.446181
 11
1069.749635
 21
871.790173
  0
LINE
  8
1
 62
7
  6
CONTINUOUS
 10
1069.749635
 20
871.790173
 11
1066.828883
 21
889.002168
  0
LINE
  8
1
 62
7
  6
CONTINUOUS
 10
1066.828883
 20
889.002168
 11
1061.985669
 21
905.951171
  0
LINE
  8
1
 62
7
  6
CONTINUOUS
 10
1061.985669
 20
905.951171
 11
1055.256852
 21
922.508189
  0
LINE
  8
1
 62
7
  6
CONTINUOUS
 10
1055.256852
 20
922.508189
 11
1046.693642
 21
938.547215
  0
LINE
  8
1
 62
7
  6
CONTINUOUS
 10
1046.693642
 20
938.547215
 11
1036.361211
 21
953.946181
  0
LINE
  8
1
 62
7
  6
CONTINUOUS
 10
1036.361211
 20
953.946181
 11
1024.338194
 21
968.587891
  0
LINE
  8
1
 62
7
  6
CONTINUOUS
 10
1024.338194
 20
968.587891
 11
1010.716094
 21
982.360915
  0
LINE
  8
1
 62
7
  6
CONTINUOUS
 10
1010.716094
 20
982.360915
 11
995.598584
 21
995.160430
  0
LINE
  8
1
 62
7
  6
CONTINUOUS
 10
995.598584
 20
995.160430
 11
979.100716
 21
1006.889025
  0
LINE
  8
1
 62
7
  6
CONTINUOUS
 10
979.100716
 20
1006.889025
 11
961.348050
 21
1017.457437
  0
LINE
  8
1
 62
7
  6
CONTINUOUS
 10
961.348050
 20
1017.457437
 11
942.475694
 21
1026.785236
  0
LINE
  8
1
 62
7
  6
CONTINUOUS
 10
942.475694
 20
1026.785236
 11
922.627279
 21
1034.801430
  0
LINE
  8
1
 62
7
  6
CONTINUOUS
 10
922.627279
 20
1034.801430
 11
901.953861
 21
1041.445012
  0
LINE
  8
1
 62
7
  6
CONTINUOUS
 10
901.953861
 20
1041.445012
 11
880.612780
 21
1046.665420
  0
LINE
  8
1
 62
7
  6
CONTINUOUS
 10
880.612780
 20
1046.665420
 11
858.766452
 21
1050.422923
  0
LINE
  8
1
 62
7
  6
CONTINUOUS
 10
858.766452
 20
1050.422923
 11
836.581142
 21
1052.688925
  0
LINE
  8
1
 62
7
  6
CONTINUOUS
 10
836.581142
 20
1052.688925
 11
814.225694
 21
1053.446181
  0
LINE
  8
1
 62
7
  6
CONTINUOUS
 10
814.225694
 20
1053.446181
 11
791.870246
 21
1052.688925
  0
LINE
  8
1
 62
7
  6
CONTINUOUS
 10
791.870246
 20
1052.688925
 11
769.684937
 21
1050.422923
  0
LINE
  8
1
 62
7
  6
CONTINUOUS
 10
769.684937
 20
1050.422923
 11
747.838609
 21
1046.665420
  0
LINE
  8
1
 62
7
  6
CONTINUOUS
 10
747.838609
 20
1046.665420
 11
726.497528
 21
1041.445012
  0
LINE
  8
1
 62
7
  6
CONTINUOUS
 10
726.497528
 20
1041.445012
 11
705.824110
 21
1034.801430
  0
LINE
  8
1
 62
7
  6
CONTINUOUS
 10
705.824110
 20
1034.801430
 11
685.975694
 21
1026.785236
  0
LINE
  8
1
 62
7
  6
CONTINUOUS
 10
685.975694
 20
1026.785236
 11
667.103339
 21
1017.457437
  0
LINE
  8
1
 62
7
  6
CONTINUOUS
 10
667.103339
 20
1017.457437
 11
649.350673
 21
1006.889025
  0
LINE
  8
1
 62
7
  6
CONTINUOUS
 10
649.350673
 20
1006.889025
 11
632.852805
 21
995.160430
  0
LINE
  8
1
 62
7
  6
CONTINUOUS
 10
632.852805
 20
995.160430
 11
617.735295
 21
982.360915
  0
LINE
  8
1
 62
7
  6
CONTINUOUS
 10
617.735295
 20
982.360915
 11
604.113195
 21
968.587891
  0
LINE
  8
1
 62
7
  6
CONTINUOUS
 10
604.113195
 20
968.587891
 11
592.090178
 21
953.946181
  0
LINE
  8
1
 62
7
  6
CONTINUOUS
 10
592.090178
 20
953.946181
 11
581.757747
 21
938.547215
  0
LINE
  8
1
 62
7
  6
CONTINUOUS
 10
581.757747
 20
938.547215
 11
573.194537
 21
922.508189
  0
LINE
  8
1
 62
7
  6
CONTINUOUS
 10
573.194537
 20
922.508189
 11
566.465720
 21
905.951171
  0
LINE
  8
1
 62
7
  6
CONTINUOUS
 10
566.465720
 20
905.951171
 11
561.622506
 21
889.002168
  0
LINE
  8
1
 62
7
  6
CONTINUOUS
 10
561.622506
 20
889.002168
 11
558.701754
 21
871.790173
  0
LINE
  8
1
 62
7
  6
CONTINUOUS
 10
558.701754
 20
871.790173
 11
557.725694
 21
854.446181
  0
LINE
  8
1
 62
7
  6
CONTINUOUS
 10
557.725694
 20
854.446181
 11
558.701754
 21
837.102188
  0
LINE
  8
1
 62
7
  6
CONTINUOUS
 10
558.701754
 20
837.102188
 11
561.622506
 21
819.890193
  0
LINE
  8
1
 62
7
  6
CONTINUOUS
 10
561.622506
 20
819.890193
 11
566.465720
 21
802.941191
  0
LINE
  8
1
 62
7
  6
CONTINUOUS
 10
566.465720
 20
802.941191
 11
573.194537
 21
786.384172
  0
LINE
  8
1
 62
7
  6
CONTINUOUS
 10
573.194537
 20
786.384172
 11
581.757747
 21
770.345146
  0
LINE
  8
1
 62
7
  6
CONTINUOUS
 10
581.757747
 20
770.345146
 11
592.090178
 21
754.946181
  0
LINE
  8
1
 62
7
  6
CONTINUOUS
 10
592.090178
 20
754.946181
 11
604.113195
 21
740.304470
  0
LINE
  8
1
 62
7
  6
CONTINUOUS
 10
604.113195
 20
740.304470
 11
617.735295
 21
726.531446
  0
LINE
  8
1
 62
7
  6
CONTINUOUS
 10
617.735295
 20
726.531446
 11
632.852805
 21
713.731931
  0
LINE
  8
1
 62
7
  6
CONTINUOUS
 10
632.852805
 20
713.731931
 11
649.350673
 21
702.003336
  0
LINE
  8
1
 62
7
  6
CONTINUOUS
 10
649.350673
 20
702.003336
 11
667.103339
 21
691.434924
  0
LINE
  8
1
 62
7
  6
CONTINUOUS
 10
667.103339
 20
691.434924
 11
685.975694
 21
682.107125
  0
LINE
  8
1
 62
7
  6
CONTINUOUS
 10
685.975694
 20
682.107125
 11
705.824110
 21
674.090931
  0
LINE
  8
1
 62
7
  6
CONTINUOUS
 10
705.824110
 20
674.090931
 11
726.497528
 21
667.447349
  0
LINE
  8
1
 62
7
  6
CONTINUOUS
 10
726.497528
 20
667.447349
 11
747.838609
 21
662.226941
  0
LINE
  8
1
 62
7
  6
CONTINUOUS
 10
747.838609
 20
662.226941
 11
769.684937
 21
658.469438
  0
LINE
  8
1
 62
7
  6
CONTINUOUS
 10
769.684937
 20
658.469438
 11
791.870246
 21
656.203436
  0
LINE
  8
1
 62
7
  6
CONTINUOUS
 10
791.870246
 20
656.203436
 11
814.225694
 21
655.446181
  0
LINE
  8
1
 62
7
  6
CONTINUOUS
 10
814.225694
 20
655.446181
 11
836.581142
 21
656.203436
  0
LINE
  8
1
 62
7
  6
CONTINUOUS
 10
836.581142
 20
656.203436
 11
858.766452
 21
658.469438
  0
LINE
  8
1
 62
7
  6
CONTINUOUS
 10
858.766452
 20
658.469438
 11
880.612780
 21
662.226941
  0
LINE
  8
1
 62
7
  6
CONTINUOUS
 10
880.612780
 20
662.226941
 11
901.953861
 21
667.447349
  0
LINE
  8
1
 62
7
  6
CONTINUOUS
 10
901.953861
 20
667.447349
 11
922.627279
 21
674.090931
  0
LINE
  8
1
 62
7
  6
CONTINUOUS
 10
922.627279
 20
674.090931
 11
942.475694
 21
682.107125
  0
LINE
  8
1
 62
7
  6
CONTINUOUS
 10
942.475694
 20
682.107125
 11
961.348050
 21
691.434924
  0
LINE
  8
1
 62
7
  6
CONTINUOUS
 10
961.348050
 20
691.434924
 11
979.100716
 21
702.003336
  0
LINE
  8
1
 62
7
  6
CONTINUOUS
 10
979.100716
 20
702.003336
 11
995.598584
 21
713.731931
  0
LINE
  8
1
 62
7
  6
CONTINUOUS
 10
995.598584
 20
713.731931
 11
1010.716094
 21
726.531446
  0
LINE
  8
1
 62
7
  6
CONTINUOUS
 10
1010.716094
 20
726.531446
 11
1024.338194
 21
740.304470
  0
LINE
  8
1
 62
7
  6
CONTINUOUS
 10
1024.338194
 20
740.304470
 11
1036.361211
 21
754.946181
  0
LINE
  8
1
 62
7
  6
CONTINUOUS
 10
1036.361211
 20
754.946181
 11
1046.693642
 21
770.345146
  0
LINE
  8
1
 62
7
  6
CONTINUOUS
 10
1046.693642
 20
770.345146
 11
1055.256852
 21
786.384172
  0
LINE
  8
1
 62
7
  6
CONTINUOUS
 10
1055.256852
 20
786.384172
 11
1061.985669
 21
802.941191
  0
LINE
  8
1
 62
7
  6
CONTINUOUS
 10
1061.985669
 20
802.941191
 11
1066.828883
 21
819.890193
  0
LINE
  8
1
 62
7
  6
CONTINUOUS
 10
1066.828883
 20
819.890193
 11
1069.749635
 21
837.102188
  0
LINE
  8
1
 62
7
  6
CONTINUOUS
 10
1069.749635
 20
837.102188
 11
1070.725694
 21
854.446181
  0
LINE
  8
1
 62
7
  6
CONTINUOUS
 10
1045.725694
 20
854.446181
 11
1044.844767
 21
869.611280
  0
LINE
  8
1
 62
7
  6
CONTINUOUS
 10
1044.844767
 20
869.611280
 11
1042.208689
 21
884.660963
  0
LINE
  8
1
 62
7
  6
CONTINUOUS
 10
1042.208689
 20
884.660963
 11
1037.837523
 21
899.480694
  0
LINE
  8
1
 62
7
  6
CONTINUOUS
 10
1037.837523
 20
899.480694
 11
1031.764536
 21
913.957685
  0
LINE
  8
1
 62
7
  6
CONTINUOUS
 10
1031.764536
 20
913.957685
 11
1024.035947
 21
927.981758
  0
LINE
  8
1
 62
7
  6
CONTINUOUS
 10
1024.035947
 20
927.981758
 11
1014.710575
 21
941.446181
  0
LINE
  8
1
 62
7
  6
CONTINUOUS
 10
1014.710575
 20
941.446181
 11
1003.859393
 21
954.248480
  0
LINE
  8
1
 62
7
  6
CONTINUOUS
 10
1003.859393
 20
954.248480
 11
991.564983
 21
966.291225
  0
LINE
  8
1
 62
7
  6
CONTINUOUS
 10
991.564983
 20
966.291225
 11
977.920914
 21
977.482760
  0
LINE
  8
1
 62
7
  6
CONTINUOUS
 10
977.920914
 20
977.482760
 11
963.031026
 21
987.737914
  0
LINE
  8
1
 62
7
  6
CONTINUOUS
 10
963.031026
 20
987.737914
 11
947.008639
 21
996.978636
  0
LINE
  8
1
 62
7
  6
CONTINUOUS
 10
947.008639
 20
996.978636
 11
929.975694
 21
1005.134601
  0
LINE
  8
1
 62
7
  6
CONTINUOUS
 10
929.975694
 20
1005.134601
 11
912.061822
 21
1012.143735
  0
LINE
  8
1
 62
7
  6
CONTINUOUS
 10
912.061822
 20
1012.143735
 11
893.403358
 21
1017.952697
  0
LINE
  8
1
 62
7
  6
CONTINUOUS
 10
893.403358
 20
1017.952697
 11
874.142303
 21
1022.517274
  0
LINE
  8
1
 62
7
  6
CONTINUOUS
 10
874.142303
 20
1022.517274
 11
854.425248
 21
1025.802730
  0
LINE
  8
1
 62
7
  6
CONTINUOUS
 10
854.425248
 20
1025.802730
 11
834.402249
 21
1027.784058
  0
LINE
  8
1
 62
7
  6
CONTINUOUS
 10
834.402249
 20
1027.784058
 11
814.225694
 21
1028.446181
  0
LINE
  8
1
 62
7
  6
CONTINUOUS
 10
814.225694
 20
1028.446181
 11
794.049140
 21
1027.784058
  0
LINE
  8
1
 62
7
  6
CONTINUOUS
 10
794.049140
 20
1027.784058
 11
774.026141
 21
1025.802730
  0
LINE
  8
1
 62
7
  6
CONTINUOUS
 10
774.026141
 20
1025.802730
 11
754.309086
 21
1022.517274
  0
LINE
  8
1
 62
7
  6
CONTINUOUS
 10
754.309086
 20
1022.517274
 11
735.048031
 21
1017.952697
  0
LINE
  8
1
 62
7
  6
CONTINUOUS
 10
735.048031
 20
1017.952697
 11
716.389567
 21
1012.143735
  0
LINE
  8
1
 62
7
  6
CONTINUOUS
 10
716.389567
 20
1012.143735
 11
698.475694
 21
1005.134601
  0
LINE
  8
1
 62
7
  6
CONTINUOUS
 10
698.475694
 20
1005.134601
 11
681.442749
 21
996.978636
  0
LINE
  8
1
 62
7
  6
CONTINUOUS
 10
681.442749
 20
996.978636
 11
665.420363
 21
987.737914
  0
LINE
  8
1
 62
7
  6
CONTINUOUS
 10
665.420363
 20
987.737914
 11
650.530475
 21
977.482760
  0
LINE
  8
1
 62
7
  6
CONTINUOUS
 10
650.530475
 20
977.482760
 11
636.886406
 21
966.291225
  0
LINE
  8
1
 62
7
  6
CONTINUOUS
 10
636.886406
 20
966.291225
 11
624.591996
 21
954.248480
  0
LINE
  8
1
 62
7
  6
CONTINUOUS
 10
624.591996
 20
954.248480
 11
613.740813
 21
941.446181
  0
LINE
  8
1
 62
7
  6
CONTINUOUS
 10
613.740813
 20
941.446181
 11
604.415442
 21
927.981758
  0
LINE
  8
1
 62
7
  6
CONTINUOUS
 10
604.415442
 20
927.981758
 11
596.686853
 21
913.957685
  0
LINE
  8
1
 62
7
  6
CONTINUOUS
 10
596.686853
 20
913.957685
 11
590.613866
 21
899.480694
  0
LINE
  8
1
 62
7
  6
CONTINUOUS
 10
590.613866
 20
899.480694
 11
586.242700
 21
884.660963
  0
LINE
  8
1
 62
7
  6
CONTINUOUS
 10
586.242700
 20
884.660963
 11
583.606622
 21
869.611280
  0
LINE
  8
1
 62
7
  6
CONTINUOUS
 10
583.606622
 20
869.611280
 11
582.725694
 21
854.446181
  0
LINE
  8
1
 62
7
  6
CONTINUOUS
 10
582.725694
 20
854.446181
 11
583.606622
 21
839.281081
  0
LINE
  8
1
 62
7
  6
CONTINUOUS
 10
583.606622
 20
839.281081
 11
586.242700
 21
824.231398
  0
LINE
  8
1
 62
7
  6
CONTINUOUS
 10
586.242700
 20
824.231398
 11
590.613866
 21
809.411667
  0
LINE
  8
1
 62
7
  6
CONTINUOUS
 10
590.613866
 20
809.411667
 11
596.686853
 21
794.934676
  0
LINE
  8
1
 62
7
  6
CONTINUOUS
 10
596.686853
 20
794.934676
 11
604.415442
 21
780.910603
  0
LINE
  8
1
 62
7
  6
CONTINUOUS
 10
604.415442
 20
780.910603
 11
613.740813
 21
767.446181
  0
LINE
  8
1
 62
7
  6
CONTINUOUS
 10
613.740813
 20
767.446181
 11
624.591996
 21
754.643881
  0
LINE
  8
1
 62
7
  6
CONTINUOUS
 10
624.591996
 20
754.643881
 11
636.886406
 21
742.601136
  0
LINE
  8
1
 62
7
  6
CONTINUOUS
 10
636.886406
 20
742.601136
 11
650.530475
 21
731.409601
  0
LINE
  8
1
 62
7
  6
CONTINUOUS
 10
650.530475
 20
731.409601
 11
665.420363
 21
721.154447
  0
LINE
  8
1
 62
7
  6
CONTINUOUS
 10
665.420363
 20
721.154447
 11
681.442749
 21
711.913725
  0
LINE
  8
1
 62
7
  6
CONTINUOUS
 10
681.442749
 20
711.913725
 11
698.475694
 21
703.757760
  0
LINE
  8
1
 62
7
  6
CONTINUOUS
 10
698.475694
 20
703.757760
 11
716.389567
 21
696.748626
  0
LINE
  8
1
 62
7
  6
CONTINUOUS
 10
716.389567
 20
696.748626
 11
735.048031
 21
690.939665
  0
LINE
  8
1
 62
7
  6
CONTINUOUS
 10
735.048031
 20
690.939665
 11
754.309086
 21
686.375087
  0
LINE
  8
1
 62
7
  6
CONTINUOUS
 10
754.309086
 20
686.375087
 11
774.026141
 21
683.089632
  0
LINE
  8
1
 62
7
  6
CONTINUOUS
 10
774.026141
 20
683.089632
 11
794.049140
 21
681.108303
  0
LINE
  8
1
 62
7
  6
CONTINUOUS
 10
794.049140
 20
681.108303
 11
814.225694
 21
680.446181
  0
LINE
  8
1
 62
7
  6
CONTINUOUS
 10
814.225694
 20
680.446181
 11
834.402249
 21
681.108303
  0
LINE
  8
1
 62
7
  6
CONTINUOUS
 10
834.402249
 20
681.108303
 11
854.425248
 21
683.089632
  0
LINE
  8
1
 62
7
  6
CONTINUOUS
 10
854.425248
 20
683.089632
 11
874.142303
 21
686.375087
  0
LINE
  8
1
 62
7
  6
CONTINUOUS
 10
874.142303
 20
686.375087
 11
893.403358
 21
690.939665
  0
LINE
  8
1
 62
7
  6
CONTINUOUS
 10
893.403358
 20
690.939665
 11
912.061822
 21
696.748626
  0
LINE
  8
1
 62
7
  6
CONTINUOUS
 10
912.061822
 20
696.748626
 11
929.975694
 21
703.757760
  0
LINE
  8
1
 62
7
  6
CONTINUOUS
 10
929.975694
 20
703.757760
 11
947.008639
 21
711.913725
  0
LINE
  8
1
 62
7
  6
CONTINUOUS
 10
947.008639
 20
711.913725
 11
963.031026
 21
721.154447
  0
LINE
  8
1
 62
7
  6
CONTINUOUS
 10
963.031026
 20
721.154447
 11
977.920914
 21
731.409601
  0
LINE
  8
1
 62
7
  6
CONTINUOUS
 10
977.920914
 20
731.409601
 11
991.564983
 21
742.601136
  0
LINE
  8
1
 62
7
  6
CONTINUOUS
 10
991.564983
 20
742.601136
 11
1003.859393
 21
754.643881
  0
LINE
  8
1
 62
7
  6
CONTINUOUS
 10
1003.859393
 20
754.643881
 11
1014.710575
 21
767.446181
  0
LINE
  8
1
 62
7
  6
CONTINUOUS
 10
1014.710575
 20
767.446181
 11
1024.035947
 21
780.910603
  0
LINE
  8
1
 62
7
  6
CONTINUOUS
 10
1024.035947
 20
780.910603
 11
1031.764536
 21
794.934676
  0
LINE
  8
1
 62
7
  6
CONTINUOUS
 10
1031.764536
 20
794.934676
 11
1037.837523
 21
809.411667
  0
LINE
  8
1
 62
7
  6
CONTINUOUS
 10
1037.837523
 20
809.411667
 11
1042.208689
 21
824.231398
  0
LINE
  8
1
 62
7
  6
CONTINUOUS
 10
1042.208689
 20
824.231398
 11
1044.844767
 21
839.281081
  0
LINE
  8
1
 62
7
  6
CONTINUOUS
 10
1044.844767
 20
839.281081
 11
1045.725694
 21
854.446181
  0
DIMENSION
  8
1
 62
7
  6
CONTINUOUS
  2
*D5
 10
494.780232
 20
938.446181
 11
494.780232
 21
983.446181
 70
     0
  1
90
 13
547.725694
 23
938.446181
 14
547.725694
 24
1028.446181
 50
90.000000
  0
CIRCLE
  8
1
 62
7
  6
CONTINUOUS
 10
814.225694
 20
938.446181
 40
22.500000
  0
CIRCLE
  8
1
 62
7
  6
CONTINUOUS
 10
814.225694
 20
938.446181
 40
27.500000
  0
DIMENSION
  8
1
 62
7
  6
CONTINUOUS
  2
*D6
 10
557.725694
 20
1160.069444
 11
570.225694
 21
1160.069444
 70
     0
  1
25
 13
557.725694
 23
1063.446181
 14
582.725694
 24
1063.446181
 50
0.000000
  0
DIMENSION
  8
1
 62
7
  6
CONTINUOUS
  2
*D7
 10
468.626787
 20
1028.446181
 11
468.626787
 21
1040.946181
 70
     0
  1
25
 13
547.725694
 23
1028.446181
 14
547.725694
 24
1053.446181
 50
90.000000
  0
LINE
  8
1
 62
7
  6
CONTINUOUS
 10
560.941085
 20
469.875000
 11
557.725694
 21
481.875002
  0
LINE
  8
1
 62
7
  6
CONTINUOUS
 10
557.725695
 20
481.875000
 11
1070.725694
 21
481.875002
  0
LINE
  8
1
 62
7
  6
CONTINUOUS
 10
1070.725694
 20
481.875000
 11
1067.510304
 21
469.875000
  0
DIMENSION
  8
1
 62
7
  6
CONTINUOUS
  2
*D8
 10
435.026041
 20
481.875000
 11
435.026041
 21
399.375000
 70
     0
  1
165
 13
547.726240
 23
481.875000
 14
547.725694
 24
316.875000
 50
-90.000000
  0
DIMENSION
  8
1
 62
7
  6
CONTINUOUS
  2
*D9
 10
468.489583
 20
469.875000
 11
468.489583
 21
475.875000
 70
     0
  1
12
 13
514.534779
 23
469.875000
 14
514.534779
 24
481.875000
 50
90.000000
  0
LINE
  8
1
 62
7
  6
CONTINUOUS
 10
784.225693
 20
321.875000
 11
784.225693
 21
319.875000
  0
LINE
  8
1
 62
7
  6
CONTINUOUS
 10
787.225693
 20
316.875000
 11
841.225693
 21
316.875000
  0
LINE
  8
1
 62
7
  6
CONTINUOUS
 10
844.225693
 20
321.875000
 11
844.225693
 21
319.875000
  0
LINE
  8
1
 62
7
  6
CONTINUOUS
 10
560.941085
 20
469.875000
 11
572.725694
 21
469.875000
  0
LINE
  8
1
 62
7
  6
CONTINUOUS
 10
1055.725694
 20
469.875000
 11
1067.510304
 21
469.875000
  0
LINE
  8
1
 62
7
  6
CONTINUOUS
 10
572.725694
 20
469.875000
 11
1055.725694
 21
469.875000
  0
ARC
  8
1
 62
7
  6
CONTINUOUS
 10
764.589823
 20
526.338759
 40
200.000000
 50
-163.601353
 51
-94.196619
  0
ARC
  8
1
 62
7
  6
CONTINUOUS
 10
862.944188
 20
527.096424
 40
201.094507
 50
-84.973660
 51
-16.531947
  0
LINE
  8
1
 62
7
  6
CONTINUOUS
 10
849.225693
 20
324.842648
 11
880.562824
 21
326.775221
  0
LINE
  8
1
 62
7
  6
CONTINUOUS
 10
749.953953
 20
326.875000
 11
779.225693
 21
324.842648
  0
LINE
  8
1
 62
7
  6
CONTINUOUS
 10
844.193300
 20
319.435327
 11
844.225693
 21
321.875000
  0
LINE
  8
1
 62
7
  6
CONTINUOUS
 10
846.040238
 20
323.472392
 11
849.225693
 21
324.842648
  0
LINE
  8
1
 62
7
  6
CONTINUOUS
 10
844.225693
 20
320.716544
 11
844.225693
 21
321.875000
  0
ARC
  8
1
 62
7
  6
CONTINUOUS
 10
847.225693
 20
320.716544
 40
3.000000
 50
113.275450
 51
-180.000000
  0
LINE
  8
1
 62
7
  6
CONTINUOUS
 10
782.411149
 20
323.472392
 11
779.225693
 21
324.842648
  0
LINE
  8
1
 62
7
  6
CONTINUOUS
 10
784.225693
 20
321.875000
 11
784.225693
 21
320.716544
  0
ARC
  8
1
 62
7
  6
CONTINUOUS
 10
781.225693
 20
320.716544
 40
3.000000
 50
0.000000
 51
66.724550
  0
LINE
  8
1
 62
7
  6
CONTINUOUS
 10
784.225693
 20
319.875000
 11
784.225693
 21
318.875000
  0
LINE
  8
1
 62
7
  6
CONTINUOUS
 10
786.225693
 20
316.875000
 11
787.225693
 21
316.875000
  0
ARC
  8
1
 62
7
  6
CONTINUOUS
 10
786.225693
 20
318.875000
 40
2.000000
 50
180.000000
 51
-90.000000
  0
LINE
  8
1
 62
7
  6
CONTINUOUS
 10
841.225693
 20
316.875000
 11
842.204999
 21
316.875000
  0
LINE
  8
1
 62
7
  6
CONTINUOUS
 10
844.204893
 20
318.895587
 11
844.196701
 21
319.691457
  0
ARC
  8
1
 62
7
  6
CONTINUOUS
 10
842.204999
 20
318.875000
 40
2.000000
 50
-90.000000
 51
0.589785
  0
LINE
  8
1
 62
7
  6
CONTINUOUS
 10
963.031026
 20
987.737914
 11
913.739292
 21
938.446181
  0
LINE
  8
1
 62
7
  6
CONTINUOUS
 10
913.739292
 20
938.446181
 11
883.739292
 21
938.446181
  0
TEXT
  8
1
 62
7
  6
CONTINUOUS
 10
883.739292
 20
938.446181
 40
20.000000
 41
0.375000
  1
164R
  7
KANJI
 50
0.000000
 51
30.000000
  0
LINE
  8
1
 62
7
  6
CONTINUOUS
 10
963.031026
 20
987.737914
 11
953.031026
 21
970.417406
  0
LINE
  8
1
 62
7
  6
CONTINUOUS
 10
963.031026
 20
987.737914
 11
945.710518
 21
977.737914
  0
LINE
  8
1
 62
7
  6
CONTINUOUS
 10
953.031026
 20
970.417406
 11
945.710518
 21
977.737914
  0
LINE
  8
1
 62
7
  6
CONTINUOUS
 10
959.615963
 20
984.322850
 11
954.615962
 21
975.662596
  0
LINE
  8
1
 62
7
  6
CONTINUOUS
 10
959.615963
 20
984.322850
 11
950.955708
 21
979.322850
  0
LINE
  8
1
 62
7
  6
CONTINUOUS
 10
954.615962
 20
975.662596
 11
950.955708
 21
979.322850
  0
LINE
  8
1
 62
7
  6
CONTINUOUS
 10
1045.725694
 20
854.446181
 11
949.708855
 21
854.446181
  0
LINE
  8
1
 62
7
  6
CONTINUOUS
 10
949.708855
 20
854.446181
 11
979.708855
 21
854.446181
  0
TEXT
  8
1
 62
7
  6
CONTINUOUS
 10
949.708855
 20
854.446181
 40
20.000000
 41
0.375000
  1
142R
  7
KANJI
 50
0.000000
 51
30.000000
  0
LINE
  8
1
 62
7
  6
CONTINUOUS
 10
1045.725694
 20
854.446181
 11
1026.407178
 21
849.269800
  0
LINE
  8
1
 62
7
  6
CONTINUOUS
 10
1045.725694
 20
854.446181
 11
1026.407178
 21
859.622561
  0
LINE
  8
1
 62
7
  6
CONTINUOUS
 10
1026.407178
 20
849.269800
 11
1026.407178
 21
859.622561
  0
LINE
  8
1
 62
7
  6
CONTINUOUS
 10
1040.896065
 20
854.446181
 11
1031.236807
 21
851.857990
  0
LINE
  8
1
 62
7
  6
CONTINUOUS
 10
1040.896065
 20
854.446181
 11
1031.236807
 21
857.034371
  0
LINE
  8
1
 62
7
  6
CONTINUOUS
 10
1031.236807
 20
851.857990
 11
1031.236807
 21
857.034371
  0
LINE
  8
1
 62
7
  6
CONTINUOUS
 10
814.225693
 20
1028.446181
 11
836.725694
 21
987.312623
  0
LINE
  8
1
 62
7
  6
CONTINUOUS
 10
836.725694
 20
987.312623
 11
870.535526
 21
987.312623
  0
TEXT
  8
1
 62
7
  6
CONTINUOUS
 10
840.535526
 20
987.312623
 40
20.000000
 41
0.375000
  1
291R
  7
KANJI
 50
0.000000
 51
30.000000
  0
LINE
  8
1
 62
7
  6
CONTINUOUS
 10
814.225693
 20
1028.446181
 11
828.037940
 21
1013.981678
  0
LINE
  8
1
 62
7
  6
CONTINUOUS
 10
814.225693
 20
1028.446181
 11
818.955199
 21
1009.013430
  0
LINE
  8
1
 62
7
  6
CONTINUOUS
 10
828.037940
 20
1013.981678
 11
818.955199
 21
1009.013430
  0
LINE
  8
1
 62
7
  6
CONTINUOUS
 10
816.543412
 20
1024.209024
 11
823.449536
 21
1016.976773
  0
LINE
  8
1
 62
7
  6
CONTINUOUS
 10
816.543412
 20
1024.209024
 11
818.908165
 21
1014.492649
  0
LINE
  8
1
 62
7
  6
CONTINUOUS
 10
823.449536
 20
1016.976773
 11
818.908165
 21
1014.492649
  0
DIMENSION
  8
1
 62
7
  6
CONTINUOUS
  2
*D10
 10
791.725694
 20
893.038221
 11
814.225694
 21
893.038221
 70
     0
  1
42
 13
791.725694
 23
928.446181
 14
836.725694
 24
928.446181
 50
0.000000
  0
DIMENSION
  8
1
 62
7
  6
CONTINUOUS
  2
*D11
 10
786.725694
 20
870.187506
 11
814.225694
 21
870.187506
 70
     0
  1
60
 13
786.725694
 23
928.446181
 14
841.725694
 24
928.446181
 50
0.000000
  0
DIMENSION
  8
1
 62
7
  6
CONTINUOUS
  2
*D12
 10
784.225693
 20
256.998262
 11
814.225693
 21
256.998262
 70
     0
  1
60
 13
784.225693
 23
306.875000
 14
844.225693
 24
306.875000
 50
0.000000
  0
DIMENSION
  8
1
 62
7
  6
CONTINUOUS
  2
*D13
 10
791.725694
 20
288.579649
 11
814.225694
 21
288.579649
 70
     0
  1
42
 13
791.725694
 23
306.875000
 14
836.725694
 24
306.875000
 50
0.000000
  0
DIMENSION
  8
1
 62
7
  6
CONTINUOUS
  2
*D14
 10
1045.725694
 20
1160.069444
 11
1058.225694
 21
1160.069444
 70
     0
  1
25
 13
1045.725694
 23
1063.446181
 14
1070.725694
 24
1063.446181
 50
0.000000
  0
LINE
  8
1
 62
7
  6
CONTINUOUS
 10
547.725694
 20
1053.446181
 11
714.270209
 21
1053.446181
  0
LINE
  8
1
 62
7
  6
CONTINUOUS
 10
547.725694
 20
1028.446181
 11
659.702185
 21
1028.446181
  0
LINE
  8
1
 62
7
  6
CONTINUOUS
 10
1070.725694
 20
1067.747132
 11
1070.725694
 21
938.446181
  0
LINE
  8
1
 62
7
  6
CONTINUOUS
 10
1045.725694
 20
1067.747132
 11
1045.725694
 21
967.755647
  0
LINE
  8
1
 62
7
  6
CONTINUOUS
 10
547.725694
 20
680.446181
 11
624.977078
 21
680.446181
  0
LINE
  8
1
 62
7
  6
CONTINUOUS
 10
547.725694
 20
655.446181
 11
664.662914
 21
655.446181
  0
LINE
  8
1
 62
7
  6
CONTINUOUS
 10
814.225694
 20
987.312623
 11
814.225693
 21
915.946181
  0
LINE
  8
1
 62
7
  6
CONTINUOUS
 10
765.531081
 20
938.446181
 11
860.611730
 21
938.446181
  0
TEXT
  8
1
 62
7
  6
CONTINUOUS
 10
54.079792
 20
1100.405268
 40
25.000000
 41
0.562500
  1
ｵｰﾊﾞｰﾌﾛｰ ﾁｭｰﾌﾞ付き
  7
KANJI
 50
0.000000
 51
0.000000
  0
TEXT
  8
1
 62
7
  6
CONTINUOUS
 10
279.079792
 20
1112.905268
 40
12.500000
 41
0.500000
  1

  7
KANJI
 50
0.000000
 51
0.000000
  0
TEXT
  8
1
 62
7
  6
CONTINUOUS
 10
279.079792
 20
1100.405268
 40
12.500000
 41
0.500000
  1

  7
KANJI
 50
0.000000
 51
0.000000
  0
LINE
  8
1
 62
7
  6
CONTINUOUS
 10
1273.845486
 20
1053.446181
 11
1285.845486
 21
1050.230790
  0
LINE
  8
1
 62
7
  6
CONTINUOUS
 10
1273.845486
 20
1053.446181
 11
1273.845486
 21
655.126392
  0
LINE
  8
1
 62
7
  6
CONTINUOUS
 10
1273.845486
 20
655.126392
 11
1285.845486
 21
658.341783
  0
DIMENSION
  8
1
 62
7
  6
CONTINUOUS
  2
*D15
 10
1504.430314
 20
915.946181
 11
1504.430314
 21
938.446181
 70
     0
  1
42
 13
1448.845486
 23
915.946181
 14
1448.845486
 24
960.946181
 50
90.000000
  0
LINE
  8
1
 62
7
  6
CONTINUOUS
 10
1438.845486
 20
965.946181
 11
1438.845486
 21
960.946181
  0
LINE
  8
1
 62
7
  6
CONTINUOUS
 10
1438.845486
 20
910.946181
 11
1438.845486
 21
915.946181
  0
ARC
  8
1
 62
7
  6
CONTINUOUS
 10
1444.588822
 20
977.923813
 40
20.000000
 50
-159.581075
 51
-144.685014
  0
LINE
  8
1
 62
7
  6
CONTINUOUS
 10
1433.503281
 20
962.580654
 11
1438.845486
 21
960.946181
  0
ARC
  8
1
 62
7
  6
CONTINUOUS
 10
1436.428958
 20
972.143102
 40
10.000000
 50
-144.685014
 51
-107.011745
  0
ARC
  8
1
 62
7
  6
CONTINUOUS
 10
1385.450462
 20
941.480233
 40
50.000000
 50
36.108694
 51
66.440829
  0
ARC
  8
1
 62
7
  6
CONTINUOUS
 10
1444.547398
 20
898.858268
 40
20.000000
 50
144.236795
 51
159.243593
  0
LINE
  8
1
 62
7
  6
CONTINUOUS
 10
1433.429788
 20
914.241015
 11
1438.845486
 21
915.946181
  0
ARC
  8
1
 62
7
  6
CONTINUOUS
 10
1436.433005
 20
904.702635
 40
10.000000
 50
107.476924
 51
144.236795
  0
ARC
  8
1
 62
7
  6
CONTINUOUS
 10
1228.226972
 20
875.174071
 40
200.000000
 50
-76.815201
 51
-16.815201
  0
ARC
  8
1
 62
7
  6
CONTINUOUS
 10
1126.783903
 20
882.236066
 40
300.000000
 50
-12.497509
 51
-5.315097
  0
LINE
  8
1
 62
7
  6
CONTINUOUS
 10
1425.494000
 20
854.446181
 11
1425.845486
 21
905.946181
  0
ARC
  8
1
 62
7
  6
CONTINUOUS
 10
1294.442921
 20
857.048531
 40
139.426853
 50
-19.533177
 51
-1.069466
  0
ARC
  8
1
 62
7
  6
CONTINUOUS
 10
1104.083909
 20
254.314117
 40
792.527252
 50
67.651389
 51
77.631237
  0
LINE
  8
1
 62
7
  6
CONTINUOUS
 10
1285.845486
 20
1050.230790
 11
1285.845486
 21
1035.507470
  0
ARC
  8
1
 62
7
  6
CONTINUOUS
 10
1151.320277
 20
392.738989
 40
654.316136
 50
67.147055
 51
77.923218
  0
ARC
  8
1
 62
7
  6
CONTINUOUS
 10
1288.845486
 20
1035.507470
 40
3.000000
 50
-180.000000
 51
-102.076782
  0
LINE
  8
1
 62
7
  6
CONTINUOUS
 10
1438.845486
 20
968.446181
 11
1438.845486
 21
965.946181
  0
LINE
  8
1
 62
7
  6
CONTINUOUS
 10
1438.845486
 20
908.446181
 11
1438.845486
 21
910.946181
  0
LINE
  8
1
 62
7
  6
CONTINUOUS
 10
1433.845486
 20
854.446181
 11
1433.866496
 21
904.072417
  0
LINE
  8
1
 62
7
  6
CONTINUOUS
 10
1435.504709
 20
906.744260
 11
1438.845486
 21
908.446181
  0
ARC
  8
1
 62
7
  6
CONTINUOUS
 10
1436.866496
 20
904.071147
 40
3.000000
 50
116.996041
 51
179.975743
  0
DIMENSION
  8
1
 62
7
  6
CONTINUOUS
  2
*D16
 10
1538.117813
 20
968.446181
 11
1538.117813
 21
938.446181
 70
     0
  1
60
 13
1448.845486
 23
968.446181
 14
1448.845486
 24
908.446181
 50
-90.000000
  0
ARC
  8
1
 62
7
  6
CONTINUOUS
 10
1376.931729
 20
934.291933
 40
67.695714
 50
33.455830
 51
65.098871
  0
LINE
  8
1
 62
7
  6
CONTINUOUS
 10
1434.572305
 20
970.582771
 11
1438.845486
 21
968.446181
  0
ARC
  8
1
 62
7
  6
CONTINUOUS
 10
1435.913946
 20
973.266053
 40
3.000000
 50
-146.544170
 51
-116.565051
  0
DIMENSION
  8
1
 62
7
  6
CONTINUOUS
  2
*D17
 10
1199.682184
 20
655.126392
 11
1199.682184
 21
854.286286
 70
     0
  1
398
 13
1263.845486
 23
655.126392
 14
1263.845486
 24
1053.446181
 50
90.000000
  0
DIMENSION
  8
1
 62
7
  6
CONTINUOUS
  2
*D18
 10
1224.065560
 20
655.446181
 11
1224.065560
 21
667.946181
 70
     0
  1
25
 13
1263.845486
 23
655.446181
 14
1263.845486
 24
680.446181
 50
90.000000
  0
DIMENSION
  8
1
 62
7
  6
CONTINUOUS
  2
*D19
 10
1224.065560
 20
680.446181
 11
1224.065560
 21
854.446181
 70
     0
  1
348
 13
1224.065560
 23
680.446181
 14
1263.845486
 24
1028.446181
 50
90.000000
  0
DIMENSION
  8
1
 62
7
  6
CONTINUOUS
  2
*D20
 10
1224.065560
 20
1028.446181
 11
1224.065560
 21
1040.946181
 70
     0
  1
25
 13
1224.065560
 23
1028.446181
 14
1263.845486
 24
1053.446181
 50
90.000000
  0
LINE
  8
1
 62
7
  6
CONTINUOUS
 10
1285.845486
 20
1025.716848
 11
1285.845486
 21
683.653558
  0
LINE
  8
1
 62
7
  6
CONTINUOUS
 10
1285.845486
 20
673.069158
 11
1285.845486
 21
658.341783
  0
ARC
  8
1
 62
7
  6
CONTINUOUS
 10
1228.226972
 20
875.174071
 40
208.000000
 50
-73.304126
 51
-18.178532
  0
ARC
  8
1
 62
7
  6
CONTINUOUS
 10
1288.845486
 20
673.069158
 40
3.000000
 50
106.695874
 51
180.000000
  0
DIMENSION
  8
1
 62
7
  6
CONTINUOUS
  2
*D21
 10
1273.845486
 20
1092.515142
 11
1279.845486
 21
1092.515142
 70
     0
  1
12
 13
1273.845486
 23
1063.446181
 14
1285.845486
 24
1063.446181
 50
0.000000
  0
LINE
  8
1
 62
7
  6
CONTINUOUS
 10
1438.845486
 20
915.946181
 11
1438.845486
 21
960.946181
  0
LINE
  8
1
 62
7
  6
CONTINUOUS
 10
1433.845486
 20
914.371900
 11
1433.845486
 21
960.946181
  0
LINE
  8
1
 62
7
  6
CONTINUOUS
 10
1425.845486
 20
905.946181
 11
1425.845486
 21
970.946181
  0
DIMENSION
  8
1
 62
7
  6
CONTINUOUS
  2
*D22
 10
1413.368124
 20
905.946181
 11
1413.368124
 21
938.446181
 70
     0
  1
70
 13
1415.845486
 23
905.946181
 14
1415.845486
 24
970.946181
 50
90.000000
  0
DIMENSION
  8
1
 62
7
  6
CONTINUOUS
  2
*D23
 10
1249.366139
 20
938.446181
 11
1249.366139
 21
983.446181
 70
     0
  1
90
 13
1263.845486
 23
938.446181
 14
1263.845486
 24
1028.446181
 50
90.000000
  0
LINE
  8
1
 62
7
  6
CONTINUOUS
 10
1380.868124
 20
938.446181
 11
1457.944858
 21
938.446181
  0
LINE
  8
1
 62
7
  6
CONTINUOUS
 10
814.225693
 20
335.469332
 11
814.225693
 21
308.071280
  0
DIMENSION
  8
1
 62
7
  6
CONTINUOUS
  2
*D24
 10
1325.736880
 20
1015.252415
 11
1326.423048
 21
1019.142677
 70
     0
  1
   8
 13
1325.736880
 23
1015.252415
 14
1327.109216
 24
1023.032939
 50
79.997000
  0
DIMENSION
  8
1
 62
7
  6
CONTINUOUS
  2
*D25
 10
1273.845486
 20
1141.267139
 11
1356.345486
 21
1141.267139
 70
     0
  1
165
 13
1273.845486
 23
1063.446181
 14
1438.845486
 24
1063.446181
 50
0.000000
  0
LINE
  8
1
 62
7
  6
CONTINUOUS
 10
1301.144961
 20
1021.951002
 11
1291.158310
 21
1031.937652
  0
LINE
  8
1
 62
7
  6
CONTINUOUS
 10
1316.196596
 20
1017.928976
 11
1306.258888
 21
1028.446181
  0
LINE
  8
1
 62
7
  6
CONTINUOUS
 10
1349.378673
 20
1007.925372
 11
1337.209715
 21
1020.094330
  0
LINE
  8
1
 62
7
  6
CONTINUOUS
 10
1373.999664
 20
999.461707
 11
1360.868117
 21
1012.593254
  0
LINE
  8
1
 62
7
  6
CONTINUOUS
 10
1389.289185
 20
993.744571
 11
1379.531551
 21
1005.967512
  0
LINE
  8
1
 62
7
  6
CONTINUOUS
 10
1402.684375
 20
988.437545
 11
1394.452748
 21
1000.206032
  0
LINE
  8
1
 62
7
  6
CONTINUOUS
 10
1420.023182
 20
977.601239
 11
1413.149167
 21
991.484649
  0
LINE
  8
1
 62
7
  6
CONTINUOUS
 10
1433.845486
 20
889.250476
 11
1425.845486
 21
897.250476
  0
LINE
  8
1
 62
7
  6
CONTINUOUS
 10
1433.845486
 20
874.267122
 11
1425.845486
 21
882.267122
  0
LINE
  8
1
 62
7
  6
CONTINUOUS
 10
1433.845486
 20
854.446181
 11
1425.550613
 21
862.741054
  0
LINE
  8
1
 62
7
  6
CONTINUOUS
 10
1432.017299
 20
833.538718
 11
1424.011431
 21
841.544586
  0
LINE
  8
1
 62
7
  6
CONTINUOUS
 10
1426.538965
 20
812.433707
 11
1420.130002
 21
818.842669
  0
LINE
  8
1
 62
7
  6
CONTINUOUS
 10
1421.159832
 20
797.450769
 11
1414.989366
 21
803.621236
  0
LINE
  8
1
 62
7
  6
CONTINUOUS
 10
1410.852903
 20
775.616202
 11
1404.945781
 21
781.523324
  0
LINE
  8
1
 62
7
  6
CONTINUOUS
 10
1399.757983
 20
757.525814
 11
1393.999765
 21
763.284031
  0
LINE
  8
1
 62
7
  6
CONTINUOUS
 10
1389.002794
 20
743.207655
 11
1383.317511
 21
748.892938
  0
LINE
  8
1
 62
7
  6
CONTINUOUS
 10
1377.011686
 20
729.822398
 11
1371.354431
 21
735.479653
  0
LINE
  8
1
 62
7
  6
CONTINUOUS
 10
1361.331611
 20
715.339297
 11
1355.650310
 21
721.020598
  0
LINE
  8
1
 62
7
  6
CONTINUOUS
 10
1344.511562
 20
702.715687
 11
1338.744282
 21
708.482967
  0
LINE
  8
1
 62
7
  6
CONTINUOUS
 10
1327.630846
 20
692.464274
 11
1321.722191
 21
698.372928
  0
LINE
  8
1
 62
7
  6
CONTINUOUS
 10
1314.218339
 20
685.781661
 11
1307.920181
 21
691.737454
  0
LINE
  8
1
 62
7
  6
CONTINUOUS
 10
1301.336813
 20
680.446181
 11
1295.098261
 21
686.684732
  0
CIRCLE
  8
1
 62
7
  6
CONTINUOUS
 10
814.225694
 20
938.446181
 40
35.000000
  0
TEXT
  8
1
 62
7
  6
CONTINUOUS
 10
54.560220
 20
1061.500000
 40
30.000000
 41
1.000000
  1
排水金具：別売
  7
KANJI
 50
0.000000
 51
0.000000
  0
TEXT
  8
1
 62
7
  6
CONTINUOUS
 10
264.560220
 20
1076.500000
 40
15.000000
 41
0.500000
  1

  7
KANJI
 50
0.000000
 51
0.000000
  0
TEXT
  8
1
 62
7
  6
CONTINUOUS
 10
264.560220
 20
1061.500000
 40
15.000000
 41
0.500000
  1

  7
KANJI
 50
0.000000
 51
0.000000
  0
TEXT
  8
1
 62
7
  6
CONTINUOUS
 10
54.560220
 20
1131.500000
 40
30.000000
 41
0.833333
  1
100％アクリル製
  7
KANJI
 50
0.000000
 51
0.000000
  0
TEXT
  8
1
 62
7
  6
CONTINUOUS
 10
279.560220
 20
1146.500000
 40
15.000000
 41
0.500000
  1

  7
KANJI
 50
0.000000
 51
0.000000
  0
TEXT
  8
1
 62
7
  6
CONTINUOUS
 10
279.560220
 20
1131.500000
 40
15.000000
 41
0.500000
  1

  7
KANJI
 50
0.000000
 51
0.000000
  0
TEXT
  8
1
 62
7
  6
CONTINUOUS
 10
26.345126
 20
1025.050881
 40
20.000000
 41
0.513158
  1
ｶﾗｰ: ﾎﾜｲﾄ/ﾋﾟﾝｸ/ｲｴﾛｰ/ｸﾞﾘｰﾝ/ﾌﾞﾙｰ/ｵﾚﾝｼﾞ6色
  7
KANJI
 50
0.000000
 51
0.000000
  0
TEXT
  8
1
 62
7
  6
CONTINUOUS
 10
416.345126
 20
1035.050881
 40
10.000000
 41
0.500000
  1

  7
KANJI
 50
0.000000
 51
0.000000
  0
TEXT
  8
1
 62
7
  6
CONTINUOUS
 10
416.345126
 20
1025.050881
 40
10.000000
 41
0.500000
  1

  7
KANJI
 50
0.000000
 51
0.000000
  0
TEXT
  8
1
 62
7
  6
CONTINUOUS
 10
54.560220
 20
1166.500000
 40
45.000000
 41
0.607143
  1
JB-460 ﾎﾞｳﾙ詳細図
  7
KANJI
 50
0.345083
 51
0.000000
  0
TEXT
  8
1
 62
7
  6
CONTINUOUS
 10
436.917769
 20
1191.303310
 40
22.500000
 41
0.500000
  1

  7
KANJI
 50
0.345083
 51
0.000000
  0
TEXT
  8
1
 62
7
  6
CONTINUOUS
 10
437.053282
 20
1168.803718
 40
22.500000
 41
0.500000
  1

  7
KANJI
 50
0.345083
 51
0.000000
  0
LINE
  8
1
 62
7
  6
CONTINUOUS
 10
784.225693
 20
321.875000
 11
844.458388
 21
321.875000
  0
ENDSEC
  0
EOF
