  0
SECTION
  2
HEADER
  9
$ACADVER
  1
AC1003
  9
$INSBASE
 10
0.000000
 20
0.000000
  9
$EXTMIN
 10
0.000000
 20
0.000000
  9
$EXTMAX
 10
1820.000000
 20
1285.000000
  9
$LIMMIN
 10
0.000000
 20
0.000000
  9
$LIMMAX
 10
1820.000000
 20
1285.000000
  9
$VIEWCTR
 10
910.000000
 20
642.500000
  9
$VIEWSIZE
 40
1285.000000
  9
$PEXTMIN
 10
0.000000
 20
0.000000
 30
0.000000
  9
$PEXTMAX
 10
364.000000
 20
257.000000
 30
0.000000
  9
$SNAPMODE
 70
     0
  9
$SNAPUNIT
 10
1.000000
 20
1.000000
  9
$SNAPBASE
 10
0.000000
 20
0.000000
  9
$SNAPANG
 50
0.000000
  9
$SNAPISOPAIR
 70
     0
  9
$SNAPSTYLE
 70
     0
  9
$GRIDMODE
 70
     0
  9
$GRIDUNIT
 10
0.000000
 20
0.000000
  9
$ORTHOMODE
 70
     0
  9
$REGENMODE
 70
     1
  9
$FILLMODE
 70
     1
  9
$QTEXTMODE
 70
     0
  9
$DRAGMODE
 70
     2
  9
$LTSCALE
 40
1.250000
  9
$OSMODE
 70
     0
  9
$ATTMODE
 70
     1
  9
$TEXTSIZE
 40
0.200000
  9
$TRACEWID
 40
0.050000
  9
$TEXTSTYLE
  7
STANDARD
  9
$CLAYER
  8
0
  9
$CELTYPE
  6
BYLAYER
  9
$CECOLOR
 62
   256
  9
$DIMSCALE
 40
1.000000
  9
$DIMASZ
 40
1.000000
  9
$DIMEXO
 40
0.000000
  9
$DIMDLI
 40
0.500000
  9
$DIMRND
 40
0.000000
  9
$DIMDLE
 40
0.000000
  9
$DIMEXE
 40
0.000000
  9
$DIMTP
 40
0.000000
  9
$DIMTM
 40
0.000000
  9
$DIMTXT
 40
0.180000
  9
$DIMCEN
 40
0.000000
  9
$DIMTSZ
 40
0.000000
  9
$DIMTOL
 70
     0
  9
$DIMLIM
 70
     0
  9
$DIMTIH
 70
     1
  9
$DIMTOH
 70
     1
  9
$DIMSE1
 70
     0
  9
$DIMSE2
 70
     0
  9
$DIMTAD
 70
     0
  9
$DIMZIN
 70
     0
  9
$DIMBLK
  1

  9
$DIMASO
 70
     0
  9
$DIMSHO
 70
     0
  9
$DIMPOST
  1

  9
$DIMAPOST
  1

  9
$DIMALT
 70
     0
  9
$DIMALTD
 70
     0
  9
$DIMALTF
 40
25.400000
  9
$DIMLFAC
 40
1.000000
  9
$DIMTOFL
 70
     0
  9
$DIMTVP
 40
0.000000
  9
$DIMTIX
 70
     0
  9
$DIMSOXD
 70
     0
  9
$DIMSAH
 70
     0
  9
$DIMBLKL
  1

  9
$DIMBLKR
  1

  9
$LUNITS
 70
     2
  9
$LUPREC
 70
     2
  9
$AXISMODE
 70
     0
  9
$AXISUNIT
 10
1.000000
 20
1.000000
  9
$SKETCHINC
 40
0.000000
  9
$FILLETRAD
 40
0.000000
  9
$AUNITS
 70
     1
  9
$AUPREC
 70
     2
  9
$MENU
  1
ACAD
  9
$ELEVATION
 40
0.000000
  9
$THICKNESS
 40
0.000000
  9
$VIEWDIR
 10
0.000000
 20
0.000000
 30
1.000000
  9
$LIMCHECK
 70
     1
  9
$BLIPMODE
 70
     1
  9
$CHAMFERA
 40
0.000000
  9
$CHAMFERB
 40
0.000000
  9
$FASTZOOM
 70
     1
  9
$SKPOLY
 70
     0
  9
$TDCREATE
 40
0.000000
  9
$TDUPDATE
 40
0.000000
  9
$TDINDWG
 40
0.000000
  9
$TDUSRTIMER
 40
0.000000
  9
$USRTIMER
 70
     1
  9
$ANGBASE
 50
0.000000
  9
$ANGDIR
 70
     0
  9
$PDMODE
 70
     0
  9
$PDSIZE
 40
0.000000
  9
$PLINEWID
 40
0.000000
  9
$COORDS
 70
     2
  9
$USERI1
 70
     0
  9
$USERI2
 70
     0
  9
$USERI3
 70
     0
  9
$USERI4
 70
     0
  9
$USERI5
 70
     0
  9
$USERR1
 40
0.000000
  9
$USERR2
 40
0.000000
  9
$USERR3
 40
0.000000
  9
$USERR4
 40
0.000000
  9
$USERR5
 40
0.000000
  0
ENDSEC
  0
SECTION
  2
TABLES
  0
TABLE
  2
LTYPE
 70
     5
  0
LTYPE
  2
CONTINUOUS
 70
    64
  3
Solid line
 72
    65
 73
     0
 40
0.0
  0
LTYPE
  2
HIDDEN
 70
    64
  3
------------------------
 72
    65
 73
     2
 40
12.6
 49
8.4
 49
-4.2
  0
LTYPE
  2
DOT
 70
    64
  3
････････････････････････
 72
    65
 73
     2
 40
8.0
 49
6.0
 49
-2.0
  0
LTYPE
  2
DASHDOT
 70
    64
  3
--･--･--･--･--･--･--･--
 72
    65
 73
     4
 40
50.5
 49
30.0
 49
-9.0
 49
2.5
 49
-9.0
  0
LTYPE
  2
DIVIDE
 70
    64
  3
--･･--･･--･･--･･--･･--
 72
    65
 73
     6
 40
58.0
 49
30.0
 49
-9.0
 49
2.5
 49
-5.0
 49
2.5
 49
-9.0
  0
ENDTAB
  0
TABLE
  2
LAYER
 70
1
  0
LAYER
  2
1
 70
64
 62
7
  6
CONTINUOUS
  0
ENDTAB
  0
TABLE
  2
STYLE
 70
     2
  0
STYLE
  2
STANDARD
 70
    64
 40
0.0
 41
1.0
 50
0.0
 71
     0
 42
0.2
  3
TXT
  4

  0
STYLE
  2
KANJI
 70
    64
 40
0.0
 41
1.0
 50
0.0
 71
     0
 42
0.2
  3
TXT
  4
BIGFONT
  0
ENDTAB
  0
TABLE
  2
VIEW
 70
     0
  0
ENDTAB
  0
ENDSEC
  0
SECTION
  2
BLOCKS
  0
BLOCK
  8
1
 62
7
  6
CONTINUOUS
  2
*D1
 70
    65
 10
0.0
 20
0.0
  0
LINE
  8
1
 62
7
  6
CONTINUOUS
 10
756.725693
 20
868.741319
 11
871.725693
 21
868.741319
  0
LINE
  8
1
 62
7
  6
CONTINUOUS
 10
756.725693
 20
858.741319
 11
756.725693
 21
978.446181
  0
LINE
  8
1
 62
7
  6
CONTINUOUS
 10
871.725693
 20
858.741319
 11
871.725693
 21
978.446181
  0
CIRCLE
  8
1
 62
7
  6
CONTINUOUS
 10
756.725693
 20
868.741319
 40
1.500000
  0
CIRCLE
  8
1
 62
7
  6
CONTINUOUS
 10
756.725693
 20
868.741319
 40
0.750000
  0
CIRCLE
  8
1
 62
7
  6
CONTINUOUS
 10
871.725693
 20
868.741319
 40
1.500000
  0
CIRCLE
  8
1
 62
7
  6
CONTINUOUS
 10
871.725693
 20
868.741319
 40
0.750000
  0
TEXT
  8
1
 62
7
  6
CONTINUOUS
 10
789.225693
 20
868.741319
 40
20.000000
 41
0.625000
  1
115φ
  7
KANJI
 50
0.000000
 51
30.000000
  0
ENDBLK
  0
BLOCK
  8
1
 62
7
  6
CONTINUOUS
  2
*D2
 70
    65
 10
0.0
 20
0.0
  0
LINE
  8
1
 62
7
  6
CONTINUOUS
 10
589.225693
 20
1209.149306
 11
1039.225693
 21
1209.149306
  0
LINE
  8
1
 62
7
  6
CONTINUOUS
 10
589.225693
 20
1219.149306
 11
589.225693
 21
1133.446181
  0
LINE
  8
1
 62
7
  6
CONTINUOUS
 10
1039.225693
 20
1219.149306
 11
1039.225693
 21
1133.446181
  0
CIRCLE
  8
1
 62
7
  6
CONTINUOUS
 10
589.225693
 20
1209.149306
 40
1.500000
  0
CIRCLE
  8
1
 62
7
  6
CONTINUOUS
 10
589.225693
 20
1209.149306
 40
0.750000
  0
CIRCLE
  8
1
 62
7
  6
CONTINUOUS
 10
1039.225693
 20
1209.149306
 40
1.500000
  0
CIRCLE
  8
1
 62
7
  6
CONTINUOUS
 10
1039.225693
 20
1209.149306
 40
0.750000
  0
TEXT
  8
1
 62
7
  6
CONTINUOUS
 10
799.225693
 20
1209.149306
 40
20.000000
 41
0.500000
  1
450
  7
KANJI
 50
0.000000
 51
30.000000
  0
ENDBLK
  0
BLOCK
  8
1
 62
7
  6
CONTINUOUS
  2
*D3
 70
    65
 10
0.0
 20
0.0
  0
LINE
  8
1
 62
7
  6
CONTINUOUS
 10
589.225693
 20
1173.446181
 11
614.225693
 21
1173.446181
  0
LINE
  8
1
 62
7
  6
CONTINUOUS
 10
589.225693
 20
1183.446181
 11
589.225693
 21
1133.446181
  0
LINE
  8
1
 62
7
  6
CONTINUOUS
 10
614.225693
 20
1183.446181
 11
614.225693
 21
1133.446181
  0
CIRCLE
  8
1
 62
7
  6
CONTINUOUS
 10
589.225693
 20
1173.446181
 40
1.500000
  0
CIRCLE
  8
1
 62
7
  6
CONTINUOUS
 10
589.225693
 20
1173.446181
 40
0.750000
  0
CIRCLE
  8
1
 62
7
  6
CONTINUOUS
 10
614.225693
 20
1173.446181
 40
1.500000
  0
CIRCLE
  8
1
 62
7
  6
CONTINUOUS
 10
614.225693
 20
1173.446181
 40
0.750000
  0
TEXT
  8
1
 62
7
  6
CONTINUOUS
 10
591.725693
 20
1173.446181
 40
20.000000
 41
0.500000
  1
25
  7
KANJI
 50
0.000000
 51
30.000000
  0
ENDBLK
  0
BLOCK
  8
1
 62
7
  6
CONTINUOUS
  2
*D4
 70
    65
 10
0.0
 20
0.0
  0
LINE
  8
1
 62
7
  6
CONTINUOUS
 10
614.225693
 20
1173.446181
 11
1014.225693
 21
1173.446181
  0
LINE
  8
1
 62
7
  6
CONTINUOUS
 10
1014.225693
 20
1183.446181
 11
1014.225693
 21
1133.446181
  0
CIRCLE
  8
1
 62
7
  6
CONTINUOUS
 10
1014.225693
 20
1173.446181
 40
1.500000
  0
CIRCLE
  8
1
 62
7
  6
CONTINUOUS
 10
1014.225693
 20
1173.446181
 40
0.750000
  0
TEXT
  8
1
 62
7
  6
CONTINUOUS
 10
799.225693
 20
1173.446181
 40
20.000000
 41
0.500000
  1
400
  7
KANJI
 50
0.000000
 51
30.000000
  0
ENDBLK
  0
BLOCK
  8
1
 62
7
  6
CONTINUOUS
  2
*D5
 70
    65
 10
0.0
 20
0.0
  0
LINE
  8
1
 62
7
  6
CONTINUOUS
 10
1014.225693
 20
1173.446181
 11
1039.225693
 21
1173.446181
  0
LINE
  8
1
 62
7
  6
CONTINUOUS
 10
1039.225693
 20
1183.446181
 11
1039.225693
 21
1133.446181
  0
CIRCLE
  8
1
 62
7
  6
CONTINUOUS
 10
1039.225693
 20
1173.446181
 40
1.500000
  0
CIRCLE
  8
1
 62
7
  6
CONTINUOUS
 10
1039.225693
 20
1173.446181
 40
0.750000
  0
TEXT
  8
1
 62
7
  6
CONTINUOUS
 10
1016.725693
 20
1173.446181
 40
20.000000
 41
0.500000
  1
25
  7
KANJI
 50
0.000000
 51
30.000000
  0
ENDBLK
  0
BLOCK
  8
1
 62
7
  6
CONTINUOUS
  2
*D6
 70
    65
 10
0.0
 20
0.0
  0
LINE
  8
1
 62
7
  6
CONTINUOUS
 10
522.031250
 20
673.446181
 11
522.031250
 21
1123.446181
  0
LINE
  8
1
 62
7
  6
CONTINUOUS
 10
512.031250
 20
673.446181
 11
579.225693
 21
673.446181
  0
LINE
  8
1
 62
7
  6
CONTINUOUS
 10
512.031250
 20
1123.446181
 11
579.225693
 21
1123.446181
  0
CIRCLE
  8
1
 62
7
  6
CONTINUOUS
 10
522.031250
 20
673.446181
 40
1.500000
  0
CIRCLE
  8
1
 62
7
  6
CONTINUOUS
 10
522.031250
 20
673.446181
 40
0.750000
  0
CIRCLE
  8
1
 62
7
  6
CONTINUOUS
 10
522.031250
 20
1123.446181
 40
1.500000
  0
CIRCLE
  8
1
 62
7
  6
CONTINUOUS
 10
522.031250
 20
1123.446181
 40
0.750000
  0
TEXT
  8
1
 62
7
  6
CONTINUOUS
 10
522.031250
 20
883.446181
 40
20.000000
 41
0.500000
  1
450
  7
KANJI
 50
90.000000
 51
30.000000
  0
ENDBLK
  0
BLOCK
  8
1
 62
7
  6
CONTINUOUS
  2
*D7
 70
    65
 10
0.0
 20
0.0
  0
LINE
  8
1
 62
7
  6
CONTINUOUS
 10
555.494792
 20
988.446181
 11
555.494792
 21
1123.446181
  0
LINE
  8
1
 62
7
  6
CONTINUOUS
 10
545.494792
 20
988.446181
 11
579.225693
 21
988.446181
  0
LINE
  8
1
 62
7
  6
CONTINUOUS
 10
545.494792
 20
1123.446181
 11
579.225693
 21
1123.446181
  0
CIRCLE
  8
1
 62
7
  6
CONTINUOUS
 10
555.494792
 20
988.446181
 40
1.500000
  0
CIRCLE
  8
1
 62
7
  6
CONTINUOUS
 10
555.494792
 20
988.446181
 40
0.750000
  0
CIRCLE
  8
1
 62
7
  6
CONTINUOUS
 10
555.494792
 20
1123.446181
 40
1.500000
  0
CIRCLE
  8
1
 62
7
  6
CONTINUOUS
 10
555.494792
 20
1123.446181
 40
0.750000
  0
TEXT
  8
1
 62
7
  6
CONTINUOUS
 10
555.494792
 20
1040.946181
 40
20.000000
 41
0.500000
  1
135
  7
KANJI
 50
90.000000
 51
30.000000
  0
ENDBLK
  0
BLOCK
  8
1
 62
7
  6
CONTINUOUS
  2
*D8
 70
    65
 10
0.0
 20
0.0
  0
LINE
  8
1
 62
7
  6
CONTINUOUS
 10
756.725693
 20
258.666613
 11
879.225693
 21
258.666613
  0
LINE
  8
1
 62
7
  6
CONTINUOUS
 10
756.725693
 20
248.666613
 11
756.725693
 21
314.951389
  0
LINE
  8
1
 62
7
  6
CONTINUOUS
 10
879.225693
 20
248.666613
 11
879.225693
 21
314.951389
  0
CIRCLE
  8
1
 62
7
  6
CONTINUOUS
 10
756.725693
 20
258.666613
 40
1.500000
  0
CIRCLE
  8
1
 62
7
  6
CONTINUOUS
 10
756.725693
 20
258.666613
 40
0.750000
  0
CIRCLE
  8
1
 62
7
  6
CONTINUOUS
 10
879.225693
 20
258.666613
 40
1.500000
  0
CIRCLE
  8
1
 62
7
  6
CONTINUOUS
 10
879.225693
 20
258.666613
 40
0.750000
  0
TEXT
  8
1
 62
7
  6
CONTINUOUS
 10
802.975693
 20
258.666613
 40
20.000000
 41
0.500000
  1
130
  7
KANJI
 50
0.000000
 51
30.000000
  0
ENDBLK
  0
BLOCK
  8
1
 62
7
  6
CONTINUOUS
  2
*D9
 70
    65
 10
0.0
 20
0.0
  0
LINE
  8
1
 62
7
  6
CONTINUOUS
 10
517.676357
 20
517.951389
 11
517.676357
 21
324.951389
  0
LINE
  8
1
 62
7
  6
CONTINUOUS
 10
507.676357
 20
517.951389
 11
579.225693
 21
517.951389
  0
LINE
  8
1
 62
7
  6
CONTINUOUS
 10
507.676357
 20
324.951389
 11
579.225693
 21
324.951389
  0
CIRCLE
  8
1
 62
7
  6
CONTINUOUS
 10
517.676357
 20
517.951389
 40
1.500000
  0
CIRCLE
  8
1
 62
7
  6
CONTINUOUS
 10
517.676357
 20
517.951389
 40
0.750000
  0
CIRCLE
  8
1
 62
7
  6
CONTINUOUS
 10
517.676357
 20
324.951389
 40
1.500000
  0
CIRCLE
  8
1
 62
7
  6
CONTINUOUS
 10
517.676357
 20
324.951389
 40
0.750000
  0
TEXT
  8
1
 62
7
  6
CONTINUOUS
 10
517.676357
 20
406.451389
 40
20.000000
 41
0.500000
  1
193
  7
KANJI
 50
90.000000
 51
30.000000
  0
ENDBLK
  0
BLOCK
  8
1
 62
7
  6
CONTINUOUS
  2
*D10
 70
    65
 10
0.0
 20
0.0
  0
LINE
  8
1
 62
7
  6
CONTINUOUS
 10
537.529630
 20
522.951389
 11
537.529630
 21
481.258265
  0
LINE
  8
1
 62
7
  6
CONTINUOUS
 10
527.529630
 20
517.951389
 11
579.225693
 21
517.951389
  0
LINE
  8
1
 62
7
  6
CONTINUOUS
 10
527.529630
 20
505.951389
 11
579.225693
 21
505.951389
  0
CIRCLE
  8
1
 62
7
  6
CONTINUOUS
 10
537.529630
 20
517.951389
 40
1.500000
  0
CIRCLE
  8
1
 62
7
  6
CONTINUOUS
 10
537.529630
 20
517.951389
 40
0.750000
  0
CIRCLE
  8
1
 62
7
  6
CONTINUOUS
 10
537.529630
 20
505.951389
 40
1.500000
  0
CIRCLE
  8
1
 62
7
  6
CONTINUOUS
 10
537.529630
 20
505.951389
 40
0.750000
  0
TEXT
  8
1
 62
7
  6
CONTINUOUS
 10
537.529630
 20
486.258265
 40
20.000000
 41
0.500000
  1
12
  7
KANJI
 50
90.000000
 51
30.000000
  0
ENDBLK
  0
BLOCK
  8
1
 62
7
  6
CONTINUOUS
  2
*D11
 70
    65
 10
0.0
 20
0.0
  0
LINE
  8
1
 62
7
  6
CONTINUOUS
 10
589.225693
 20
600.974824
 11
1039.225693
 21
600.974824
  0
LINE
  8
1
 62
7
  6
CONTINUOUS
 10
589.225693
 20
610.974824
 11
589.225693
 21
527.951389
  0
LINE
  8
1
 62
7
  6
CONTINUOUS
 10
1039.225693
 20
610.974824
 11
1039.225693
 21
527.951389
  0
CIRCLE
  8
1
 62
7
  6
CONTINUOUS
 10
589.225693
 20
600.974824
 40
1.500000
  0
CIRCLE
  8
1
 62
7
  6
CONTINUOUS
 10
589.225693
 20
600.974824
 40
0.750000
  0
CIRCLE
  8
1
 62
7
  6
CONTINUOUS
 10
1039.225693
 20
600.974824
 40
1.500000
  0
CIRCLE
  8
1
 62
7
  6
CONTINUOUS
 10
1039.225693
 20
600.974824
 40
0.750000
  0
TEXT
  8
1
 62
7
  6
CONTINUOUS
 10
799.225693
 20
600.974824
 40
20.000000
 41
0.500000
  1
450
  7
KANJI
 50
0.000000
 51
30.000000
  0
ENDBLK
  0
BLOCK
  8
1
 62
7
  6
CONTINUOUS
  2
*D12
 70
    65
 10
0.0
 20
0.0
  0
LINE
  8
1
 62
7
  6
CONTINUOUS
 10
1419.572261
 20
930.946181
 11
1419.572261
 21
1045.946181
  0
LINE
  8
1
 62
7
  6
CONTINUOUS
 10
1409.572261
 20
930.946181
 11
1458.311580
 21
930.946181
  0
LINE
  8
1
 62
7
  6
CONTINUOUS
 10
1409.572261
 20
1045.946181
 11
1458.311580
 21
1045.946181
  0
CIRCLE
  8
1
 62
7
  6
CONTINUOUS
 10
1419.572261
 20
930.946181
 40
1.500000
  0
CIRCLE
  8
1
 62
7
  6
CONTINUOUS
 10
1419.572261
 20
930.946181
 40
0.750000
  0
CIRCLE
  8
1
 62
7
  6
CONTINUOUS
 10
1419.572261
 20
1045.946181
 40
1.500000
  0
CIRCLE
  8
1
 62
7
  6
CONTINUOUS
 10
1419.572261
 20
1045.946181
 40
0.750000
  0
TEXT
  8
1
 62
7
  6
CONTINUOUS
 10
1419.572261
 20
973.446181
 40
20.000000
 41
0.500000
  1
115
  7
KANJI
 50
90.000000
 51
30.000000
  0
ENDBLK
  0
BLOCK
  8
1
 62
7
  6
CONTINUOUS
  2
*D13
 70
    65
 10
0.0
 20
0.0
  0
LINE
  8
1
 62
7
  6
CONTINUOUS
 10
1556.307713
 20
924.946181
 11
1556.307713
 21
1053.446181
  0
LINE
  8
1
 62
7
  6
CONTINUOUS
 10
1566.307713
 20
924.946181
 11
1498.311580
 21
924.946181
  0
LINE
  8
1
 62
7
  6
CONTINUOUS
 10
1566.307713
 20
1053.446181
 11
1499.879083
 21
1053.446181
  0
CIRCLE
  8
1
 62
7
  6
CONTINUOUS
 10
1556.307713
 20
924.946181
 40
1.500000
  0
CIRCLE
  8
1
 62
7
  6
CONTINUOUS
 10
1556.307713
 20
924.946181
 40
0.750000
  0
CIRCLE
  8
1
 62
7
  6
CONTINUOUS
 10
1556.307713
 20
1053.446181
 40
1.500000
  0
CIRCLE
  8
1
 62
7
  6
CONTINUOUS
 10
1556.307713
 20
1053.446181
 40
0.750000
  0
TEXT
  8
1
 62
7
  6
CONTINUOUS
 10
1556.307713
 20
974.196181
 40
20.000000
 41
0.500000
  1
130
  7
KANJI
 50
90.000000
 51
30.000000
  0
ENDBLK
  0
BLOCK
  8
1
 62
7
  6
CONTINUOUS
  2
*D14
 70
    65
 10
0.0
 20
0.0
  0
LINE
  8
1
 62
7
  6
CONTINUOUS
 10
1532.249354
 20
942.446181
 11
1532.249354
 21
1034.446181
  0
LINE
  8
1
 62
7
  6
CONTINUOUS
 10
1542.249354
 20
942.446181
 11
1498.463542
 21
942.446181
  0
LINE
  8
1
 62
7
  6
CONTINUOUS
 10
1542.249354
 20
1034.446181
 11
1498.908012
 21
1034.446181
  0
CIRCLE
  8
1
 62
7
  6
CONTINUOUS
 10
1532.249354
 20
942.446181
 40
1.500000
  0
CIRCLE
  8
1
 62
7
  6
CONTINUOUS
 10
1532.249354
 20
942.446181
 40
0.750000
  0
CIRCLE
  8
1
 62
7
  6
CONTINUOUS
 10
1532.249354
 20
1034.446181
 40
1.500000
  0
CIRCLE
  8
1
 62
7
  6
CONTINUOUS
 10
1532.249354
 20
1034.446181
 40
0.750000
  0
TEXT
  8
1
 62
7
  6
CONTINUOUS
 10
1532.249354
 20
978.446181
 40
20.000000
 41
0.500000
  1
92
  7
KANJI
 50
90.000000
 51
30.000000
  0
ENDBLK
  0
BLOCK
  8
1
 62
7
  6
CONTINUOUS
  2
*D15
 70
    65
 10
0.0
 20
0.0
  0
LINE
  8
1
 62
7
  6
CONTINUOUS
 10
1273.311580
 20
1168.725216
 11
1295.311580
 21
1168.725216
  0
LINE
  8
1
 62
7
  6
CONTINUOUS
 10
1278.311580
 20
1178.725216
 11
1278.311580
 21
1133.446181
  0
LINE
  8
1
 62
7
  6
CONTINUOUS
 10
1290.311580
 20
1178.725216
 11
1290.311580
 21
1133.446181
  0
CIRCLE
  8
1
 62
7
  6
CONTINUOUS
 10
1278.311580
 20
1168.725216
 40
1.500000
  0
CIRCLE
  8
1
 62
7
  6
CONTINUOUS
 10
1278.311580
 20
1168.725216
 40
0.750000
  0
CIRCLE
  8
1
 62
7
  6
CONTINUOUS
 10
1290.311580
 20
1168.725216
 40
1.500000
  0
CIRCLE
  8
1
 62
7
  6
CONTINUOUS
 10
1290.311580
 20
1168.725216
 40
0.750000
  0
TEXT
  8
1
 62
7
  6
CONTINUOUS
 10
1274.311580
 20
1168.725216
 40
20.000000
 41
0.500000
  1
12
  7
KANJI
 50
0.000000
 51
30.000000
  0
ENDBLK
  0
BLOCK
  8
1
 62
7
  6
CONTINUOUS
  2
*D16
 70
    65
 10
0.0
 20
0.0
  0
LINE
  8
1
 62
7
  6
CONTINUOUS
 10
1278.311580
 20
1209.149306
 11
1488.908012
 21
1209.149306
  0
LINE
  8
1
 62
7
  6
CONTINUOUS
 10
1278.311580
 20
1219.149306
 11
1278.311580
 21
1133.446181
  0
LINE
  8
1
 62
7
  6
CONTINUOUS
 10
1488.908012
 20
1219.149306
 11
1488.908012
 21
1133.446181
  0
CIRCLE
  8
1
 62
7
  6
CONTINUOUS
 10
1278.311580
 20
1209.149306
 40
1.500000
  0
CIRCLE
  8
1
 62
7
  6
CONTINUOUS
 10
1278.311580
 20
1209.149306
 40
0.750000
  0
CIRCLE
  8
1
 62
7
  6
CONTINUOUS
 10
1488.908012
 20
1209.149306
 40
1.500000
  0
CIRCLE
  8
1
 62
7
  6
CONTINUOUS
 10
1488.908012
 20
1209.149306
 40
0.750000
  0
TEXT
  8
1
 62
7
  6
CONTINUOUS
 10
1368.609796
 20
1209.149306
 40
20.000000
 41
0.500000
  1
193
  7
KANJI
 50
0.000000
 51
30.000000
  0
ENDBLK
  0
BLOCK
  8
1
 62
7
  6
CONTINUOUS
  2
*D17
 70
    65
 10
0.0
 20
0.0
  0
LINE
  8
1
 62
7
  6
CONTINUOUS
 10
1180.502162
 20
1123.446181
 11
1180.502162
 21
673.446181
  0
LINE
  8
1
 62
7
  6
CONTINUOUS
 10
1170.502162
 20
1123.446181
 11
1268.311580
 21
1123.446181
  0
LINE
  8
1
 62
7
  6
CONTINUOUS
 10
1170.502162
 20
673.446181
 11
1268.311580
 21
673.446181
  0
CIRCLE
  8
1
 62
7
  6
CONTINUOUS
 10
1180.502162
 20
1123.446181
 40
1.500000
  0
CIRCLE
  8
1
 62
7
  6
CONTINUOUS
 10
1180.502162
 20
1123.446181
 40
0.750000
  0
CIRCLE
  8
1
 62
7
  6
CONTINUOUS
 10
1180.502162
 20
673.446181
 40
1.500000
  0
CIRCLE
  8
1
 62
7
  6
CONTINUOUS
 10
1180.502162
 20
673.446181
 40
0.750000
  0
TEXT
  8
1
 62
7
  6
CONTINUOUS
 10
1180.502162
 20
883.446181
 40
20.000000
 41
0.500000
  1
450
  7
KANJI
 50
90.000000
 51
30.000000
  0
ENDBLK
  0
BLOCK
  8
1
 62
7
  6
CONTINUOUS
  2
*D18
 70
    65
 10
0.0
 20
0.0
  0
LINE
  8
1
 62
7
  6
CONTINUOUS
 10
1202.729224
 20
1123.446181
 11
1202.729224
 21
1096.936188
  0
LINE
  8
1
 62
7
  6
CONTINUOUS
 10
1192.729224
 20
1123.446181
 11
1268.311580
 21
1123.446181
  0
LINE
  8
1
 62
7
  6
CONTINUOUS
 10
1192.729224
 20
1096.936188
 11
1268.311580
 21
1096.936188
  0
CIRCLE
  8
1
 62
7
  6
CONTINUOUS
 10
1202.729224
 20
1123.446181
 40
1.500000
  0
CIRCLE
  8
1
 62
7
  6
CONTINUOUS
 10
1202.729224
 20
1123.446181
 40
0.750000
  0
CIRCLE
  8
1
 62
7
  6
CONTINUOUS
 10
1202.729224
 20
1096.936188
 40
1.500000
  0
CIRCLE
  8
1
 62
7
  6
CONTINUOUS
 10
1202.729224
 20
1096.936188
 40
0.750000
  0
TEXT
  8
1
 62
7
  6
CONTINUOUS
 10
1202.729224
 20
1100.191184
 40
20.000000
 41
0.500000
  1
25
  7
KANJI
 50
90.000000
 51
30.000000
  0
ENDBLK
  0
BLOCK
  8
1
 62
7
  6
CONTINUOUS
  2
*D19
 70
    65
 10
0.0
 20
0.0
  0
LINE
  8
1
 62
7
  6
CONTINUOUS
 10
1202.729224
 20
1096.936188
 11
1202.729224
 21
700.956173
  0
LINE
  8
1
 62
7
  6
CONTINUOUS
 10
1192.729224
 20
700.956173
 11
1268.311580
 21
700.956173
  0
CIRCLE
  8
1
 62
7
  6
CONTINUOUS
 10
1202.729224
 20
700.956173
 40
1.500000
  0
CIRCLE
  8
1
 62
7
  6
CONTINUOUS
 10
1202.729224
 20
700.956173
 40
0.750000
  0
TEXT
  8
1
 62
7
  6
CONTINUOUS
 10
1202.729224
 20
883.946181
 40
20.000000
 41
0.500000
  1
400
  7
KANJI
 50
90.000000
 51
30.000000
  0
ENDBLK
  0
BLOCK
  8
1
 62
7
  6
CONTINUOUS
  2
*D20
 70
    65
 10
0.0
 20
0.0
  0
LINE
  8
1
 62
7
  6
CONTINUOUS
 10
1202.729224
 20
700.956173
 11
1202.729224
 21
674.446181
  0
LINE
  8
1
 62
7
  6
CONTINUOUS
 10
1192.729224
 20
674.446181
 11
1268.311580
 21
674.446181
  0
CIRCLE
  8
1
 62
7
  6
CONTINUOUS
 10
1202.729224
 20
674.446181
 40
1.500000
  0
CIRCLE
  8
1
 62
7
  6
CONTINUOUS
 10
1202.729224
 20
674.446181
 40
0.750000
  0
TEXT
  8
1
 62
7
  6
CONTINUOUS
 10
1202.729224
 20
677.701177
 40
20.000000
 41
0.500000
  1
25
  7
KANJI
 50
90.000000
 51
30.000000
  0
ENDBLK
  0
BLOCK
  8
1
 62
7
  6
CONTINUOUS
  2
*D21
 70
    65
 10
0.0
 20
0.0
  0
LINE
  8
1
 62
7
  6
CONTINUOUS
 10
1228.131580
 20
988.446181
 11
1228.131580
 21
1096.936188
  0
LINE
  8
1
 62
7
  6
CONTINUOUS
 10
1218.131580
 20
988.446181
 11
1268.311580
 21
988.446181
  0
LINE
  8
1
 62
7
  6
CONTINUOUS
 10
1218.131580
 20
1096.936188
 11
1268.311580
 21
1096.936188
  0
CIRCLE
  8
1
 62
7
  6
CONTINUOUS
 10
1228.131580
 20
988.446181
 40
1.500000
  0
CIRCLE
  8
1
 62
7
  6
CONTINUOUS
 10
1228.131580
 20
988.446181
 40
0.750000
  0
CIRCLE
  8
1
 62
7
  6
CONTINUOUS
 10
1228.131580
 20
1096.936188
 40
1.500000
  0
CIRCLE
  8
1
 62
7
  6
CONTINUOUS
 10
1228.131580
 20
1096.936188
 40
0.750000
  0
TEXT
  8
1
 62
7
  6
CONTINUOUS
 10
1228.131580
 20
1027.691184
 40
20.000000
 41
0.500000
  1
110
  7
KANJI
 50
90.000000
 51
30.000000
  0
ENDBLK
  0
ENDSEC
  0
SECTION
  2
ENTITIES
  0
TEXT
  8
1
 62
7
  6
CONTINUOUS
 10
39.900000
 20
144.259375
 40
24.750000
 41
0.800000
  1
取引先：
  7
KANJI
 50
0.000000
 51
0.000000
  0
TEXT
  8
1
 62
7
  6
CONTINUOUS
 10
119.100000
 20
156.634375
 40
12.375000
 41
0.400000
  1

  7
KANJI
 50
0.000000
 51
0.000000
  0
TEXT
  8
1
 62
7
  6
CONTINUOUS
 10
119.100000
 20
144.259375
 40
12.375000
 41
0.400000
  1

  7
KANJI
 50
0.000000
 51
0.000000
  0
TEXT
  8
1
 62
7
  6
CONTINUOUS
 10
39.900000
 20
94.759375
 40
24.750000
 41
0.800000
  1
物件名：
  7
KANJI
 50
0.000000
 51
0.000000
  0
TEXT
  8
1
 62
7
  6
CONTINUOUS
 10
119.100000
 20
107.134375
 40
12.375000
 41
0.400000
  1

  7
KANJI
 50
0.000000
 51
0.000000
  0
TEXT
  8
1
 62
7
  6
CONTINUOUS
 10
119.100000
 20
94.759375
 40
12.375000
 41
0.400000
  1

  7
KANJI
 50
0.000000
 51
0.000000
  0
TEXT
  8
1
 62
7
  6
CONTINUOUS
 10
39.900000
 20
45.259375
 40
24.750000
 41
0.700000
  1
納 期：
  7
KANJI
 50
0.000000
 51
0.000000
  0
TEXT
  8
1
 62
7
  6
CONTINUOUS
 10
109.200000
 20
57.634375
 40
12.375000
 41
0.400000
  1

  7
KANJI
 50
0.000000
 51
0.000000
  0
TEXT
  8
1
 62
7
  6
CONTINUOUS
 10
109.200000
 20
45.259375
 40
12.375000
 41
0.400000
  1

  7
KANJI
 50
0.000000
 51
0.000000
  0
LINE
  8
1
 62
7
  6
CONTINUOUS
 10
30.000000
 20
188.500000
 11
30.000000
 21
40.000000
  0
LINE
  8
1
 62
7
  6
CONTINUOUS
 10
30.000000
 20
188.500000
 11
327.000000
 21
188.500000
  0
LINE
  8
1
 62
7
  6
CONTINUOUS
 10
327.000000
 20
188.500000
 11
327.000000
 21
139.000000
  0
LINE
  8
1
 62
7
  6
CONTINUOUS
 10
327.000000
 20
139.000000
 11
30.000000
 21
139.000000
  0
LINE
  8
1
 62
7
  6
CONTINUOUS
 10
30.000000
 20
139.000000
 11
30.000000
 21
89.500000
  0
LINE
  8
1
 62
7
  6
CONTINUOUS
 10
30.000000
 20
89.500000
 11
327.000000
 21
89.500000
  0
LINE
  8
1
 62
7
  6
CONTINUOUS
 10
327.000000
 20
89.500000
 11
327.000000
 21
139.000000
  0
LINE
  8
1
 62
7
  6
CONTINUOUS
 10
327.000000
 20
139.000000
 11
327.000000
 21
40.000000
  0
LINE
  8
1
 62
7
  6
CONTINUOUS
 10
327.000000
 20
40.000000
 11
30.000000
 21
40.000000
  0
TEXT
  8
1
 62
7
  6
CONTINUOUS
 10
341.850000
 20
144.259375
 40
24.750000
 41
0.800000
  1
　色柄：
  7
KANJI
 50
0.000000
 51
0.000000
  0
TEXT
  8
1
 62
7
  6
CONTINUOUS
 10
421.050000
 20
156.634375
 40
12.375000
 41
0.400000
  1

  7
KANJI
 50
0.000000
 51
0.000000
  0
TEXT
  8
1
 62
7
  6
CONTINUOUS
 10
421.050000
 20
144.259375
 40
12.375000
 41
0.400000
  1

  7
KANJI
 50
0.000000
 51
0.000000
  0
TEXT
  8
1
 62
7
  6
CONTINUOUS
 10
341.850000
 20
94.759375
 40
24.750000
 41
0.800000
  1
　厚み：
  7
KANJI
 50
0.000000
 51
0.000000
  0
TEXT
  8
1
 62
7
  6
CONTINUOUS
 10
421.050000
 20
107.134375
 40
12.375000
 41
0.400000
  1

  7
KANJI
 50
0.000000
 51
0.000000
  0
TEXT
  8
1
 62
7
  6
CONTINUOUS
 10
421.050000
 20
94.759375
 40
12.375000
 41
0.400000
  1

  7
KANJI
 50
0.000000
 51
0.000000
  0
TEXT
  8
1
 62
7
  6
CONTINUOUS
 10
341.850000
 20
45.259375
 40
24.750000
 41
0.800000
  1
付属品：
  7
KANJI
 50
0.000000
 51
0.000000
  0
TEXT
  8
1
 62
7
  6
CONTINUOUS
 10
421.050000
 20
57.634375
 40
12.375000
 41
0.400000
  1

  7
KANJI
 50
0.000000
 51
0.000000
  0
TEXT
  8
1
 62
7
  6
CONTINUOUS
 10
421.050000
 20
45.259375
 40
12.375000
 41
0.400000
  1

  7
KANJI
 50
0.000000
 51
0.000000
  0
LINE
  8
1
 62
7
  6
CONTINUOUS
 10
429.073950
 20
40.000000
 11
429.073950
 21
188.500000
  0
TEXT
  8
1
 62
7
  6
CONTINUOUS
 10
438.973950
 20
164.987500
 40
19.800000
 41
1.000000
  1
単色シリーズ
  7
KANJI
 50
0.000000
 51
0.000000
  0
TEXT
  8
1
 62
7
  6
CONTINUOUS
 10
557.773950
 20
174.887500
 40
9.900000
 41
0.500000
  1

  7
KANJI
 50
0.000000
 51
0.000000
  0
TEXT
  8
1
 62
7
  6
CONTINUOUS
 10
557.773950
 20
164.987500
 40
9.900000
 41
0.500000
  1

  7
KANJI
 50
0.000000
 51
0.000000
  0
LINE
  8
1
 62
7
  6
CONTINUOUS
 10
1615.489950
 20
40.000000
 11
1615.489950
 21
188.500000
  0
TEXT
  8
1
 62
7
  6
CONTINUOUS
 10
1235.923950
 20
94.759375
 40
24.750000
 41
0.800000
  1
埼玉県比企郡川島町表２１－５
  7
KANJI
 50
0.000000
 51
0.000000
  0
TEXT
  8
1
 62
7
  6
CONTINUOUS
 10
1513.123950
 20
107.134375
 40
12.375000
 41
0.400000
  1

  7
KANJI
 50
0.000000
 51
0.000000
  0
TEXT
  8
1
 62
7
  6
CONTINUOUS
 10
1513.123950
 20
94.759375
 40
12.375000
 41
0.400000
  1

  7
KANJI
 50
0.000000
 51
0.000000
  0
TEXT
  8
1
 62
7
  6
CONTINUOUS
 10
1235.923950
 20
70.009375
 40
24.750000
 41
0.647059
  1
  TEL ０４９２－９７－７２７１
  7
KANJI
 50
0.000000
 51
0.000000
  0
TEXT
  8
1
 62
7
  6
CONTINUOUS
 10
1495.798950
 20
82.384375
 40
12.375000
 41
0.388235
  1

  7
KANJI
 50
0.000000
 51
0.000000
  0
TEXT
  8
1
 62
7
  6
CONTINUOUS
 10
1495.798950
 20
70.009375
 40
12.375000
 41
0.388235
  1

  7
KANJI
 50
0.000000
 51
0.000000
  0
TEXT
  8
1
 62
7
  6
CONTINUOUS
 10
1235.923950
 20
45.259375
 40
24.750000
 41
0.647059
  1
  FAX ０４９２－９７－７２７３
  7
KANJI
 50
0.000000
 51
0.000000
  0
TEXT
  8
1
 62
7
  6
CONTINUOUS
 10
1495.798950
 20
57.634375
 40
12.375000
 41
0.388235
  1

  7
KANJI
 50
0.000000
 51
0.000000
  0
TEXT
  8
1
 62
7
  6
CONTINUOUS
 10
1495.798950
 20
45.259375
 40
12.375000
 41
0.388235
  1

  7
KANJI
 50
0.000000
 51
0.000000
  0
TEXT
  8
1
 62
7
  6
CONTINUOUS
 10
1235.923950
 20
117.653125
 40
34.650000
 41
1.285714
  1
㈱三井ＰＣＯ
  7
KANJI
 50
0.000000
 51
0.000000
  0
TEXT
  8
1
 62
7
  6
CONTINUOUS
 10
1468.573950
 20
134.978125
 40
17.325000
 41
0.642857
  1

  7
KANJI
 50
0.000000
 51
0.000000
  0
TEXT
  8
1
 62
7
  6
CONTINUOUS
 10
1468.573950
 20
117.653125
 40
17.325000
 41
0.642857
  1

  7
KANJI
 50
0.000000
 51
0.000000
  0
LINE
  8
1
 62
7
  6
CONTINUOUS
 10
429.073950
 20
188.500000
 11
578.420400
 21
188.500000
  0
LINE
  8
1
 62
7
  6
CONTINUOUS
 10
578.420400
 20
188.500000
 11
722.960400
 21
188.500000
  0
LINE
  8
1
 62
7
  6
CONTINUOUS
 10
722.960400
 20
188.500000
 11
872.851350
 21
188.500000
  0
LINE
  8
1
 62
7
  6
CONTINUOUS
 10
872.851350
 20
40.000000
 11
429.073950
 21
40.000000
  0
LINE
  8
1
 62
7
  6
CONTINUOUS
 10
429.073950
 20
139.000000
 11
872.851350
 21
139.000000
  0
LINE
  8
1
 62
7
  6
CONTINUOUS
 10
872.851350
 20
89.500000
 11
429.073950
 21
89.500000
  0
LINE
  8
1
 62
7
  6
CONTINUOUS
 10
578.420400
 20
188.500000
 11
578.420400
 21
89.500000
  0
LINE
  8
1
 62
7
  6
CONTINUOUS
 10
906.348000
 20
139.000000
 11
872.851350
 21
139.000000
  0
LINE
  8
1
 62
7
  6
CONTINUOUS
 10
872.851350
 20
139.000000
 11
906.348000
 21
139.000000
  0
LINE
  8
1
 62
7
  6
CONTINUOUS
 10
906.348000
 20
89.500000
 11
872.851350
 21
89.500000
  0
LINE
  8
1
 62
7
  6
CONTINUOUS
 10
872.851350
 20
89.500000
 11
906.348000
 21
89.500000
  0
LINE
  8
1
 62
7
  6
CONTINUOUS
 10
578.420400
 20
89.500000
 11
578.420400
 21
40.000000
  0
LINE
  8
1
 62
7
  6
CONTINUOUS
 10
872.851350
 20
188.500000
 11
906.348000
 21
188.500000
  0
LINE
  8
1
 62
7
  6
CONTINUOUS
 10
906.348000
 20
40.000000
 11
872.851350
 21
40.000000
  0
LINE
  8
1
 62
7
  6
CONTINUOUS
 10
1129.098000
 20
188.500000
 11
1129.098000
 21
40.000000
  0
LINE
  8
1
 62
7
  6
CONTINUOUS
 10
1129.098000
 20
40.000000
 11
1615.489950
 21
40.000000
  0
LINE
  8
1
 62
7
  6
CONTINUOUS
 10
1615.489950
 20
188.500000
 11
1129.098000
 21
188.500000
  0
LINE
  8
1
 62
7
  6
CONTINUOUS
 10
906.348000
 20
188.500000
 11
1121.673000
 21
188.500000
  0
LINE
  8
1
 62
7
  6
CONTINUOUS
 10
1121.673000
 20
188.500000
 11
1121.673000
 21
40.000000
  0
LINE
  8
1
 62
7
  6
CONTINUOUS
 10
1121.673000
 20
40.000000
 11
906.348000
 21
40.000000
  0
LINE
  8
1
 62
7
  6
CONTINUOUS
 10
906.348000
 20
139.000000
 11
1121.673000
 21
139.000000
  0
LINE
  8
1
 62
7
  6
CONTINUOUS
 10
1121.673000
 20
89.500000
 11
906.348000
 21
89.500000
  0
TEXT
  8
1
 62
7
  6
CONTINUOUS
 10
931.360845
 20
164.987500
 40
19.800000
 41
1.000000
  1
モンタナシリーズ
  7
KANJI
 50
0.000000
 51
0.000000
  0
TEXT
  8
1
 62
7
  6
CONTINUOUS
 10
1089.760845
 20
174.887500
 40
9.900000
 41
0.500000
  1

  7
KANJI
 50
0.000000
 51
0.000000
  0
TEXT
  8
1
 62
7
  6
CONTINUOUS
 10
1089.760845
 20
164.987500
 40
9.900000
 41
0.500000
  1

  7
KANJI
 50
0.000000
 51
0.000000
  0
TEXT
  8
1
 62
7
  6
CONTINUOUS
 10
755.473485
 20
164.987500
 40
19.800000
 41
1.000000
  1
シエラシリーズ
  7
KANJI
 50
0.000000
 51
0.000000
  0
TEXT
  8
1
 62
7
  6
CONTINUOUS
 10
894.073485
 20
174.887500
 40
9.900000
 41
0.500000
  1

  7
KANJI
 50
0.000000
 51
0.000000
  0
TEXT
  8
1
 62
7
  6
CONTINUOUS
 10
894.073485
 20
164.987500
 40
9.900000
 41
0.500000
  1

  7
KANJI
 50
0.000000
 51
0.000000
  0
LINE
  8
1
 62
7
  6
CONTINUOUS
 10
919.192260
 20
188.500000
 11
919.192260
 21
40.000000
  0
TEXT
  8
1
 62
7
  6
CONTINUOUS
 10
588.320400
 20
161.275000
 40
19.800000
 41
1.000000
  1
ベナーロシリーズ
  7
KANJI
 50
0.000000
 51
0.000000
  0
TEXT
  8
1
 62
7
  6
CONTINUOUS
 10
746.720400
 20
171.175000
 40
9.900000
 41
0.500000
  1

  7
KANJI
 50
0.000000
 51
0.000000
  0
TEXT
  8
1
 62
7
  6
CONTINUOUS
 10
746.720400
 20
161.275000
 40
9.900000
 41
0.500000
  1

  7
KANJI
 50
0.000000
 51
0.000000
  0
LINE
  8
1
 62
7
  6
CONTINUOUS
 10
749.190450
 20
188.500000
 11
749.190450
 21
40.000000
  0
TEXT
  8
1
 62
7
  6
CONTINUOUS
 10
429.073950
 20
48.380350
 40
24.750000
 41
0.800000
  1
シーム剤  本
  7
KANJI
 50
0.000000
 51
0.000000
  0
TEXT
  8
1
 62
7
  6
CONTINUOUS
 10
557.773950
 20
60.755350
 40
12.375000
 41
0.466667
  1

  7
KANJI
 50
0.000000
 51
0.000000
  0
TEXT
  8
1
 62
7
  6
CONTINUOUS
 10
557.773950
 20
48.380350
 40
12.375000
 41
0.466667
  1

  7
KANJI
 50
0.000000
 51
0.000000
  0
TEXT
  8
1
 62
7
  6
CONTINUOUS
 10
924.142260
 20
52.589335
 40
24.750000
 41
1.000000
  1
梱包個数　　梱
  7
KANJI
 50
0.000000
 51
0.000000
  0
TEXT
  8
1
 62
7
  6
CONTINUOUS
 10
1097.392260
 20
64.964335
 40
12.375000
 41
0.500000
  1

  7
KANJI
 50
0.000000
 51
0.000000
  0
TEXT
  8
1
 62
7
  6
CONTINUOUS
 10
1097.392260
 20
52.589335
 40
12.375000
 41
0.500000
  1

  7
KANJI
 50
0.000000
 51
0.000000
  0
TEXT
  8
1
 62
7
  6
CONTINUOUS
 10
735.879900
 20
52.271050
 40
24.750000
 41
0.746667
  1
 断熱テープ   本
  7
KANJI
 50
0.000000
 51
0.000000
  0
TEXT
  8
1
 62
7
  6
CONTINUOUS
 10
900.467400
 20
64.646050
 40
12.375000
 41
0.466667
  1

  7
KANJI
 50
0.000000
 51
0.000000
  0
TEXT
  8
1
 62
7
  6
CONTINUOUS
 10
900.467400
 20
52.271050
 40
12.375000
 41
0.466667
  1

  7
KANJI
 50
0.000000
 51
0.000000
  0
TEXT
  8
1
 62
7
  6
CONTINUOUS
 10
583.370400
 20
47.910595
 40
24.750000
 41
0.656250
  1
瞬間接着剤 　本
  7
KANJI
 50
0.000000
 51
0.000000
  0
TEXT
  8
1
 62
7
  6
CONTINUOUS
 10
713.307900
 20
60.285595
 40
12.375000
 41
0.350000
  1

  7
KANJI
 50
0.000000
 51
0.000000
  0
TEXT
  8
1
 62
7
  6
CONTINUOUS
 10
713.307900
 20
47.910595
 40
12.375000
 41
0.350000
  1

  7
KANJI
 50
0.000000
 51
0.000000
  0
TEXT
  8
1
 62
7
  6
CONTINUOUS
 10
438.973950
 20
97.234375
 40
24.750000
 41
1.041667
  1
   ㎜
  7
KANJI
 50
0.000000
 51
0.000000
  0
TEXT
  8
1
 62
7
  6
CONTINUOUS
 10
525.598950
 20
109.609375
 40
12.375000
 41
0.833333
  1

  7
KANJI
 50
0.000000
 51
0.000000
  0
TEXT
  8
1
 62
7
  6
CONTINUOUS
 10
525.598950
 20
97.234375
 40
12.375000
 41
0.833333
  1

  7
KANJI
 50
0.000000
 51
0.000000
  0
TEXT
  8
1
 62
7
  6
CONTINUOUS
 10
588.320400
 20
97.234375
 40
24.750000
 41
1.041667
  1
   ㎜
  7
KANJI
 50
0.000000
 51
0.000000
  0
TEXT
  8
1
 62
7
  6
CONTINUOUS
 10
674.945400
 20
109.609375
 40
12.375000
 41
0.833333
  1

  7
KANJI
 50
0.000000
 51
0.000000
  0
TEXT
  8
1
 62
7
  6
CONTINUOUS
 10
674.945400
 20
97.234375
 40
12.375000
 41
0.833333
  1

  7
KANJI
 50
0.000000
 51
0.000000
  0
TEXT
  8
1
 62
7
  6
CONTINUOUS
 10
755.473485
 20
97.234375
 40
24.750000
 41
1.041667
  1
   ㎜
  7
KANJI
 50
0.000000
 51
0.000000
  0
TEXT
  8
1
 62
7
  6
CONTINUOUS
 10
842.098485
 20
109.609375
 40
12.375000
 41
0.833333
  1

  7
KANJI
 50
0.000000
 51
0.000000
  0
TEXT
  8
1
 62
7
  6
CONTINUOUS
 10
842.098485
 20
97.234375
 40
12.375000
 41
0.833333
  1

  7
KANJI
 50
0.000000
 51
0.000000
  0
TEXT
  8
1
 62
7
  6
CONTINUOUS
 10
924.142260
 20
97.234375
 40
24.750000
 41
1.050000
  1
    ㎜
  7
KANJI
 50
0.000000
 51
0.000000
  0
TEXT
  8
1
 62
7
  6
CONTINUOUS
 10
1035.517260
 20
109.609375
 40
12.375000
 41
0.875000
  1

  7
KANJI
 50
0.000000
 51
0.000000
  0
TEXT
  8
1
 62
7
  6
CONTINUOUS
 10
1035.517260
 20
97.234375
 40
12.375000
 41
0.875000
  1

  7
KANJI
 50
0.000000
 51
0.000000
  0
TEXT
  8
1
 62
7
  6
CONTINUOUS
 10
1138.998000
 20
159.109375
 40
24.750000
 41
0.800000
  1
デュポンコーリアン認定加工／施工工場　　Ｍｐｃｏ　
  7
KANJI
 50
0.000000
 51
0.000000
  0
TEXT
  8
1
 62
7
  6
CONTINUOUS
 10
1633.998000
 20
171.484375
 40
12.375000
 41
0.400000
  1

  7
KANJI
 50
0.000000
 51
0.000000
  0
TEXT
  8
1
 62
7
  6
CONTINUOUS
 10
1633.998000
 20
159.109375
 40
12.375000
 41
0.400000
  1

  7
KANJI
 50
0.000000
 51
0.000000
  0
LINE
  8
1
 62
7
  6
CONTINUOUS
 10
1622.914950
 20
40.000000
 11
1734.473100
 21
40.000000
  0
TEXT
  8
1
 62
7
  6
CONTINUOUS
 10
1627.864950
 20
95.378125
 40
34.650000
 41
0.714286
  1
図面番号
  7
KANJI
 50
0.000000
 51
0.000000
  0
TEXT
  8
1
 62
7
  6
CONTINUOUS
 10
1726.864950
 20
112.703125
 40
17.325000
 41
0.357143
  1

  7
KANJI
 50
0.000000
 51
0.000000
  0
TEXT
  8
1
 62
7
  6
CONTINUOUS
 10
1726.864950
 20
95.378125
 40
17.325000
 41
0.357143
  1

  7
KANJI
 50
0.000000
 51
0.000000
  0
LINE
  8
1
 62
7
  6
CONTINUOUS
 10
1622.914950
 20
139.000000
 11
1622.914950
 21
40.000000
  0
LINE
  8
1
 62
7
  6
CONTINUOUS
 10
1622.914950
 20
40.000000
 11
1734.473100
 21
40.000000
  0
LINE
  8
1
 62
7
  6
CONTINUOUS
 10
1734.473100
 20
40.000000
 11
1734.473100
 21
139.000000
  0
LINE
  8
1
 62
7
  6
CONTINUOUS
 10
1734.473100
 20
139.000000
 11
1622.914950
 21
139.000000
  0
LINE
  8
1
 62
7
  6
CONTINUOUS
 10
1622.914950
 20
139.000000
 11
1622.914950
 21
188.500000
  0
LINE
  8
1
 62
7
  6
CONTINUOUS
 10
1622.914950
 20
188.500000
 11
1734.473100
 21
188.500000
  0
LINE
  8
1
 62
7
  6
CONTINUOUS
 10
1734.473100
 20
188.500000
 11
1734.473100
 21
139.000000
  0
TEXT
  8
1
 62
7
  6
CONTINUOUS
 10
1627.864950
 20
161.275000
 40
19.800000
 41
0.875000
  1
CAD-NO
  7
KANJI
 50
0.000000
 51
0.000000
  0
TEXT
  8
1
 62
7
  6
CONTINUOUS
 10
1723.152450
 20
171.175000
 40
9.900000
 41
0.875000
  1

  7
KANJI
 50
0.000000
 51
0.000000
  0
TEXT
  8
1
 62
7
  6
CONTINUOUS
 10
1723.152450
 20
161.275000
 40
9.900000
 41
0.875000
  1

  7
KANJI
 50
0.000000
 51
0.000000
  0
TEXT
  8
1
 62
7
  6
CONTINUOUS
 10
54.560220
 20
1131.500000
 40
30.000000
 41
0.833333
  1
100％アクリル製
  7
KANJI
 50
0.000000
 51
0.000000
  0
TEXT
  8
1
 62
7
  6
CONTINUOUS
 10
279.560220
 20
1146.500000
 40
15.000000
 41
0.500000
  1

  7
KANJI
 50
0.000000
 51
0.000000
  0
TEXT
  8
1
 62
7
  6
CONTINUOUS
 10
279.560220
 20
1131.500000
 40
15.000000
 41
0.500000
  1

  7
KANJI
 50
0.000000
 51
0.000000
  0
TEXT
  8
1
 62
7
  6
CONTINUOUS
 10
54.079792
 20
1100.715314
 40
25.000000
 41
1.000000
  1
色：ホワイト　
  7
KANJI
 50
0.000000
 51
0.000000
  0
TEXT
  8
1
 62
7
  6
CONTINUOUS
 10
229.079792
 20
1113.215314
 40
12.500000
 41
0.500000
  1

  7
KANJI
 50
0.000000
 51
0.000000
  0
TEXT
  8
1
 62
7
  6
CONTINUOUS
 10
229.079792
 20
1100.715314
 40
12.500000
 41
0.500000
  1

  7
KANJI
 50
0.000000
 51
0.000000
  0
TEXT
  8
1
 62
7
  6
CONTINUOUS
 10
54.560220
 20
1061.500000
 40
30.000000
 41
0.863636
  1
排水金具115φ：別売
  7
KANJI
 50
0.000000
 51
0.000000
  0
TEXT
  8
1
 62
7
  6
CONTINUOUS
 10
339.560220
 20
1076.500000
 40
15.000000
 41
0.500000
  1

  7
KANJI
 50
0.000000
 51
0.000000
  0
TEXT
  8
1
 62
7
  6
CONTINUOUS
 10
339.560220
 20
1061.500000
 40
15.000000
 41
0.500000
  1

  7
KANJI
 50
0.000000
 51
0.000000
  0
TEXT
  8
1
 62
7
  6
CONTINUOUS
 10
54.560220
 20
1166.500000
 40
40.000000
 41
0.638889
  1
JB-450　丸 ﾊﾞｰｼﾝｸ詳細図
  7
KANJI
 50
0.345083
 51
0.000000
  0
TEXT
  8
1
 62
7
  6
CONTINUOUS
 10
514.431421
 20
1189.270121
 40
20.000000
 41
0.500000
  1

  7
KANJI
 50
0.345083
 51
0.000000
  0
TEXT
  8
1
 62
7
  6
CONTINUOUS
 10
514.551877
 20
1169.270484
 40
20.000000
 41
0.500000
  1

  7
KANJI
 50
0.345083
 51
0.000000
  0
CIRCLE
  8
1
 62
7
  6
CONTINUOUS
 10
814.225693
 20
988.446181
 40
47.500000
  0
CIRCLE
  8
1
 62
7
  6
CONTINUOUS
 10
814.225693
 20
988.446181
 40
57.500000
  0
LINE
  8
1
 62
7
  6
CONTINUOUS
 10
814.225693
 20
1045.946181
 11
814.225693
 21
930.946181
  0
LINE
  8
1
 62
7
  6
CONTINUOUS
 10
749.225693
 20
988.446181
 11
879.225693
 21
988.446181
  0
LINE
  8
1
 62
7
  6
CONTINUOUS
 10
814.225693
 20
1053.086589
 11
814.225693
 21
925.287221
  0
DIMENSION
  8
1
 62
7
  6
CONTINUOUS
  2
*D1
 10
756.725693
 20
868.741319
 11
814.225693
 21
868.741319
 70
     0
  1
115φ
 13
756.725693
 23
978.446181
 14
871.725693
 24
978.446181
 50
0.000000
  0
CIRCLE
  8
1
 62
7
  6
CONTINUOUS
 10
814.225693
 20
898.446181
 40
225.000000
  0
CIRCLE
  8
1
 62
7
  6
CONTINUOUS
 10
814.225693
 20
898.446181
 40
200.000000
  0
DIMENSION
  8
1
 62
7
  6
CONTINUOUS
  2
*D2
 10
589.225693
 20
1209.149306
 11
814.225693
 21
1209.149306
 70
     0
  1
450
 13
589.225693
 23
1133.446181
 14
1039.225693
 24
1133.446181
 50
0.000000
  0
DIMENSION
  8
1
 62
7
  6
CONTINUOUS
  2
*D3
 10
589.225693
 20
1173.446181
 11
601.725693
 21
1173.446181
 70
     0
  1
25
 13
589.225693
 23
1133.446181
 14
614.225693
 24
1133.446181
 50
0.000000
  0
DIMENSION
  8
1
 62
7
  6
CONTINUOUS
  2
*D4
 10
614.225693
 20
1173.446181
 11
814.225693
 21
1173.446181
 70
     0
  1
400
 13
614.225693
 23
1173.446181
 14
1014.225693
 24
1133.446181
 50
0.000000
  0
DIMENSION
  8
1
 62
7
  6
CONTINUOUS
  2
*D5
 10
1014.225693
 20
1173.446181
 11
1026.725693
 21
1173.446181
 70
     0
  1
25
 13
1014.225693
 23
1173.446181
 14
1039.225693
 24
1133.446181
 50
0.000000
  0
DIMENSION
  8
1
 62
7
  6
CONTINUOUS
  2
*D6
 10
522.031250
 20
673.446181
 11
522.031250
 21
898.446181
 70
     0
  1
450
 13
579.225693
 23
673.446181
 14
579.225693
 24
1123.446181
 50
90.000000
  0
DIMENSION
  8
1
 62
7
  6
CONTINUOUS
  2
*D7
 10
555.494792
 20
988.446181
 11
555.494792
 21
1055.946181
 70
     0
  1
135
 13
579.225693
 23
988.446181
 14
579.225693
 24
1123.446181
 50
90.000000
  0
LINE
  8
1
 62
7
  6
CONTINUOUS
 10
1039.225693
 20
517.951389
 11
1036.225693
 21
505.951389
  0
LINE
  8
1
 62
7
  6
CONTINUOUS
 10
756.473968
 20
517.951389
 11
1039.225693
 21
517.951389
  0
LINE
  8
1
 62
7
  6
CONTINUOUS
 10
1036.225693
 20
505.951389
 11
751.709244
 21
505.951389
  0
LINE
  8
1
 62
7
  6
CONTINUOUS
 10
592.225693
 20
505.951389
 11
589.225693
 21
517.951389
  0
LINE
  8
1
 62
7
  6
CONTINUOUS
 10
589.225693
 20
517.951389
 11
651.725693
 21
517.951389
  0
LINE
  8
1
 62
7
  6
CONTINUOUS
 10
592.225693
 20
505.951389
 11
651.725693
 21
505.951389
  0
LINE
  8
1
 62
7
  6
CONTINUOUS
 10
637.031313
 20
517.951389
 11
717.415073
 21
517.951389
  0
LINE
  8
1
 62
7
  6
CONTINUOUS
 10
718.776423
 20
505.951389
 11
647.404280
 21
505.951389
  0
LINE
  8
1
 62
7
  6
CONTINUOUS
 10
717.415073
 20
517.951389
 11
756.473968
 21
517.951389
  0
LINE
  8
1
 62
7
  6
CONTINUOUS
 10
751.709244
 20
505.951389
 11
718.776423
 21
505.951389
  0
LINE
  8
1
 62
7
  6
CONTINUOUS
 10
756.725693
 20
324.951389
 11
871.725693
 21
324.951389
  0
LINE
  8
1
 62
7
  6
CONTINUOUS
 10
871.725693
 20
324.951389
 11
879.225693
 21
324.951389
  0
DIMENSION
  8
1
 62
7
  6
CONTINUOUS
  2
*D8
 10
756.725693
 20
258.666613
 11
817.975693
 21
258.666613
 70
     0
  1
130
 13
756.725693
 23
314.951389
 14
879.225693
 24
314.951389
 50
0.000000
  0
LINE
  8
1
 62
7
  6
CONTINUOUS
 10
814.225693
 20
296.401042
 11
814.225693
 21
361.097222
  0
LINE
  8
1
 62
7
  6
CONTINUOUS
 10
756.725693
 20
330.633128
 11
879.225693
 21
330.633128
  0
LINE
  8
1
 62
7
  6
CONTINUOUS
 10
756.725693
 20
324.951389
 11
756.725693
 21
330.633128
  0
LINE
  8
1
 62
7
  6
CONTINUOUS
 10
879.225693
 20
324.951389
 11
879.225693
 21
330.633128
  0
LINE
  8
1
 62
7
  6
CONTINUOUS
 10
768.225693
 20
330.633128
 11
768.225693
 21
324.951389
  0
LINE
  8
1
 62
7
  6
CONTINUOUS
 10
860.225693
 20
330.633128
 11
860.225693
 21
324.951389
  0
LINE
  8
1
 62
7
  6
CONTINUOUS
 10
606.176773
 20
505.951389
 11
606.176773
 21
350.143222
  0
LINE
  8
1
 62
7
  6
CONTINUOUS
 10
620.678870
 20
335.151487
 11
756.725693
 21
330.633128
  0
ARC
  8
1
 62
7
  6
CONTINUOUS
 10
621.176773
 20
350.143222
 40
15.000000
 50
180.000000
 51
-91.902197
  0
LINE
  8
1
 62
7
  6
CONTINUOUS
 10
879.225693
 20
330.633128
 11
1007.798591
 21
335.127147
  0
LINE
  8
1
 62
7
  6
CONTINUOUS
 10
1022.274614
 20
350.117992
 11
1022.274614
 21
505.951389
  0
ARC
  8
1
 62
7
  6
CONTINUOUS
 10
1007.274614
 20
350.117992
 40
15.000000
 50
-87.998151
 51
0.000000
  0
DIMENSION
  8
1
 62
7
  6
CONTINUOUS
  2
*D9
 10
517.676357
 20
517.951389
 11
517.676357
 21
421.451389
 70
     0
  1
193
 13
579.225693
 23
517.951389
 14
579.225693
 24
324.951389
 50
-90.000000
  0
DIMENSION
  8
1
 62
7
  6
CONTINUOUS
  2
*D10
 10
537.529630
 20
517.951389
 11
537.529630
 21
496.258265
 70
     0
  1
12
 13
579.225693
 23
517.951389
 14
579.225693
 24
505.951389
 50
-90.000000
  0
DIMENSION
  8
1
 62
7
  6
CONTINUOUS
  2
*D11
 10
589.225693
 20
600.974824
 11
814.225693
 21
600.974824
 70
     0
  1
450
 13
589.225693
 23
527.951389
 14
1039.225693
 24
527.951389
 50
0.000000
  0
LINE
  8
1
 62
7
  6
CONTINUOUS
 10
1278.311580
 20
674.446181
 11
1290.311580
 21
677.446181
  0
LINE
  8
1
 62
7
  6
CONTINUOUS
 10
1290.311580
 20
677.446181
 11
1290.311580
 21
691.405197
  0
LINE
  8
1
 62
7
  6
CONTINUOUS
 10
1278.311580
 20
916.946181
 11
1278.311580
 21
674.446181
  0
LINE
  8
1
 62
7
  6
CONTINUOUS
 10
1483.463542
 20
1063.446181
 11
1483.463542
 21
1075.557778
  0
LINE
  8
1
 62
7
  6
CONTINUOUS
 10
1478.463542
 20
1065.990390
 11
1483.463542
 21
1072.939424
  0
LINE
  8
1
 62
7
  6
CONTINUOUS
 10
1483.311580
 20
942.446181
 11
1488.311580
 21
942.446181
  0
LINE
  8
1
 62
7
  6
CONTINUOUS
 10
1483.311580
 20
942.446181
 11
1483.311580
 21
932.446181
  0
LINE
  8
1
 62
7
  6
CONTINUOUS
 10
1488.311580
 20
924.946181
 11
1488.311580
 21
942.446181
  0
LINE
  8
1
 62
7
  6
CONTINUOUS
 10
1488.311580
 20
924.946181
 11
1483.311580
 21
924.946181
  0
LINE
  8
1
 62
7
  6
CONTINUOUS
 10
1478.311580
 20
924.946181
 11
1478.311580
 21
930.946181
  0
LINE
  8
1
 62
7
  6
CONTINUOUS
 10
1479.811580
 20
932.446181
 11
1483.311580
 21
932.446181
  0
ARC
  8
1
 62
7
  6
CONTINUOUS
 10
1479.811580
 20
930.946181
 40
1.500000
 50
90.000000
 51
180.000000
  0
LINE
  8
1
 62
7
  6
CONTINUOUS
 10
1483.463542
 20
1081.751052
 11
1483.463542
 21
1082.452501
  0
DIMENSION
  8
1
 62
7
  6
CONTINUOUS
  2
*D12
 10
1419.572261
 20
930.946181
 11
1419.572261
 21
988.446181
 70
     0
  1
115
 13
1458.311580
 23
930.946181
 14
1458.311580
 24
1045.946181
 50
90.000000
  0
LINE
  8
1
 62
7
  6
CONTINUOUS
 10
1483.908012
 20
1044.446181
 11
1483.908012
 21
1034.446181
  0
LINE
  8
1
 62
7
  6
CONTINUOUS
 10
1483.908012
 20
1034.446181
 11
1488.908012
 21
1034.446181
  0
LINE
  8
1
 62
7
  6
CONTINUOUS
 10
1488.908012
 20
1034.446181
 11
1488.908012
 21
1051.946181
  0
LINE
  8
1
 62
7
  6
CONTINUOUS
 10
1480.246348
 20
1044.446181
 11
1483.908012
 21
1044.446181
  0
ARC
  8
1
 62
7
  6
CONTINUOUS
 10
1480.246348
 20
1045.946181
 40
1.500000
 50
-173.480198
 51
-90.000000
  0
LINE
  8
1
 62
7
  6
CONTINUOUS
 10
1478.756051
 20
1045.775847
 11
1478.756051
 21
1062.859987
  0
LINE
  8
1
 62
7
  6
CONTINUOUS
 10
1478.756051
 20
1062.859987
 11
1478.463542
 21
1065.990390
  0
LINE
  8
1
 62
7
  6
CONTINUOUS
 10
1478.463542
 20
1065.990390
 11
1478.311580
 21
1074.359987
  0
LINE
  8
1
 62
7
  6
CONTINUOUS
 10
1483.463542
 20
1063.446181
 11
1483.463542
 21
1053.446181
  0
LINE
  8
1
 62
7
  6
CONTINUOUS
 10
1483.463542
 20
1053.446181
 11
1488.908012
 21
1053.446181
  0
LINE
  8
1
 62
7
  6
CONTINUOUS
 10
1488.908012
 20
1053.446181
 11
1488.908012
 21
1051.946181
  0
LINE
  8
1
 62
7
  6
CONTINUOUS
 10
1446.303893
 20
988.446181
 11
1499.400092
 21
988.446181
  0
DIMENSION
  8
1
 62
7
  6
CONTINUOUS
  2
*D13
 10
1556.307713
 20
924.946181
 11
1556.307713
 21
989.196181
 70
     0
  1
130
 13
1498.311580
 23
924.946181
 14
1499.879083
 24
1053.446181
 50
90.000000
  0
DIMENSION
  8
1
 62
7
  6
CONTINUOUS
  2
*D14
 10
1532.249354
 20
942.446181
 11
1532.249354
 21
988.446181
 70
     0
  1
92
 13
1498.463542
 23
942.446181
 14
1498.908012
 24
1034.446181
 50
90.000000
  0
LINE
  8
1
 62
7
  6
CONTINUOUS
 10
1278.311580
 20
867.863945
 11
1278.311580
 21
888.989811
  0
LINE
  8
1
 62
7
  6
CONTINUOUS
 10
1290.311580
 20
1120.446181
 11
1290.311580
 21
1106.487164
  0
LINE
  8
1
 62
7
  6
CONTINUOUS
 10
1278.311580
 20
1106.024649
 11
1290.311580
 21
1114.967665
  0
LINE
  8
1
 62
7
  6
CONTINUOUS
 10
1278.311580
 20
1123.446181
 11
1278.311580
 21
1008.446181
  0
LINE
  8
1
 62
7
  6
CONTINUOUS
 10
1290.311580
 20
1120.446181
 11
1278.311580
 21
1123.446181
  0
LINE
  8
1
 62
7
  6
CONTINUOUS
 10
1290.311580
 20
1120.446181
 11
1290.311580
 21
1104.936188
  0
DIMENSION
  8
1
 62
7
  6
CONTINUOUS
  2
*D15
 10
1278.311580
 20
1168.725216
 11
1284.311580
 21
1168.725216
 70
     0
  1
12
 13
1278.311580
 23
1133.446181
 14
1290.311580
 24
1133.446181
 50
0.000000
  0
LINE
  8
1
 62
7
  6
CONTINUOUS
 10
1278.311580
 20
1008.446181
 11
1278.311580
 21
977.446181
  0
DIMENSION
  8
1
 62
7
  6
CONTINUOUS
  2
*D16
 10
1278.311580
 20
1209.149306
 11
1383.609796
 21
1209.149306
 70
     0
  1
193
 13
1278.311580
 23
1133.446181
 14
1488.908012
 24
1133.446181
 50
0.000000
  0
LINE
  8
1
 62
7
  6
CONTINUOUS
 10
1278.311580
 20
1096.936188
 11
1462.163148
 21
1096.936188
  0
LINE
  8
1
 62
7
  6
CONTINUOUS
 10
1477.096525
 20
1083.348378
 11
1478.398325
 21
1069.582324
  0
ARC
  8
1
 62
7
  6
CONTINUOUS
 10
1462.163148
 20
1081.936188
 40
15.000000
 50
5.402167
 51
90.000000
  0
LINE
  8
1
 62
7
  6
CONTINUOUS
 10
1290.311580
 20
1105.009186
 11
1468.469211
 21
1104.941855
  0
LINE
  8
1
 62
7
  6
CONTINUOUS
 10
1483.463542
 20
1089.941856
 11
1483.463542
 21
1073.446181
  0
ARC
  8
1
 62
7
  6
CONTINUOUS
 10
1468.463542
 20
1089.941856
 40
15.000000
 50
0.000000
 51
89.978346
  0
LINE
  8
1
 62
7
  6
CONTINUOUS
 10
1290.311580
 20
1096.936188
 11
1299.539352
 21
1104.936188
  0
LINE
  8
1
 62
7
  6
CONTINUOUS
 10
1309.746092
 20
1096.936188
 11
1316.763227
 21
1104.936188
  0
LINE
  8
1
 62
7
  6
CONTINUOUS
 10
1337.814629
 20
1096.936188
 11
1343.874881
 21
1104.936188
  0
LINE
  8
1
 62
7
  6
CONTINUOUS
 10
1362.055638
 20
1096.936188
 11
1366.521087
 21
1104.936188
  0
LINE
  8
1
 62
7
  6
CONTINUOUS
 10
1381.831198
 20
1096.936188
 11
1385.977686
 21
1104.936188
  0
LINE
  8
1
 62
7
  6
CONTINUOUS
 10
1403.839482
 20
1096.936188
 11
1407.028957
 21
1104.965075
  0
LINE
  8
1
 62
7
  6
CONTINUOUS
 10
1420.425436
 20
1096.936188
 11
1423.933748
 21
1104.958686
  0
LINE
  8
1
 62
7
  6
CONTINUOUS
 10
1439.563074
 20
1096.936188
 11
1443.709562
 21
1104.936188
  0
LINE
  8
1
 62
7
  6
CONTINUOUS
 10
1456.149028
 20
1096.936188
 11
1459.019673
 21
1104.936188
  0
LINE
  8
1
 62
7
  6
CONTINUOUS
 10
1470.183296
 20
1096.936188
 11
1475.811580
 21
1103.018795
  0
LINE
  8
1
 62
7
  6
CONTINUOUS
 10
1475.811580
 20
1088.158754
 11
1482.950109
 21
1093.832792
  0
LINE
  8
1
 62
7
  6
CONTINUOUS
 10
1290.311580
 20
677.446181
 11
1290.311580
 21
692.956173
  0
LINE
  8
1
 62
7
  6
CONTINUOUS
 10
1278.311580
 20
700.956173
 11
1460.511136
 21
700.956173
  0
LINE
  8
1
 62
7
  6
CONTINUOUS
 10
1475.509791
 20
715.755289
 11
1478.311580
 21
924.946181
  0
ARC
  8
1
 62
7
  6
CONTINUOUS
 10
1460.511136
 20
715.956173
 40
15.000000
 50
-90.000000
 51
-0.767343
  0
ARC
  8
1
 62
7
  6
CONTINUOUS
 10
1465.311580
 20
707.956173
 40
15.000000
 50
-90.000000
 51
0.000000
  0
LINE
  8
1
 62
7
  6
CONTINUOUS
 10
1480.311580
 20
706.414157
 11
1480.311580
 21
707.956173
  0
LINE
  8
1
 62
7
  6
CONTINUOUS
 10
1483.311580
 20
924.946181
 11
1480.384668
 21
706.413178
  0
LINE
  8
1
 62
7
  6
CONTINUOUS
 10
1465.311580
 20
692.956173
 11
1467.104538
 21
692.956173
  0
LINE
  8
1
 62
7
  6
CONTINUOUS
 10
1290.311580
 20
700.956173
 11
1290.311580
 21
1096.936188
  0
LINE
  8
1
 62
7
  6
CONTINUOUS
 10
1467.104538
 20
692.956173
 11
1290.311580
 21
692.956173
  0
LINE
  8
1
 62
7
  6
CONTINUOUS
 10
1278.311580
 20
692.956173
 11
1290.311580
 21
700.956173
  0
LINE
  8
1
 62
7
  6
CONTINUOUS
 10
1278.311580
 20
681.605307
 11
1290.311580
 21
687.518368
  0
LINE
  8
1
 62
7
  6
CONTINUOUS
 10
1298.557045
 20
692.956173
 11
1306.744360
 21
700.956173
  0
LINE
  8
1
 62
7
  6
CONTINUOUS
 10
1313.112272
 20
692.956173
 11
1320.617311
 21
700.956173
  0
LINE
  8
1
 62
7
  6
CONTINUOUS
 10
1331.078881
 20
692.956173
 11
1336.991942
 21
700.956173
  0
LINE
  8
1
 62
7
  6
CONTINUOUS
 10
1349.272915
 20
692.956173
 11
1353.821424
 21
700.956173
  0
LINE
  8
1
 62
7
  6
CONTINUOUS
 10
1367.466950
 20
692.956173
 11
1372.697735
 21
700.956173
  0
LINE
  8
1
 62
7
  6
CONTINUOUS
 10
1386.570686
 20
692.956173
 11
1392.028896
 21
700.956173
  0
LINE
  8
1
 62
7
  6
CONTINUOUS
 10
1406.356698
 20
692.956173
 11
1411.814908
 21
700.956173
  0
LINE
  8
1
 62
7
  6
CONTINUOUS
 10
1428.871816
 20
692.956173
 11
1434.330026
 21
700.956173
  0
LINE
  8
1
 62
7
  6
CONTINUOUS
 10
1452.751486
 20
692.956173
 11
1457.527420
 21
700.956173
  0
LINE
  8
1
 62
7
  6
CONTINUOUS
 10
1465.311580
 20
692.956173
 11
1470.499497
 21
704.765433
  0
LINE
  8
1
 62
7
  6
CONTINUOUS
 10
1475.509791
 20
715.755289
 11
1480.609764
 21
723.219609
  0
LINE
  8
1
 62
7
  6
CONTINUOUS
 10
1475.780432
 20
735.962240
 11
1480.841260
 21
740.503887
  0
LINE
  8
1
 62
7
  6
CONTINUOUS
 10
1476.027196
 20
754.386487
 11
1481.042383
 21
755.520410
  0
LINE
  8
1
 62
7
  6
CONTINUOUS
 10
1476.240460
 20
770.309503
 11
1481.304334
 21
775.078534
  0
LINE
  8
1
 62
7
  6
CONTINUOUS
 10
1476.450516
 20
785.992952
 11
1481.493072
 21
789.170291
  0
LINE
  8
1
 62
7
  6
CONTINUOUS
 10
1476.676003
 20
802.828552
 11
1481.706254
 21
805.087216
  0
LINE
  8
1
 62
7
  6
CONTINUOUS
 10
1476.913468
 20
820.558463
 11
1481.962196
 21
824.196662
  0
LINE
  8
1
 62
7
  6
CONTINUOUS
 10
1477.132782
 20
836.933202
 11
1482.169573
 21
839.680136
  0
LINE
  8
1
 62
7
  6
CONTINUOUS
 10
1477.400987
 20
856.958278
 11
1482.434488
 21
859.459554
  0
LINE
  8
1
 62
7
  6
CONTINUOUS
 10
1477.638492
 20
874.691234
 11
1482.668866
 21
876.959035
  0
LINE
  8
1
 62
7
  6
CONTINUOUS
 10
1477.897316
 20
894.015883
 11
1482.936786
 21
896.962792
  0
LINE
  8
1
 62
7
  6
CONTINUOUS
 10
1478.116590
 20
910.387577
 11
1483.144081
 21
912.440175
  0
LINE
  8
1
 62
7
  6
CONTINUOUS
 10
1478.241576
 20
919.719484
 11
1483.278122
 21
922.448145
  0
LINE
  8
1
 62
7
  6
CONTINUOUS
 10
1483.311580
 20
934.729809
 11
1488.311580
 21
938.446181
  0
LINE
  8
1
 62
7
  6
CONTINUOUS
 10
1278.311580
 20
977.446181
 11
1278.311580
 21
916.946181
  0
DIMENSION
  8
1
 62
7
  6
CONTINUOUS
  2
*D17
 10
1180.502162
 20
1123.446181
 11
1180.502162
 21
898.446181
 70
     0
  1
450
 13
1268.311580
 23
1123.446181
 14
1268.311580
 24
673.446181
 50
-90.000000
  0
DIMENSION
  8
1
 62
7
  6
CONTINUOUS
  2
*D18
 10
1202.729224
 20
1123.446181
 11
1202.729224
 21
1110.191184
 70
     0
  1
25
 13
1268.311580
 23
1123.446181
 14
1268.311580
 24
1096.936188
 50
-90.000000
  0
DIMENSION
  8
1
 62
7
  6
CONTINUOUS
  2
*D19
 10
1202.729224
 20
1096.936188
 11
1202.729224
 21
898.946181
 70
     0
  1
400
 13
1202.729224
 23
1096.936188
 14
1268.311580
 24
700.956173
 50
-90.000000
  0
DIMENSION
  8
1
 62
7
  6
CONTINUOUS
  2
*D20
 10
1202.729224
 20
700.956173
 11
1202.729224
 21
687.701177
 70
     0
  1
25
 13
1202.729224
 23
700.956173
 14
1268.311580
 24
674.446181
 50
-90.000000
  0
DIMENSION
  8
1
 62
7
  6
CONTINUOUS
  2
*D21
 10
1228.131580
 20
988.446181
 11
1228.131580
 21
1042.691184
 70
     0
  1
110
 13
1268.311580
 23
988.446181
 14
1268.311580
 24
1096.936188
 50
90.000000
  0
ENDSEC
  0
EOF
