  0
SECTION
  2
HEADER
  9
$ACADVER
  1
AC1003
  9
$INSBASE
 10
0.000000
 20
0.000000
  9
$EXTMIN
 10
0.000000
 20
0.000000
  9
$EXTMAX
 10
1820.000000
 20
1285.000000
  9
$LIMMIN
 10
0.000000
 20
0.000000
  9
$LIMMAX
 10
1820.000000
 20
1285.000000
  9
$VIEWCTR
 10
910.000000
 20
642.500000
  9
$VIEWSIZE
 40
1285.000000
  9
$PEXTMIN
 10
0.000000
 20
0.000000
 30
0.000000
  9
$PEXTMAX
 10
364.000000
 20
257.000000
 30
0.000000
  9
$SNAPMODE
 70
     0
  9
$SNAPUNIT
 10
1.000000
 20
1.000000
  9
$SNAPBASE
 10
0.000000
 20
0.000000
  9
$SNAPANG
 50
0.000000
  9
$SNAPISOPAIR
 70
     0
  9
$SNAPSTYLE
 70
     0
  9
$GRIDMODE
 70
     0
  9
$GRIDUNIT
 10
0.000000
 20
0.000000
  9
$ORTHOMODE
 70
     0
  9
$REGENMODE
 70
     1
  9
$FILLMODE
 70
     1
  9
$QTEXTMODE
 70
     0
  9
$DRAGMODE
 70
     2
  9
$LTSCALE
 40
1.250000
  9
$OSMODE
 70
     0
  9
$ATTMODE
 70
     1
  9
$TEXTSIZE
 40
0.200000
  9
$TRACEWID
 40
0.050000
  9
$TEXTSTYLE
  7
STANDARD
  9
$CLAYER
  8
0
  9
$CELTYPE
  6
BYLAYER
  9
$CECOLOR
 62
   256
  9
$DIMSCALE
 40
1.000000
  9
$DIMASZ
 40
1.000000
  9
$DIMEXO
 40
0.000000
  9
$DIMDLI
 40
0.500000
  9
$DIMRND
 40
0.000000
  9
$DIMDLE
 40
0.000000
  9
$DIMEXE
 40
0.000000
  9
$DIMTP
 40
0.000000
  9
$DIMTM
 40
0.000000
  9
$DIMTXT
 40
0.180000
  9
$DIMCEN
 40
0.000000
  9
$DIMTSZ
 40
0.000000
  9
$DIMTOL
 70
     0
  9
$DIMLIM
 70
     0
  9
$DIMTIH
 70
     1
  9
$DIMTOH
 70
     1
  9
$DIMSE1
 70
     0
  9
$DIMSE2
 70
     0
  9
$DIMTAD
 70
     0
  9
$DIMZIN
 70
     0
  9
$DIMBLK
  1

  9
$DIMASO
 70
     0
  9
$DIMSHO
 70
     0
  9
$DIMPOST
  1

  9
$DIMAPOST
  1

  9
$DIMALT
 70
     0
  9
$DIMALTD
 70
     0
  9
$DIMALTF
 40
25.400000
  9
$DIMLFAC
 40
1.000000
  9
$DIMTOFL
 70
     0
  9
$DIMTVP
 40
0.000000
  9
$DIMTIX
 70
     0
  9
$DIMSOXD
 70
     0
  9
$DIMSAH
 70
     0
  9
$DIMBLKL
  1

  9
$DIMBLKR
  1

  9
$LUNITS
 70
     2
  9
$LUPREC
 70
     2
  9
$AXISMODE
 70
     0
  9
$AXISUNIT
 10
1.000000
 20
1.000000
  9
$SKETCHINC
 40
0.000000
  9
$FILLETRAD
 40
0.000000
  9
$AUNITS
 70
     1
  9
$AUPREC
 70
     2
  9
$MENU
  1
ACAD
  9
$ELEVATION
 40
0.000000
  9
$THICKNESS
 40
0.000000
  9
$VIEWDIR
 10
0.000000
 20
0.000000
 30
1.000000
  9
$LIMCHECK
 70
     1
  9
$BLIPMODE
 70
     1
  9
$CHAMFERA
 40
0.000000
  9
$CHAMFERB
 40
0.000000
  9
$FASTZOOM
 70
     1
  9
$SKPOLY
 70
     0
  9
$TDCREATE
 40
0.000000
  9
$TDUPDATE
 40
0.000000
  9
$TDINDWG
 40
0.000000
  9
$TDUSRTIMER
 40
0.000000
  9
$USRTIMER
 70
     1
  9
$ANGBASE
 50
0.000000
  9
$ANGDIR
 70
     0
  9
$PDMODE
 70
     0
  9
$PDSIZE
 40
0.000000
  9
$PLINEWID
 40
0.000000
  9
$COORDS
 70
     2
  9
$USERI1
 70
     0
  9
$USERI2
 70
     0
  9
$USERI3
 70
     0
  9
$USERI4
 70
     0
  9
$USERI5
 70
     0
  9
$USERR1
 40
0.000000
  9
$USERR2
 40
0.000000
  9
$USERR3
 40
0.000000
  9
$USERR4
 40
0.000000
  9
$USERR5
 40
0.000000
  0
ENDSEC
  0
SECTION
  2
TABLES
  0
TABLE
  2
LTYPE
 70
     5
  0
LTYPE
  2
CONTINUOUS
 70
    64
  3
Solid line
 72
    65
 73
     0
 40
0.0
  0
LTYPE
  2
HIDDEN
 70
    64
  3
------------------------
 72
    65
 73
     2
 40
12.6
 49
8.4
 49
-4.2
  0
LTYPE
  2
DOT
 70
    64
  3
････････････････････････
 72
    65
 73
     2
 40
8.0
 49
6.0
 49
-2.0
  0
LTYPE
  2
DASHDOT
 70
    64
  3
--･--･--･--･--･--･--･--
 72
    65
 73
     4
 40
50.5
 49
30.0
 49
-9.0
 49
2.5
 49
-9.0
  0
LTYPE
  2
DIVIDE
 70
    64
  3
--･･--･･--･･--･･--･･--
 72
    65
 73
     6
 40
58.0
 49
30.0
 49
-9.0
 49
2.5
 49
-5.0
 49
2.5
 49
-9.0
  0
ENDTAB
  0
TABLE
  2
LAYER
 70
1
  0
LAYER
  2
1
 70
64
 62
7
  6
CONTINUOUS
  0
ENDTAB
  0
TABLE
  2
STYLE
 70
     2
  0
STYLE
  2
STANDARD
 70
    64
 40
0.0
 41
1.0
 50
0.0
 71
     0
 42
0.2
  3
TXT
  4

  0
STYLE
  2
KANJI
 70
    64
 40
0.0
 41
1.0
 50
0.0
 71
     0
 42
0.2
  3
TXT
  4
BIGFONT
  0
ENDTAB
  0
TABLE
  2
VIEW
 70
     0
  0
ENDTAB
  0
ENDSEC
  0
SECTION
  2
BLOCKS
  0
BLOCK
  8
1
 62
7
  6
CONTINUOUS
  2
*D1
 70
    65
 10
0.0
 20
0.0
  0
LINE
  8
1
 62
7
  6
CONTINUOUS
 10
1419.572261
 20
880.946181
 11
1419.572261
 21
995.946181
  0
LINE
  8
1
 62
7
  6
CONTINUOUS
 10
1409.572261
 20
880.946181
 11
1458.311580
 21
880.946181
  0
LINE
  8
1
 62
7
  6
CONTINUOUS
 10
1409.572261
 20
995.946181
 11
1458.311580
 21
995.946181
  0
CIRCLE
  8
1
 62
7
  6
CONTINUOUS
 10
1419.572261
 20
880.946181
 40
1.500000
  0
CIRCLE
  8
1
 62
7
  6
CONTINUOUS
 10
1419.572261
 20
880.946181
 40
0.750000
  0
CIRCLE
  8
1
 62
7
  6
CONTINUOUS
 10
1419.572261
 20
995.946181
 40
1.500000
  0
CIRCLE
  8
1
 62
7
  6
CONTINUOUS
 10
1419.572261
 20
995.946181
 40
0.750000
  0
TEXT
  8
1
 62
7
  6
CONTINUOUS
 10
1419.572261
 20
923.446181
 40
20.000000
 41
0.500000
  1
115
  7
KANJI
 50
90.000000
 51
30.000000
  0
ENDBLK
  0
BLOCK
  8
1
 62
7
  6
CONTINUOUS
  2
*D2
 70
    65
 10
0.0
 20
0.0
  0
LINE
  8
1
 62
7
  6
CONTINUOUS
 10
1556.307713
 20
874.946181
 11
1556.307713
 21
1003.446181
  0
LINE
  8
1
 62
7
  6
CONTINUOUS
 10
1566.307713
 20
874.946181
 11
1498.311580
 21
874.946181
  0
LINE
  8
1
 62
7
  6
CONTINUOUS
 10
1566.307713
 20
1003.446181
 11
1499.879083
 21
1003.446181
  0
CIRCLE
  8
1
 62
7
  6
CONTINUOUS
 10
1556.307713
 20
874.946181
 40
1.500000
  0
CIRCLE
  8
1
 62
7
  6
CONTINUOUS
 10
1556.307713
 20
874.946181
 40
0.750000
  0
CIRCLE
  8
1
 62
7
  6
CONTINUOUS
 10
1556.307713
 20
1003.446181
 40
1.500000
  0
CIRCLE
  8
1
 62
7
  6
CONTINUOUS
 10
1556.307713
 20
1003.446181
 40
0.750000
  0
TEXT
  8
1
 62
7
  6
CONTINUOUS
 10
1556.307713
 20
924.196181
 40
20.000000
 41
0.500000
  1
130
  7
KANJI
 50
90.000000
 51
30.000000
  0
ENDBLK
  0
BLOCK
  8
1
 62
7
  6
CONTINUOUS
  2
*D3
 70
    65
 10
0.0
 20
0.0
  0
LINE
  8
1
 62
7
  6
CONTINUOUS
 10
1532.249354
 20
892.446181
 11
1532.249354
 21
984.446181
  0
LINE
  8
1
 62
7
  6
CONTINUOUS
 10
1542.249354
 20
892.446181
 11
1498.463542
 21
892.446181
  0
LINE
  8
1
 62
7
  6
CONTINUOUS
 10
1542.249354
 20
984.446181
 11
1498.908012
 21
984.446181
  0
CIRCLE
  8
1
 62
7
  6
CONTINUOUS
 10
1532.249354
 20
892.446181
 40
1.500000
  0
CIRCLE
  8
1
 62
7
  6
CONTINUOUS
 10
1532.249354
 20
892.446181
 40
0.750000
  0
CIRCLE
  8
1
 62
7
  6
CONTINUOUS
 10
1532.249354
 20
984.446181
 40
1.500000
  0
CIRCLE
  8
1
 62
7
  6
CONTINUOUS
 10
1532.249354
 20
984.446181
 40
0.750000
  0
TEXT
  8
1
 62
7
  6
CONTINUOUS
 10
1532.249354
 20
928.446181
 40
20.000000
 41
0.500000
  1
92
  7
KANJI
 50
90.000000
 51
30.000000
  0
ENDBLK
  0
BLOCK
  8
1
 62
7
  6
CONTINUOUS
  2
*D4
 70
    65
 10
0.0
 20
0.0
  0
LINE
  8
1
 62
7
  6
CONTINUOUS
 10
699.225693
 20
1215.842014
 11
929.225693
 21
1215.842014
  0
LINE
  8
1
 62
7
  6
CONTINUOUS
 10
699.225693
 20
1225.842014
 11
699.225693
 21
1094.446181
  0
LINE
  8
1
 62
7
  6
CONTINUOUS
 10
929.225693
 20
1225.842014
 11
929.225693
 21
1094.446181
  0
CIRCLE
  8
1
 62
7
  6
CONTINUOUS
 10
699.225693
 20
1215.842014
 40
1.500000
  0
CIRCLE
  8
1
 62
7
  6
CONTINUOUS
 10
699.225693
 20
1215.842014
 40
0.750000
  0
CIRCLE
  8
1
 62
7
  6
CONTINUOUS
 10
929.225693
 20
1215.842014
 40
1.500000
  0
CIRCLE
  8
1
 62
7
  6
CONTINUOUS
 10
929.225693
 20
1215.842014
 40
0.750000
  0
TEXT
  8
1
 62
7
  6
CONTINUOUS
 10
799.225693
 20
1215.842014
 40
20.000000
 41
0.500000
  1
230
  7
KANJI
 50
0.000000
 51
30.000000
  0
ENDBLK
  0
BLOCK
  8
1
 62
7
  6
CONTINUOUS
  2
*D5
 70
    65
 10
0.0
 20
0.0
  0
LINE
  8
1
 62
7
  6
CONTINUOUS
 10
699.225693
 20
1183.490360
 11
724.225693
 21
1183.490360
  0
LINE
  8
1
 62
7
  6
CONTINUOUS
 10
699.225693
 20
1193.490360
 11
699.225693
 21
1094.446181
  0
LINE
  8
1
 62
7
  6
CONTINUOUS
 10
724.225693
 20
1193.490360
 11
724.225693
 21
1094.446181
  0
CIRCLE
  8
1
 62
7
  6
CONTINUOUS
 10
699.225693
 20
1183.490360
 40
1.500000
  0
CIRCLE
  8
1
 62
7
  6
CONTINUOUS
 10
699.225693
 20
1183.490360
 40
0.750000
  0
CIRCLE
  8
1
 62
7
  6
CONTINUOUS
 10
724.225693
 20
1183.490360
 40
1.500000
  0
CIRCLE
  8
1
 62
7
  6
CONTINUOUS
 10
724.225693
 20
1183.490360
 40
0.750000
  0
TEXT
  8
1
 62
7
  6
CONTINUOUS
 10
701.725693
 20
1183.490360
 40
20.000000
 41
0.500000
  1
25
  7
KANJI
 50
0.000000
 51
30.000000
  0
ENDBLK
  0
BLOCK
  8
1
 62
7
  6
CONTINUOUS
  2
*D6
 70
    65
 10
0.0
 20
0.0
  0
LINE
  8
1
 62
7
  6
CONTINUOUS
 10
724.225693
 20
1183.490360
 11
904.225693
 21
1183.490360
  0
LINE
  8
1
 62
7
  6
CONTINUOUS
 10
904.225693
 20
1193.490360
 11
904.225693
 21
1094.446181
  0
CIRCLE
  8
1
 62
7
  6
CONTINUOUS
 10
904.225693
 20
1183.490360
 40
1.500000
  0
CIRCLE
  8
1
 62
7
  6
CONTINUOUS
 10
904.225693
 20
1183.490360
 40
0.750000
  0
TEXT
  8
1
 62
7
  6
CONTINUOUS
 10
799.225693
 20
1183.490360
 40
20.000000
 41
0.500000
  1
180
  7
KANJI
 50
0.000000
 51
30.000000
  0
ENDBLK
  0
BLOCK
  8
1
 62
7
  6
CONTINUOUS
  2
*D7
 70
    65
 10
0.0
 20
0.0
  0
LINE
  8
1
 62
7
  6
CONTINUOUS
 10
904.225693
 20
1183.490360
 11
929.225693
 21
1183.490360
  0
LINE
  8
1
 62
7
  6
CONTINUOUS
 10
929.225693
 20
1193.490360
 11
929.225693
 21
1094.446181
  0
CIRCLE
  8
1
 62
7
  6
CONTINUOUS
 10
929.225693
 20
1183.490360
 40
1.500000
  0
CIRCLE
  8
1
 62
7
  6
CONTINUOUS
 10
929.225693
 20
1183.490360
 40
0.750000
  0
TEXT
  8
1
 62
7
  6
CONTINUOUS
 10
906.725693
 20
1183.490360
 40
20.000000
 41
0.500000
  1
25
  7
KANJI
 50
0.000000
 51
30.000000
  0
ENDBLK
  0
BLOCK
  8
1
 62
7
  6
CONTINUOUS
  2
*D8
 70
    65
 10
0.0
 20
0.0
  0
LINE
  8
1
 62
7
  6
CONTINUOUS
 10
504.184028
 20
1084.446181
 11
504.184028
 21
624.446181
  0
LINE
  8
1
 62
7
  6
CONTINUOUS
 10
494.184028
 20
1084.446181
 11
689.225693
 21
1084.446181
  0
LINE
  8
1
 62
7
  6
CONTINUOUS
 10
494.184028
 20
624.446181
 11
689.225693
 21
624.446181
  0
CIRCLE
  8
1
 62
7
  6
CONTINUOUS
 10
504.184028
 20
1084.446181
 40
1.500000
  0
CIRCLE
  8
1
 62
7
  6
CONTINUOUS
 10
504.184028
 20
1084.446181
 40
0.750000
  0
CIRCLE
  8
1
 62
7
  6
CONTINUOUS
 10
504.184028
 20
624.446181
 40
1.500000
  0
CIRCLE
  8
1
 62
7
  6
CONTINUOUS
 10
504.184028
 20
624.446181
 40
0.750000
  0
TEXT
  8
1
 62
7
  6
CONTINUOUS
 10
504.184028
 20
839.446181
 40
20.000000
 41
0.500000
  1
460
  7
KANJI
 50
90.000000
 51
30.000000
  0
ENDBLK
  0
BLOCK
  8
1
 62
7
  6
CONTINUOUS
  2
*D9
 70
    65
 10
0.0
 20
0.0
  0
LINE
  8
1
 62
7
  6
CONTINUOUS
 10
551.032986
 20
1084.446181
 11
551.032986
 21
1059.446181
  0
LINE
  8
1
 62
7
  6
CONTINUOUS
 10
541.032986
 20
1084.446181
 11
689.225693
 21
1084.446181
  0
LINE
  8
1
 62
7
  6
CONTINUOUS
 10
541.032986
 20
1059.446181
 11
689.225693
 21
1059.446181
  0
CIRCLE
  8
1
 62
7
  6
CONTINUOUS
 10
551.032986
 20
1084.446181
 40
1.500000
  0
CIRCLE
  8
1
 62
7
  6
CONTINUOUS
 10
551.032986
 20
1084.446181
 40
0.750000
  0
CIRCLE
  8
1
 62
7
  6
CONTINUOUS
 10
551.032986
 20
1059.446181
 40
1.500000
  0
CIRCLE
  8
1
 62
7
  6
CONTINUOUS
 10
551.032986
 20
1059.446181
 40
0.750000
  0
TEXT
  8
1
 62
7
  6
CONTINUOUS
 10
551.032986
 20
1061.946181
 40
20.000000
 41
0.500000
  1
25
  7
KANJI
 50
90.000000
 51
30.000000
  0
ENDBLK
  0
BLOCK
  8
1
 62
7
  6
CONTINUOUS
  2
*D10
 70
    65
 10
0.0
 20
0.0
  0
LINE
  8
1
 62
7
  6
CONTINUOUS
 10
551.032986
 20
1059.446181
 11
551.032986
 21
649.446181
  0
LINE
  8
1
 62
7
  6
CONTINUOUS
 10
541.032986
 20
649.446181
 11
689.225693
 21
649.446181
  0
CIRCLE
  8
1
 62
7
  6
CONTINUOUS
 10
551.032986
 20
649.446181
 40
1.500000
  0
CIRCLE
  8
1
 62
7
  6
CONTINUOUS
 10
551.032986
 20
649.446181
 40
0.750000
  0
TEXT
  8
1
 62
7
  6
CONTINUOUS
 10
551.032986
 20
839.446181
 40
20.000000
 41
0.500000
  1
410
  7
KANJI
 50
90.000000
 51
30.000000
  0
ENDBLK
  0
BLOCK
  8
1
 62
7
  6
CONTINUOUS
  2
*D11
 70
    65
 10
0.0
 20
0.0
  0
LINE
  8
1
 62
7
  6
CONTINUOUS
 10
551.032986
 20
649.446181
 11
551.032986
 21
624.446181
  0
LINE
  8
1
 62
7
  6
CONTINUOUS
 10
541.032986
 20
624.446181
 11
689.225693
 21
624.446181
  0
CIRCLE
  8
1
 62
7
  6
CONTINUOUS
 10
551.032986
 20
624.446181
 40
1.500000
  0
CIRCLE
  8
1
 62
7
  6
CONTINUOUS
 10
551.032986
 20
624.446181
 40
0.750000
  0
TEXT
  8
1
 62
7
  6
CONTINUOUS
 10
551.032986
 20
626.946181
 40
20.000000
 41
0.500000
  1
25
  7
KANJI
 50
90.000000
 51
30.000000
  0
ENDBLK
  0
BLOCK
  8
1
 62
7
  6
CONTINUOUS
  2
*D12
 70
    65
 10
0.0
 20
0.0
  0
LINE
  8
1
 62
7
  6
CONTINUOUS
 10
586.727431
 20
1059.446181
 11
586.727431
 21
938.446181
  0
LINE
  8
1
 62
7
  6
CONTINUOUS
 10
576.727431
 20
1059.446181
 11
689.225693
 21
1059.446181
  0
LINE
  8
1
 62
7
  6
CONTINUOUS
 10
576.727431
 20
938.446181
 11
689.225693
 21
938.446181
  0
CIRCLE
  8
1
 62
7
  6
CONTINUOUS
 10
586.727431
 20
1059.446181
 40
1.500000
  0
CIRCLE
  8
1
 62
7
  6
CONTINUOUS
 10
586.727431
 20
1059.446181
 40
0.750000
  0
CIRCLE
  8
1
 62
7
  6
CONTINUOUS
 10
586.727431
 20
938.446181
 40
1.500000
  0
CIRCLE
  8
1
 62
7
  6
CONTINUOUS
 10
586.727431
 20
938.446181
 40
0.750000
  0
TEXT
  8
1
 62
7
  6
CONTINUOUS
 10
586.727431
 20
983.946181
 40
20.000000
 41
0.500000
  1
120
  7
KANJI
 50
90.000000
 51
30.000000
  0
ENDBLK
  0
BLOCK
  8
1
 62
7
  6
CONTINUOUS
  2
*D13
 70
    65
 10
0.0
 20
0.0
  0
LINE
  8
1
 62
7
  6
CONTINUOUS
 10
756.725693
 20
820.972222
 11
871.725693
 21
820.972222
  0
LINE
  8
1
 62
7
  6
CONTINUOUS
 10
756.725693
 20
810.972222
 11
756.725693
 21
928.446181
  0
LINE
  8
1
 62
7
  6
CONTINUOUS
 10
871.725693
 20
810.972222
 11
871.725693
 21
928.446181
  0
CIRCLE
  8
1
 62
7
  6
CONTINUOUS
 10
756.725693
 20
820.972222
 40
1.500000
  0
CIRCLE
  8
1
 62
7
  6
CONTINUOUS
 10
756.725693
 20
820.972222
 40
0.750000
  0
CIRCLE
  8
1
 62
7
  6
CONTINUOUS
 10
871.725693
 20
820.972222
 40
1.500000
  0
CIRCLE
  8
1
 62
7
  6
CONTINUOUS
 10
871.725693
 20
820.972222
 40
0.750000
  0
TEXT
  8
1
 62
7
  6
CONTINUOUS
 10
799.225693
 20
820.972222
 40
20.000000
 41
0.500000
  1
115
  7
KANJI
 50
0.000000
 51
30.000000
  0
ENDBLK
  0
BLOCK
  8
1
 62
7
  6
CONTINUOUS
  2
*D14
 70
    65
 10
0.0
 20
0.0
  0
LINE
  8
1
 62
7
  6
CONTINUOUS
 10
749.225693
 20
222.714940
 11
879.225693
 21
222.714940
  0
LINE
  8
1
 62
7
  6
CONTINUOUS
 10
749.225693
 20
212.714940
 11
749.225693
 21
292.951389
  0
LINE
  8
1
 62
7
  6
CONTINUOUS
 10
879.225693
 20
212.714940
 11
879.225693
 21
292.951389
  0
CIRCLE
  8
1
 62
7
  6
CONTINUOUS
 10
749.225693
 20
222.714940
 40
1.500000
  0
CIRCLE
  8
1
 62
7
  6
CONTINUOUS
 10
749.225693
 20
222.714940
 40
0.750000
  0
CIRCLE
  8
1
 62
7
  6
CONTINUOUS
 10
879.225693
 20
222.714940
 40
1.500000
  0
CIRCLE
  8
1
 62
7
  6
CONTINUOUS
 10
879.225693
 20
222.714940
 40
0.750000
  0
TEXT
  8
1
 62
7
  6
CONTINUOUS
 10
799.225693
 20
222.714940
 40
20.000000
 41
0.500000
  1
130
  7
KANJI
 50
0.000000
 51
30.000000
  0
ENDBLK
  0
BLOCK
  8
1
 62
7
  6
CONTINUOUS
  2
*D15
 70
    65
 10
0.0
 20
0.0
  0
LINE
  8
1
 62
7
  6
CONTINUOUS
 10
699.225693
 20
517.951389
 11
929.225693
 21
517.951389
  0
LINE
  8
1
 62
7
  6
CONTINUOUS
 10
699.225693
 20
527.951389
 11
699.225693
 21
465.951389
  0
LINE
  8
1
 62
7
  6
CONTINUOUS
 10
929.225693
 20
527.951389
 11
929.225693
 21
465.951389
  0
CIRCLE
  8
1
 62
7
  6
CONTINUOUS
 10
699.225693
 20
517.951389
 40
1.500000
  0
CIRCLE
  8
1
 62
7
  6
CONTINUOUS
 10
699.225693
 20
517.951389
 40
0.750000
  0
CIRCLE
  8
1
 62
7
  6
CONTINUOUS
 10
929.225693
 20
517.951389
 40
1.500000
  0
CIRCLE
  8
1
 62
7
  6
CONTINUOUS
 10
929.225693
 20
517.951389
 40
0.750000
  0
TEXT
  8
1
 62
7
  6
CONTINUOUS
 10
799.225693
 20
517.951389
 40
20.000000
 41
0.500000
  1
230
  7
KANJI
 50
0.000000
 51
30.000000
  0
ENDBLK
  0
BLOCK
  8
1
 62
7
  6
CONTINUOUS
  2
*D16
 70
    65
 10
0.0
 20
0.0
  0
LINE
  8
1
 62
7
  6
CONTINUOUS
 10
699.225693
 20
496.878356
 11
724.225693
 21
496.878356
  0
LINE
  8
1
 62
7
  6
CONTINUOUS
 10
699.225693
 20
506.878356
 11
699.225693
 21
465.951389
  0
LINE
  8
1
 62
7
  6
CONTINUOUS
 10
724.225693
 20
506.878356
 11
724.225693
 21
465.951389
  0
CIRCLE
  8
1
 62
7
  6
CONTINUOUS
 10
699.225693
 20
496.878356
 40
1.500000
  0
CIRCLE
  8
1
 62
7
  6
CONTINUOUS
 10
699.225693
 20
496.878356
 40
0.750000
  0
CIRCLE
  8
1
 62
7
  6
CONTINUOUS
 10
724.225693
 20
496.878356
 40
1.500000
  0
CIRCLE
  8
1
 62
7
  6
CONTINUOUS
 10
724.225693
 20
496.878356
 40
0.750000
  0
TEXT
  8
1
 62
7
  6
CONTINUOUS
 10
701.725693
 20
496.878356
 40
20.000000
 41
0.500000
  1
25
  7
KANJI
 50
0.000000
 51
30.000000
  0
ENDBLK
  0
BLOCK
  8
1
 62
7
  6
CONTINUOUS
  2
*D17
 70
    65
 10
0.0
 20
0.0
  0
LINE
  8
1
 62
7
  6
CONTINUOUS
 10
724.225693
 20
496.878356
 11
904.225693
 21
496.878356
  0
LINE
  8
1
 62
7
  6
CONTINUOUS
 10
904.225693
 20
506.878356
 11
904.225693
 21
465.951389
  0
CIRCLE
  8
1
 62
7
  6
CONTINUOUS
 10
904.225693
 20
496.878356
 40
1.500000
  0
CIRCLE
  8
1
 62
7
  6
CONTINUOUS
 10
904.225693
 20
496.878356
 40
0.750000
  0
TEXT
  8
1
 62
7
  6
CONTINUOUS
 10
799.225693
 20
496.878356
 40
20.000000
 41
0.500000
  1
180
  7
KANJI
 50
0.000000
 51
30.000000
  0
ENDBLK
  0
BLOCK
  8
1
 62
7
  6
CONTINUOUS
  2
*D18
 70
    65
 10
0.0
 20
0.0
  0
LINE
  8
1
 62
7
  6
CONTINUOUS
 10
904.225693
 20
496.878356
 11
929.225693
 21
496.878356
  0
LINE
  8
1
 62
7
  6
CONTINUOUS
 10
929.225693
 20
506.878356
 11
929.225693
 21
465.951389
  0
CIRCLE
  8
1
 62
7
  6
CONTINUOUS
 10
929.225693
 20
496.878356
 40
1.500000
  0
CIRCLE
  8
1
 62
7
  6
CONTINUOUS
 10
929.225693
 20
496.878356
 40
0.750000
  0
TEXT
  8
1
 62
7
  6
CONTINUOUS
 10
906.725693
 20
496.878356
 40
20.000000
 41
0.500000
  1
25
  7
KANJI
 50
0.000000
 51
30.000000
  0
ENDBLK
  0
BLOCK
  8
1
 62
7
  6
CONTINUOUS
  2
*D19
 70
    65
 10
0.0
 20
0.0
  0
LINE
  8
1
 62
7
  6
CONTINUOUS
 10
616.176773
 20
455.951389
 11
616.176773
 21
302.951389
  0
LINE
  8
1
 62
7
  6
CONTINUOUS
 10
606.176773
 20
455.951389
 11
689.225693
 21
455.951389
  0
LINE
  8
1
 62
7
  6
CONTINUOUS
 10
606.176773
 20
302.951389
 11
689.225693
 21
302.951389
  0
CIRCLE
  8
1
 62
7
  6
CONTINUOUS
 10
616.176773
 20
455.951389
 40
1.500000
  0
CIRCLE
  8
1
 62
7
  6
CONTINUOUS
 10
616.176773
 20
455.951389
 40
0.750000
  0
CIRCLE
  8
1
 62
7
  6
CONTINUOUS
 10
616.176773
 20
302.951389
 40
1.500000
  0
CIRCLE
  8
1
 62
7
  6
CONTINUOUS
 10
616.176773
 20
302.951389
 40
0.750000
  0
TEXT
  8
1
 62
7
  6
CONTINUOUS
 10
616.176773
 20
364.451389
 40
20.000000
 41
0.500000
  1
153
  7
KANJI
 50
90.000000
 51
30.000000
  0
ENDBLK
  0
BLOCK
  8
1
 62
7
  6
CONTINUOUS
  2
*D20
 70
    65
 10
0.0
 20
0.0
  0
LINE
  8
1
 62
7
  6
CONTINUOUS
 10
639.122895
 20
455.951389
 11
639.122895
 21
315.951389
  0
LINE
  8
1
 62
7
  6
CONTINUOUS
 10
629.122895
 20
455.951389
 11
689.225693
 21
455.951389
  0
LINE
  8
1
 62
7
  6
CONTINUOUS
 10
629.122895
 20
315.951389
 11
689.225693
 21
315.951389
  0
CIRCLE
  8
1
 62
7
  6
CONTINUOUS
 10
639.122895
 20
455.951389
 40
1.500000
  0
CIRCLE
  8
1
 62
7
  6
CONTINUOUS
 10
639.122895
 20
455.951389
 40
0.750000
  0
CIRCLE
  8
1
 62
7
  6
CONTINUOUS
 10
639.122895
 20
315.951389
 40
1.500000
  0
CIRCLE
  8
1
 62
7
  6
CONTINUOUS
 10
639.122895
 20
315.951389
 40
0.750000
  0
TEXT
  8
1
 62
7
  6
CONTINUOUS
 10
639.122895
 20
370.951389
 40
20.000000
 41
0.500000
  1
140
  7
KANJI
 50
90.000000
 51
30.000000
  0
ENDBLK
  0
BLOCK
  8
1
 62
7
  6
CONTINUOUS
  2
*D21
 70
    65
 10
0.0
 20
0.0
  0
LINE
  8
1
 62
7
  6
CONTINUOUS
 10
639.122895
 20
315.951389
 11
639.122895
 21
302.951389
  0
LINE
  8
1
 62
7
  6
CONTINUOUS
 10
629.122895
 20
302.951389
 11
689.225693
 21
302.951389
  0
CIRCLE
  8
1
 62
7
  6
CONTINUOUS
 10
639.122895
 20
302.951389
 40
1.500000
  0
CIRCLE
  8
1
 62
7
  6
CONTINUOUS
 10
639.122895
 20
302.951389
 40
0.750000
  0
TEXT
  8
1
 62
7
  6
CONTINUOUS
 10
639.122895
 20
299.451389
 40
20.000000
 41
0.500000
  1
13
  7
KANJI
 50
90.000000
 51
30.000000
  0
ENDBLK
  0
BLOCK
  8
1
 62
7
  6
CONTINUOUS
  2
*D22
 70
    65
 10
0.0
 20
0.0
  0
LINE
  8
1
 62
7
  6
CONTINUOUS
 10
1242.932634
 20
1084.446181
 11
1242.932634
 21
624.446181
  0
LINE
  8
1
 62
7
  6
CONTINUOUS
 10
1232.932634
 20
1084.446181
 11
1328.311580
 21
1084.446181
  0
LINE
  8
1
 62
7
  6
CONTINUOUS
 10
1232.932634
 20
624.446181
 11
1328.311580
 21
624.446181
  0
CIRCLE
  8
1
 62
7
  6
CONTINUOUS
 10
1242.932634
 20
1084.446181
 40
1.500000
  0
CIRCLE
  8
1
 62
7
  6
CONTINUOUS
 10
1242.932634
 20
1084.446181
 40
0.750000
  0
CIRCLE
  8
1
 62
7
  6
CONTINUOUS
 10
1242.932634
 20
624.446181
 40
1.500000
  0
CIRCLE
  8
1
 62
7
  6
CONTINUOUS
 10
1242.932634
 20
624.446181
 40
0.750000
  0
TEXT
  8
1
 62
7
  6
CONTINUOUS
 10
1242.932634
 20
839.446181
 40
20.000000
 41
0.500000
  1
460
  7
KANJI
 50
90.000000
 51
30.000000
  0
ENDBLK
  0
BLOCK
  8
1
 62
7
  6
CONTINUOUS
  2
*D23
 70
    65
 10
0.0
 20
0.0
  0
LINE
  8
1
 62
7
  6
CONTINUOUS
 10
1269.778306
 20
1084.446181
 11
1269.778306
 21
1059.446181
  0
LINE
  8
1
 62
7
  6
CONTINUOUS
 10
1259.778306
 20
1084.446181
 11
1328.311580
 21
1084.446181
  0
LINE
  8
1
 62
7
  6
CONTINUOUS
 10
1259.778306
 20
1059.446181
 11
1328.311579
 21
1059.446181
  0
CIRCLE
  8
1
 62
7
  6
CONTINUOUS
 10
1269.778306
 20
1084.446181
 40
1.500000
  0
CIRCLE
  8
1
 62
7
  6
CONTINUOUS
 10
1269.778306
 20
1084.446181
 40
0.750000
  0
CIRCLE
  8
1
 62
7
  6
CONTINUOUS
 10
1269.778306
 20
1059.446181
 40
1.500000
  0
CIRCLE
  8
1
 62
7
  6
CONTINUOUS
 10
1269.778306
 20
1059.446181
 40
0.750000
  0
TEXT
  8
1
 62
7
  6
CONTINUOUS
 10
1269.778306
 20
1061.946181
 40
20.000000
 41
0.500000
  1
25
  7
KANJI
 50
90.000000
 51
30.000000
  0
ENDBLK
  0
BLOCK
  8
1
 62
7
  6
CONTINUOUS
  2
*D24
 70
    65
 10
0.0
 20
0.0
  0
LINE
  8
1
 62
7
  6
CONTINUOUS
 10
1269.778306
 20
1059.446181
 11
1269.778306
 21
649.446181
  0
LINE
  8
1
 62
7
  6
CONTINUOUS
 10
1259.778306
 20
649.446181
 11
1328.311581
 21
649.446181
  0
CIRCLE
  8
1
 62
7
  6
CONTINUOUS
 10
1269.778306
 20
649.446181
 40
1.500000
  0
CIRCLE
  8
1
 62
7
  6
CONTINUOUS
 10
1269.778306
 20
649.446181
 40
0.750000
  0
TEXT
  8
1
 62
7
  6
CONTINUOUS
 10
1269.778306
 20
839.446181
 40
20.000000
 41
0.500000
  1
410
  7
KANJI
 50
90.000000
 51
30.000000
  0
ENDBLK
  0
BLOCK
  8
1
 62
7
  6
CONTINUOUS
  2
*D25
 70
    65
 10
0.0
 20
0.0
  0
LINE
  8
1
 62
7
  6
CONTINUOUS
 10
1269.778306
 20
649.446181
 11
1269.778306
 21
624.446181
  0
LINE
  8
1
 62
7
  6
CONTINUOUS
 10
1259.778306
 20
624.446181
 11
1328.311580
 21
624.446181
  0
CIRCLE
  8
1
 62
7
  6
CONTINUOUS
 10
1269.778306
 20
624.446181
 40
1.500000
  0
CIRCLE
  8
1
 62
7
  6
CONTINUOUS
 10
1269.778306
 20
624.446181
 40
0.750000
  0
TEXT
  8
1
 62
7
  6
CONTINUOUS
 10
1269.778306
 20
626.946181
 40
20.000000
 41
0.500000
  1
25
  7
KANJI
 50
90.000000
 51
30.000000
  0
ENDBLK
  0
BLOCK
  8
1
 62
7
  6
CONTINUOUS
  2
*D26
 70
    65
 10
0.0
 20
0.0
  0
LINE
  8
1
 62
7
  6
CONTINUOUS
 10
1333.311580
 20
1129.725216
 11
1355.311580
 21
1129.725216
  0
LINE
  8
1
 62
7
  6
CONTINUOUS
 10
1338.311580
 20
1139.725216
 11
1338.311580
 21
1094.446181
  0
LINE
  8
1
 62
7
  6
CONTINUOUS
 10
1350.311580
 20
1139.725216
 11
1350.311580
 21
1094.446181
  0
CIRCLE
  8
1
 62
7
  6
CONTINUOUS
 10
1338.311580
 20
1129.725216
 40
1.500000
  0
CIRCLE
  8
1
 62
7
  6
CONTINUOUS
 10
1338.311580
 20
1129.725216
 40
0.750000
  0
CIRCLE
  8
1
 62
7
  6
CONTINUOUS
 10
1350.311580
 20
1129.725216
 40
1.500000
  0
CIRCLE
  8
1
 62
7
  6
CONTINUOUS
 10
1350.311580
 20
1129.725216
 40
0.750000
  0
TEXT
  8
1
 62
7
  6
CONTINUOUS
 10
1334.311580
 20
1129.725216
 40
20.000000
 41
0.500000
  1
12
  7
KANJI
 50
0.000000
 51
30.000000
  0
ENDBLK
  0
BLOCK
  8
1
 62
7
  6
CONTINUOUS
  2
*D27
 70
    65
 10
0.0
 20
0.0
  0
LINE
  8
1
 62
7
  6
CONTINUOUS
 10
1297.639645
 20
938.446181
 11
1297.639645
 21
1059.446181
  0
LINE
  8
1
 62
7
  6
CONTINUOUS
 10
1287.639645
 20
938.446181
 11
1328.311580
 21
938.446181
  0
LINE
  8
1
 62
7
  6
CONTINUOUS
 10
1287.639645
 20
1059.446181
 11
1328.311579
 21
1059.446181
  0
CIRCLE
  8
1
 62
7
  6
CONTINUOUS
 10
1297.639645
 20
938.446181
 40
1.500000
  0
CIRCLE
  8
1
 62
7
  6
CONTINUOUS
 10
1297.639645
 20
938.446181
 40
0.750000
  0
CIRCLE
  8
1
 62
7
  6
CONTINUOUS
 10
1297.639645
 20
1059.446181
 40
1.500000
  0
CIRCLE
  8
1
 62
7
  6
CONTINUOUS
 10
1297.639645
 20
1059.446181
 40
0.750000
  0
TEXT
  8
1
 62
7
  6
CONTINUOUS
 10
1297.639645
 20
983.946181
 40
20.000000
 41
0.500000
  1
120
  7
KANJI
 50
90.000000
 51
30.000000
  0
ENDBLK
  0
BLOCK
  8
1
 62
7
  6
CONTINUOUS
  2
*D28
 70
    65
 10
0.0
 20
0.0
  0
LINE
  8
1
 62
7
  6
CONTINUOUS
 10
1338.311580
 20
1155.201076
 11
1478.311580
 21
1155.201076
  0
LINE
  8
1
 62
7
  6
CONTINUOUS
 10
1338.311580
 20
1165.201076
 11
1338.311580
 21
1094.446181
  0
LINE
  8
1
 62
7
  6
CONTINUOUS
 10
1478.311580
 20
1165.201076
 11
1478.311580
 21
1094.446181
  0
CIRCLE
  8
1
 62
7
  6
CONTINUOUS
 10
1338.311580
 20
1155.201076
 40
1.500000
  0
CIRCLE
  8
1
 62
7
  6
CONTINUOUS
 10
1338.311580
 20
1155.201076
 40
0.750000
  0
CIRCLE
  8
1
 62
7
  6
CONTINUOUS
 10
1478.311580
 20
1155.201076
 40
1.500000
  0
CIRCLE
  8
1
 62
7
  6
CONTINUOUS
 10
1478.311580
 20
1155.201076
 40
0.750000
  0
TEXT
  8
1
 62
7
  6
CONTINUOUS
 10
1393.311580
 20
1155.201076
 40
20.000000
 41
0.500000
  1
140
  7
KANJI
 50
0.000000
 51
30.000000
  0
ENDBLK
  0
BLOCK
  8
1
 62
7
  6
CONTINUOUS
  2
*D29
 70
    65
 10
0.0
 20
0.0
  0
LINE
  8
1
 62
7
  6
CONTINUOUS
 10
1478.311580
 20
1155.201076
 11
1488.908012
 21
1155.201076
  0
LINE
  8
1
 62
7
  6
CONTINUOUS
 10
1488.908012
 20
1165.201076
 11
1488.908012
 21
1094.446181
  0
CIRCLE
  8
1
 62
7
  6
CONTINUOUS
 10
1488.908012
 20
1155.201076
 40
1.500000
  0
CIRCLE
  8
1
 62
7
  6
CONTINUOUS
 10
1488.908012
 20
1155.201076
 40
0.750000
  0
TEXT
  8
1
 62
7
  6
CONTINUOUS
 10
1473.609796
 20
1155.201076
 40
20.000000
 41
0.500000
  1
15
  7
KANJI
 50
0.000000
 51
30.000000
  0
ENDBLK
  0
ENDSEC
  0
SECTION
  2
ENTITIES
  0
TEXT
  8
1
 62
7
  6
CONTINUOUS
 10
39.900000
 20
144.259375
 40
24.750000
 41
0.800000
  1
取引先：
  7
KANJI
 50
0.000000
 51
0.000000
  0
TEXT
  8
1
 62
7
  6
CONTINUOUS
 10
119.100000
 20
156.634375
 40
12.375000
 41
0.400000
  1

  7
KANJI
 50
0.000000
 51
0.000000
  0
TEXT
  8
1
 62
7
  6
CONTINUOUS
 10
119.100000
 20
144.259375
 40
12.375000
 41
0.400000
  1

  7
KANJI
 50
0.000000
 51
0.000000
  0
TEXT
  8
1
 62
7
  6
CONTINUOUS
 10
39.900000
 20
94.759375
 40
24.750000
 41
0.800000
  1
物件名：
  7
KANJI
 50
0.000000
 51
0.000000
  0
TEXT
  8
1
 62
7
  6
CONTINUOUS
 10
119.100000
 20
107.134375
 40
12.375000
 41
0.400000
  1

  7
KANJI
 50
0.000000
 51
0.000000
  0
TEXT
  8
1
 62
7
  6
CONTINUOUS
 10
119.100000
 20
94.759375
 40
12.375000
 41
0.400000
  1

  7
KANJI
 50
0.000000
 51
0.000000
  0
TEXT
  8
1
 62
7
  6
CONTINUOUS
 10
39.900000
 20
45.259375
 40
24.750000
 41
0.700000
  1
納 期：
  7
KANJI
 50
0.000000
 51
0.000000
  0
TEXT
  8
1
 62
7
  6
CONTINUOUS
 10
109.200000
 20
57.634375
 40
12.375000
 41
0.400000
  1

  7
KANJI
 50
0.000000
 51
0.000000
  0
TEXT
  8
1
 62
7
  6
CONTINUOUS
 10
109.200000
 20
45.259375
 40
12.375000
 41
0.400000
  1

  7
KANJI
 50
0.000000
 51
0.000000
  0
LINE
  8
1
 62
7
  6
CONTINUOUS
 10
30.000000
 20
188.500000
 11
30.000000
 21
40.000000
  0
LINE
  8
1
 62
7
  6
CONTINUOUS
 10
30.000000
 20
188.500000
 11
327.000000
 21
188.500000
  0
LINE
  8
1
 62
7
  6
CONTINUOUS
 10
327.000000
 20
188.500000
 11
327.000000
 21
139.000000
  0
LINE
  8
1
 62
7
  6
CONTINUOUS
 10
327.000000
 20
139.000000
 11
30.000000
 21
139.000000
  0
LINE
  8
1
 62
7
  6
CONTINUOUS
 10
30.000000
 20
139.000000
 11
30.000000
 21
89.500000
  0
LINE
  8
1
 62
7
  6
CONTINUOUS
 10
30.000000
 20
89.500000
 11
327.000000
 21
89.500000
  0
LINE
  8
1
 62
7
  6
CONTINUOUS
 10
327.000000
 20
89.500000
 11
327.000000
 21
139.000000
  0
LINE
  8
1
 62
7
  6
CONTINUOUS
 10
327.000000
 20
139.000000
 11
327.000000
 21
40.000000
  0
LINE
  8
1
 62
7
  6
CONTINUOUS
 10
327.000000
 20
40.000000
 11
30.000000
 21
40.000000
  0
TEXT
  8
1
 62
7
  6
CONTINUOUS
 10
341.850000
 20
144.259375
 40
24.750000
 41
0.800000
  1
　色柄：
  7
KANJI
 50
0.000000
 51
0.000000
  0
TEXT
  8
1
 62
7
  6
CONTINUOUS
 10
421.050000
 20
156.634375
 40
12.375000
 41
0.400000
  1

  7
KANJI
 50
0.000000
 51
0.000000
  0
TEXT
  8
1
 62
7
  6
CONTINUOUS
 10
421.050000
 20
144.259375
 40
12.375000
 41
0.400000
  1

  7
KANJI
 50
0.000000
 51
0.000000
  0
TEXT
  8
1
 62
7
  6
CONTINUOUS
 10
341.850000
 20
94.759375
 40
24.750000
 41
0.800000
  1
　厚み：
  7
KANJI
 50
0.000000
 51
0.000000
  0
TEXT
  8
1
 62
7
  6
CONTINUOUS
 10
421.050000
 20
107.134375
 40
12.375000
 41
0.400000
  1

  7
KANJI
 50
0.000000
 51
0.000000
  0
TEXT
  8
1
 62
7
  6
CONTINUOUS
 10
421.050000
 20
94.759375
 40
12.375000
 41
0.400000
  1

  7
KANJI
 50
0.000000
 51
0.000000
  0
TEXT
  8
1
 62
7
  6
CONTINUOUS
 10
341.850000
 20
45.259375
 40
24.750000
 41
0.800000
  1
付属品：
  7
KANJI
 50
0.000000
 51
0.000000
  0
TEXT
  8
1
 62
7
  6
CONTINUOUS
 10
421.050000
 20
57.634375
 40
12.375000
 41
0.400000
  1

  7
KANJI
 50
0.000000
 51
0.000000
  0
TEXT
  8
1
 62
7
  6
CONTINUOUS
 10
421.050000
 20
45.259375
 40
12.375000
 41
0.400000
  1

  7
KANJI
 50
0.000000
 51
0.000000
  0
LINE
  8
1
 62
7
  6
CONTINUOUS
 10
429.073950
 20
40.000000
 11
429.073950
 21
188.500000
  0
TEXT
  8
1
 62
7
  6
CONTINUOUS
 10
438.973950
 20
164.987500
 40
19.800000
 41
1.000000
  1
単色シリーズ
  7
KANJI
 50
0.000000
 51
0.000000
  0
TEXT
  8
1
 62
7
  6
CONTINUOUS
 10
557.773950
 20
174.887500
 40
9.900000
 41
0.500000
  1

  7
KANJI
 50
0.000000
 51
0.000000
  0
TEXT
  8
1
 62
7
  6
CONTINUOUS
 10
557.773950
 20
164.987500
 40
9.900000
 41
0.500000
  1

  7
KANJI
 50
0.000000
 51
0.000000
  0
LINE
  8
1
 62
7
  6
CONTINUOUS
 10
1615.489950
 20
40.000000
 11
1615.489950
 21
188.500000
  0
TEXT
  8
1
 62
7
  6
CONTINUOUS
 10
1235.923950
 20
94.759375
 40
24.750000
 41
0.800000
  1
埼玉県比企郡川島町表２１－５
  7
KANJI
 50
0.000000
 51
0.000000
  0
TEXT
  8
1
 62
7
  6
CONTINUOUS
 10
1513.123950
 20
107.134375
 40
12.375000
 41
0.400000
  1

  7
KANJI
 50
0.000000
 51
0.000000
  0
TEXT
  8
1
 62
7
  6
CONTINUOUS
 10
1513.123950
 20
94.759375
 40
12.375000
 41
0.400000
  1

  7
KANJI
 50
0.000000
 51
0.000000
  0
TEXT
  8
1
 62
7
  6
CONTINUOUS
 10
1235.923950
 20
70.009375
 40
24.750000
 41
0.647059
  1
  TEL ０４９２－９７－７２７１
  7
KANJI
 50
0.000000
 51
0.000000
  0
TEXT
  8
1
 62
7
  6
CONTINUOUS
 10
1495.798950
 20
82.384375
 40
12.375000
 41
0.388235
  1

  7
KANJI
 50
0.000000
 51
0.000000
  0
TEXT
  8
1
 62
7
  6
CONTINUOUS
 10
1495.798950
 20
70.009375
 40
12.375000
 41
0.388235
  1

  7
KANJI
 50
0.000000
 51
0.000000
  0
TEXT
  8
1
 62
7
  6
CONTINUOUS
 10
1235.923950
 20
45.259375
 40
24.750000
 41
0.647059
  1
  FAX ０４９２－９７－７２７３
  7
KANJI
 50
0.000000
 51
0.000000
  0
TEXT
  8
1
 62
7
  6
CONTINUOUS
 10
1495.798950
 20
57.634375
 40
12.375000
 41
0.388235
  1

  7
KANJI
 50
0.000000
 51
0.000000
  0
TEXT
  8
1
 62
7
  6
CONTINUOUS
 10
1495.798950
 20
45.259375
 40
12.375000
 41
0.388235
  1

  7
KANJI
 50
0.000000
 51
0.000000
  0
TEXT
  8
1
 62
7
  6
CONTINUOUS
 10
1235.923950
 20
117.653125
 40
34.650000
 41
1.285714
  1
㈱三井ＰＣＯ
  7
KANJI
 50
0.000000
 51
0.000000
  0
TEXT
  8
1
 62
7
  6
CONTINUOUS
 10
1468.573950
 20
134.978125
 40
17.325000
 41
0.642857
  1

  7
KANJI
 50
0.000000
 51
0.000000
  0
TEXT
  8
1
 62
7
  6
CONTINUOUS
 10
1468.573950
 20
117.653125
 40
17.325000
 41
0.642857
  1

  7
KANJI
 50
0.000000
 51
0.000000
  0
LINE
  8
1
 62
7
  6
CONTINUOUS
 10
429.073950
 20
188.500000
 11
578.420400
 21
188.500000
  0
LINE
  8
1
 62
7
  6
CONTINUOUS
 10
578.420400
 20
188.500000
 11
722.960400
 21
188.500000
  0
LINE
  8
1
 62
7
  6
CONTINUOUS
 10
722.960400
 20
188.500000
 11
872.851350
 21
188.500000
  0
LINE
  8
1
 62
7
  6
CONTINUOUS
 10
872.851350
 20
40.000000
 11
429.073950
 21
40.000000
  0
LINE
  8
1
 62
7
  6
CONTINUOUS
 10
429.073950
 20
139.000000
 11
872.851350
 21
139.000000
  0
LINE
  8
1
 62
7
  6
CONTINUOUS
 10
872.851350
 20
89.500000
 11
429.073950
 21
89.500000
  0
LINE
  8
1
 62
7
  6
CONTINUOUS
 10
578.420400
 20
188.500000
 11
578.420400
 21
89.500000
  0
LINE
  8
1
 62
7
  6
CONTINUOUS
 10
906.348000
 20
139.000000
 11
872.851350
 21
139.000000
  0
LINE
  8
1
 62
7
  6
CONTINUOUS
 10
872.851350
 20
139.000000
 11
906.348000
 21
139.000000
  0
LINE
  8
1
 62
7
  6
CONTINUOUS
 10
906.348000
 20
89.500000
 11
872.851350
 21
89.500000
  0
LINE
  8
1
 62
7
  6
CONTINUOUS
 10
872.851350
 20
89.500000
 11
906.348000
 21
89.500000
  0
LINE
  8
1
 62
7
  6
CONTINUOUS
 10
578.420400
 20
89.500000
 11
578.420400
 21
40.000000
  0
LINE
  8
1
 62
7
  6
CONTINUOUS
 10
872.851350
 20
188.500000
 11
906.348000
 21
188.500000
  0
LINE
  8
1
 62
7
  6
CONTINUOUS
 10
906.348000
 20
40.000000
 11
872.851350
 21
40.000000
  0
LINE
  8
1
 62
7
  6
CONTINUOUS
 10
1129.098000
 20
188.500000
 11
1129.098000
 21
40.000000
  0
LINE
  8
1
 62
7
  6
CONTINUOUS
 10
1129.098000
 20
40.000000
 11
1615.489950
 21
40.000000
  0
LINE
  8
1
 62
7
  6
CONTINUOUS
 10
1615.489950
 20
188.500000
 11
1129.098000
 21
188.500000
  0
LINE
  8
1
 62
7
  6
CONTINUOUS
 10
906.348000
 20
188.500000
 11
1121.673000
 21
188.500000
  0
LINE
  8
1
 62
7
  6
CONTINUOUS
 10
1121.673000
 20
188.500000
 11
1121.673000
 21
40.000000
  0
LINE
  8
1
 62
7
  6
CONTINUOUS
 10
1121.673000
 20
40.000000
 11
906.348000
 21
40.000000
  0
LINE
  8
1
 62
7
  6
CONTINUOUS
 10
906.348000
 20
139.000000
 11
1121.673000
 21
139.000000
  0
LINE
  8
1
 62
7
  6
CONTINUOUS
 10
1121.673000
 20
89.500000
 11
906.348000
 21
89.500000
  0
TEXT
  8
1
 62
7
  6
CONTINUOUS
 10
931.360845
 20
164.987500
 40
19.800000
 41
1.000000
  1
モンタナシリーズ
  7
KANJI
 50
0.000000
 51
0.000000
  0
TEXT
  8
1
 62
7
  6
CONTINUOUS
 10
1089.760845
 20
174.887500
 40
9.900000
 41
0.500000
  1

  7
KANJI
 50
0.000000
 51
0.000000
  0
TEXT
  8
1
 62
7
  6
CONTINUOUS
 10
1089.760845
 20
164.987500
 40
9.900000
 41
0.500000
  1

  7
KANJI
 50
0.000000
 51
0.000000
  0
TEXT
  8
1
 62
7
  6
CONTINUOUS
 10
755.473485
 20
164.987500
 40
19.800000
 41
1.000000
  1
シエラシリーズ
  7
KANJI
 50
0.000000
 51
0.000000
  0
TEXT
  8
1
 62
7
  6
CONTINUOUS
 10
894.073485
 20
174.887500
 40
9.900000
 41
0.500000
  1

  7
KANJI
 50
0.000000
 51
0.000000
  0
TEXT
  8
1
 62
7
  6
CONTINUOUS
 10
894.073485
 20
164.987500
 40
9.900000
 41
0.500000
  1

  7
KANJI
 50
0.000000
 51
0.000000
  0
LINE
  8
1
 62
7
  6
CONTINUOUS
 10
919.192260
 20
188.500000
 11
919.192260
 21
40.000000
  0
TEXT
  8
1
 62
7
  6
CONTINUOUS
 10
588.320400
 20
161.275000
 40
19.800000
 41
1.000000
  1
ベナーロシリーズ
  7
KANJI
 50
0.000000
 51
0.000000
  0
TEXT
  8
1
 62
7
  6
CONTINUOUS
 10
746.720400
 20
171.175000
 40
9.900000
 41
0.500000
  1

  7
KANJI
 50
0.000000
 51
0.000000
  0
TEXT
  8
1
 62
7
  6
CONTINUOUS
 10
746.720400
 20
161.275000
 40
9.900000
 41
0.500000
  1

  7
KANJI
 50
0.000000
 51
0.000000
  0
LINE
  8
1
 62
7
  6
CONTINUOUS
 10
749.190450
 20
188.500000
 11
749.190450
 21
40.000000
  0
TEXT
  8
1
 62
7
  6
CONTINUOUS
 10
429.073950
 20
48.380350
 40
24.750000
 41
0.800000
  1
シーム剤  本
  7
KANJI
 50
0.000000
 51
0.000000
  0
TEXT
  8
1
 62
7
  6
CONTINUOUS
 10
557.773950
 20
60.755350
 40
12.375000
 41
0.466667
  1

  7
KANJI
 50
0.000000
 51
0.000000
  0
TEXT
  8
1
 62
7
  6
CONTINUOUS
 10
557.773950
 20
48.380350
 40
12.375000
 41
0.466667
  1

  7
KANJI
 50
0.000000
 51
0.000000
  0
TEXT
  8
1
 62
7
  6
CONTINUOUS
 10
924.142260
 20
52.589335
 40
24.750000
 41
1.000000
  1
梱包個数　　梱
  7
KANJI
 50
0.000000
 51
0.000000
  0
TEXT
  8
1
 62
7
  6
CONTINUOUS
 10
1097.392260
 20
64.964335
 40
12.375000
 41
0.500000
  1

  7
KANJI
 50
0.000000
 51
0.000000
  0
TEXT
  8
1
 62
7
  6
CONTINUOUS
 10
1097.392260
 20
52.589335
 40
12.375000
 41
0.500000
  1

  7
KANJI
 50
0.000000
 51
0.000000
  0
TEXT
  8
1
 62
7
  6
CONTINUOUS
 10
735.879900
 20
52.271050
 40
24.750000
 41
0.746667
  1
 断熱テープ   本
  7
KANJI
 50
0.000000
 51
0.000000
  0
TEXT
  8
1
 62
7
  6
CONTINUOUS
 10
900.467400
 20
64.646050
 40
12.375000
 41
0.466667
  1

  7
KANJI
 50
0.000000
 51
0.000000
  0
TEXT
  8
1
 62
7
  6
CONTINUOUS
 10
900.467400
 20
52.271050
 40
12.375000
 41
0.466667
  1

  7
KANJI
 50
0.000000
 51
0.000000
  0
TEXT
  8
1
 62
7
  6
CONTINUOUS
 10
583.370400
 20
47.910595
 40
24.750000
 41
0.656250
  1
瞬間接着剤 　本
  7
KANJI
 50
0.000000
 51
0.000000
  0
TEXT
  8
1
 62
7
  6
CONTINUOUS
 10
713.307900
 20
60.285595
 40
12.375000
 41
0.350000
  1

  7
KANJI
 50
0.000000
 51
0.000000
  0
TEXT
  8
1
 62
7
  6
CONTINUOUS
 10
713.307900
 20
47.910595
 40
12.375000
 41
0.350000
  1

  7
KANJI
 50
0.000000
 51
0.000000
  0
TEXT
  8
1
 62
7
  6
CONTINUOUS
 10
438.973950
 20
97.234375
 40
24.750000
 41
1.041667
  1
   ㎜
  7
KANJI
 50
0.000000
 51
0.000000
  0
TEXT
  8
1
 62
7
  6
CONTINUOUS
 10
525.598950
 20
109.609375
 40
12.375000
 41
0.833333
  1

  7
KANJI
 50
0.000000
 51
0.000000
  0
TEXT
  8
1
 62
7
  6
CONTINUOUS
 10
525.598950
 20
97.234375
 40
12.375000
 41
0.833333
  1

  7
KANJI
 50
0.000000
 51
0.000000
  0
TEXT
  8
1
 62
7
  6
CONTINUOUS
 10
588.320400
 20
97.234375
 40
24.750000
 41
1.041667
  1
   ㎜
  7
KANJI
 50
0.000000
 51
0.000000
  0
TEXT
  8
1
 62
7
  6
CONTINUOUS
 10
674.945400
 20
109.609375
 40
12.375000
 41
0.833333
  1

  7
KANJI
 50
0.000000
 51
0.000000
  0
TEXT
  8
1
 62
7
  6
CONTINUOUS
 10
674.945400
 20
97.234375
 40
12.375000
 41
0.833333
  1

  7
KANJI
 50
0.000000
 51
0.000000
  0
TEXT
  8
1
 62
7
  6
CONTINUOUS
 10
755.473485
 20
97.234375
 40
24.750000
 41
1.041667
  1
   ㎜
  7
KANJI
 50
0.000000
 51
0.000000
  0
TEXT
  8
1
 62
7
  6
CONTINUOUS
 10
842.098485
 20
109.609375
 40
12.375000
 41
0.833333
  1

  7
KANJI
 50
0.000000
 51
0.000000
  0
TEXT
  8
1
 62
7
  6
CONTINUOUS
 10
842.098485
 20
97.234375
 40
12.375000
 41
0.833333
  1

  7
KANJI
 50
0.000000
 51
0.000000
  0
TEXT
  8
1
 62
7
  6
CONTINUOUS
 10
924.142260
 20
97.234375
 40
24.750000
 41
1.050000
  1
    ㎜
  7
KANJI
 50
0.000000
 51
0.000000
  0
TEXT
  8
1
 62
7
  6
CONTINUOUS
 10
1035.517260
 20
109.609375
 40
12.375000
 41
0.875000
  1

  7
KANJI
 50
0.000000
 51
0.000000
  0
TEXT
  8
1
 62
7
  6
CONTINUOUS
 10
1035.517260
 20
97.234375
 40
12.375000
 41
0.875000
  1

  7
KANJI
 50
0.000000
 51
0.000000
  0
TEXT
  8
1
 62
7
  6
CONTINUOUS
 10
1138.998000
 20
159.109375
 40
24.750000
 41
0.800000
  1
デュポンコーリアン認定加工／施工工場　　Ｍｐｃｏ　
  7
KANJI
 50
0.000000
 51
0.000000
  0
TEXT
  8
1
 62
7
  6
CONTINUOUS
 10
1633.998000
 20
171.484375
 40
12.375000
 41
0.400000
  1

  7
KANJI
 50
0.000000
 51
0.000000
  0
TEXT
  8
1
 62
7
  6
CONTINUOUS
 10
1633.998000
 20
159.109375
 40
12.375000
 41
0.400000
  1

  7
KANJI
 50
0.000000
 51
0.000000
  0
LINE
  8
1
 62
7
  6
CONTINUOUS
 10
1622.914950
 20
40.000000
 11
1734.473100
 21
40.000000
  0
TEXT
  8
1
 62
7
  6
CONTINUOUS
 10
1627.864950
 20
95.378125
 40
34.650000
 41
0.714286
  1
図面番号
  7
KANJI
 50
0.000000
 51
0.000000
  0
TEXT
  8
1
 62
7
  6
CONTINUOUS
 10
1726.864950
 20
112.703125
 40
17.325000
 41
0.357143
  1

  7
KANJI
 50
0.000000
 51
0.000000
  0
TEXT
  8
1
 62
7
  6
CONTINUOUS
 10
1726.864950
 20
95.378125
 40
17.325000
 41
0.357143
  1

  7
KANJI
 50
0.000000
 51
0.000000
  0
LINE
  8
1
 62
7
  6
CONTINUOUS
 10
1622.914950
 20
139.000000
 11
1622.914950
 21
40.000000
  0
LINE
  8
1
 62
7
  6
CONTINUOUS
 10
1622.914950
 20
40.000000
 11
1734.473100
 21
40.000000
  0
LINE
  8
1
 62
7
  6
CONTINUOUS
 10
1734.473100
 20
40.000000
 11
1734.473100
 21
139.000000
  0
LINE
  8
1
 62
7
  6
CONTINUOUS
 10
1734.473100
 20
139.000000
 11
1622.914950
 21
139.000000
  0
LINE
  8
1
 62
7
  6
CONTINUOUS
 10
1622.914950
 20
139.000000
 11
1622.914950
 21
188.500000
  0
LINE
  8
1
 62
7
  6
CONTINUOUS
 10
1622.914950
 20
188.500000
 11
1734.473100
 21
188.500000
  0
LINE
  8
1
 62
7
  6
CONTINUOUS
 10
1734.473100
 20
188.500000
 11
1734.473100
 21
139.000000
  0
TEXT
  8
1
 62
7
  6
CONTINUOUS
 10
1627.864950
 20
161.275000
 40
19.800000
 41
0.875000
  1
CAD-NO
  7
KANJI
 50
0.000000
 51
0.000000
  0
TEXT
  8
1
 62
7
  6
CONTINUOUS
 10
1723.152450
 20
171.175000
 40
9.900000
 41
0.875000
  1

  7
KANJI
 50
0.000000
 51
0.000000
  0
TEXT
  8
1
 62
7
  6
CONTINUOUS
 10
1723.152450
 20
161.275000
 40
9.900000
 41
0.875000
  1

  7
KANJI
 50
0.000000
 51
0.000000
  0
TEXT
  8
1
 62
7
  6
CONTINUOUS
 10
54.560220
 20
1131.500000
 40
30.000000
 41
0.833333
  1
100％アクリル製
  7
KANJI
 50
0.000000
 51
0.000000
  0
TEXT
  8
1
 62
7
  6
CONTINUOUS
 10
279.560220
 20
1146.500000
 40
15.000000
 41
0.500000
  1

  7
KANJI
 50
0.000000
 51
0.000000
  0
TEXT
  8
1
 62
7
  6
CONTINUOUS
 10
279.560220
 20
1131.500000
 40
15.000000
 41
0.500000
  1

  7
KANJI
 50
0.000000
 51
0.000000
  0
TEXT
  8
1
 62
7
  6
CONTINUOUS
 10
54.079792
 20
1100.715314
 40
25.000000
 41
1.000000
  1
色：ホワイト　
  7
KANJI
 50
0.000000
 51
0.000000
  0
TEXT
  8
1
 62
7
  6
CONTINUOUS
 10
229.079792
 20
1113.215314
 40
12.500000
 41
0.500000
  1

  7
KANJI
 50
0.000000
 51
0.000000
  0
TEXT
  8
1
 62
7
  6
CONTINUOUS
 10
229.079792
 20
1100.715314
 40
12.500000
 41
0.500000
  1

  7
KANJI
 50
0.000000
 51
0.000000
  0
TEXT
  8
1
 62
7
  6
CONTINUOUS
 10
54.560220
 20
1061.500000
 40
30.000000
 41
0.863636
  1
排水金具115φ：別売
  7
KANJI
 50
0.000000
 51
0.000000
  0
TEXT
  8
1
 62
7
  6
CONTINUOUS
 10
339.560220
 20
1076.500000
 40
15.000000
 41
0.500000
  1

  7
KANJI
 50
0.000000
 51
0.000000
  0
TEXT
  8
1
 62
7
  6
CONTINUOUS
 10
339.560220
 20
1061.500000
 40
15.000000
 41
0.500000
  1

  7
KANJI
 50
0.000000
 51
0.000000
  0
LINE
  8
1
 62
7
  6
CONTINUOUS
 10
756.725693
 20
302.951389
 11
871.725693
 21
302.951389
  0
LINE
  8
1
 62
7
  6
CONTINUOUS
 10
871.725693
 20
302.951389
 11
879.225693
 21
302.951389
  0
LINE
  8
1
 62
7
  6
CONTINUOUS
 10
814.225693
 20
274.401042
 11
814.225693
 21
339.097222
  0
LINE
  8
1
 62
7
  6
CONTINUOUS
 10
756.725693
 20
308.633128
 11
879.225693
 21
308.633128
  0
LINE
  8
1
 62
7
  6
CONTINUOUS
 10
879.225693
 20
302.951389
 11
879.225693
 21
308.633128
  0
LINE
  8
1
 62
7
  6
CONTINUOUS
 10
1483.463542
 20
1013.446181
 11
1483.463542
 21
1025.557778
  0
LINE
  8
1
 62
7
  6
CONTINUOUS
 10
1478.463542
 20
1015.990390
 11
1483.463542
 21
1022.939424
  0
LINE
  8
1
 62
7
  6
CONTINUOUS
 10
1483.311580
 20
892.446181
 11
1488.311580
 21
892.446181
  0
LINE
  8
1
 62
7
  6
CONTINUOUS
 10
1483.311580
 20
892.446181
 11
1483.311580
 21
882.446181
  0
LINE
  8
1
 62
7
  6
CONTINUOUS
 10
1488.311580
 20
874.946181
 11
1488.311580
 21
892.446181
  0
LINE
  8
1
 62
7
  6
CONTINUOUS
 10
1488.311580
 20
874.946181
 11
1483.311580
 21
874.946181
  0
LINE
  8
1
 62
7
  6
CONTINUOUS
 10
1473.667928
 20
686.258150
 11
1483.311580
 21
874.946181
  0
LINE
  8
1
 62
7
  6
CONTINUOUS
 10
1467.866159
 20
694.157755
 11
1478.311580
 21
874.946181
  0
LINE
  8
1
 62
7
  6
CONTINUOUS
 10
1478.311580
 20
874.946181
 11
1478.311580
 21
880.946181
  0
LINE
  8
1
 62
7
  6
CONTINUOUS
 10
1479.811580
 20
882.446181
 11
1483.311580
 21
882.446181
  0
ARC
  8
1
 62
7
  6
CONTINUOUS
 10
1479.811580
 20
880.946181
 40
1.500000
 50
90.000000
 51
180.000000
  0
LINE
  8
1
 62
7
  6
CONTINUOUS
 10
1477.542361
 20
861.632617
 11
1483.311580
 21
865.238999
  0
LINE
  8
1
 62
7
  6
CONTINUOUS
 10
1478.311580
 20
1041.199346
 11
1474.768087
 21
1041.665595
  0
LINE
  8
1
 62
7
  6
CONTINUOUS
 10
1483.463542
 20
1031.751052
 11
1483.463542
 21
1032.452501
  0
LINE
  8
1
 62
7
  6
CONTINUOUS
 10
1468.311580
 20
698.929152
 11
1467.257136
 21
682.634292
  0
LINE
  8
1
 62
7
  6
CONTINUOUS
 10
1473.667928
 20
686.258150
 11
1473.106325
 21
675.269809
  0
DIMENSION
  8
1
 62
7
  6
CONTINUOUS
  2
*D1
 10
1419.572261
 20
880.946181
 11
1419.572261
 21
938.446181
 70
     0
  1
115
 13
1458.311580
 23
880.946181
 14
1458.311580
 24
995.946181
 50
90.000000
  0
LINE
  8
1
 62
7
  6
CONTINUOUS
 10
1483.908012
 20
994.446181
 11
1483.908012
 21
984.446181
  0
LINE
  8
1
 62
7
  6
CONTINUOUS
 10
1483.908012
 20
984.446181
 11
1488.908012
 21
984.446181
  0
LINE
  8
1
 62
7
  6
CONTINUOUS
 10
1488.908012
 20
984.446181
 11
1488.908012
 21
1001.946181
  0
LINE
  8
1
 62
7
  6
CONTINUOUS
 10
1480.246348
 20
994.446181
 11
1483.908012
 21
994.446181
  0
ARC
  8
1
 62
7
  6
CONTINUOUS
 10
1480.246348
 20
995.946181
 40
1.500000
 50
-173.480198
 51
-90.000000
  0
LINE
  8
1
 62
7
  6
CONTINUOUS
 10
1478.756051
 20
995.775847
 11
1478.756051
 21
1012.859987
  0
LINE
  8
1
 62
7
  6
CONTINUOUS
 10
1478.756051
 20
1012.859987
 11
1478.463542
 21
1015.990390
  0
LINE
  8
1
 62
7
  6
CONTINUOUS
 10
1478.463542
 20
1015.990390
 11
1478.311580
 21
1024.359987
  0
LINE
  8
1
 62
7
  6
CONTINUOUS
 10
1483.463542
 20
1013.446181
 11
1483.463542
 21
1003.446181
  0
LINE
  8
1
 62
7
  6
CONTINUOUS
 10
1483.463542
 20
1003.446181
 11
1488.908012
 21
1003.446181
  0
LINE
  8
1
 62
7
  6
CONTINUOUS
 10
1488.908012
 20
1003.446181
 11
1488.908012
 21
1001.946181
  0
LINE
  8
1
 62
7
  6
CONTINUOUS
 10
1446.303893
 20
938.446181
 11
1499.400092
 21
938.446181
  0
LINE
  8
1
 62
7
  6
CONTINUOUS
 10
768.225693
 20
308.633128
 11
768.225693
 21
302.951389
  0
LINE
  8
1
 62
7
  6
CONTINUOUS
 10
860.225693
 20
308.633128
 11
860.225693
 21
302.951389
  0
DIMENSION
  8
1
 62
7
  6
CONTINUOUS
  2
*D2
 10
1556.307713
 20
874.946181
 11
1556.307713
 21
939.196181
 70
     0
  1
130
 13
1498.311580
 23
874.946181
 14
1499.879083
 24
1003.446181
 50
90.000000
  0
DIMENSION
  8
1
 62
7
  6
CONTINUOUS
  2
*D3
 10
1532.249354
 20
892.446181
 11
1532.249354
 21
938.446181
 70
     0
  1
92
 13
1498.463542
 23
892.446181
 14
1498.908012
 24
984.446181
 50
90.000000
  0
TEXT
  8
1
 62
7
  6
CONTINUOUS
 10
54.560220
 20
1166.500000
 40
40.000000
 41
0.593750
  1
JB-230 ﾊﾞｰｼﾝｸ詳細図
  7
KANJI
 50
0.345083
 51
0.000000
  0
TEXT
  8
1
 62
7
  6
CONTINUOUS
 10
434.432872
 20
1188.788298
 40
20.000000
 41
0.500000
  1

  7
KANJI
 50
0.345083
 51
0.000000
  0
TEXT
  8
1
 62
7
  6
CONTINUOUS
 10
434.553327
 20
1168.788661
 40
20.000000
 41
0.500000
  1

  7
KANJI
 50
0.345083
 51
0.000000
  0
LINE
  8
1
 62
7
  6
CONTINUOUS
 10
734.225693
 20
649.446181
 11
894.225693
 21
649.446181
  0
ARC
  8
1
 62
7
  6
CONTINUOUS
 10
734.225693
 20
659.446181
 40
10.000000
 50
180.000000
 51
-90.000000
  0
LINE
  8
1
 62
7
  6
CONTINUOUS
 10
724.225693
 20
659.446181
 11
724.225693
 21
1049.446181
  0
ARC
  8
1
 62
7
  6
CONTINUOUS
 10
734.225693
 20
1049.446181
 40
10.000000
 50
90.000000
 51
180.000000
  0
LINE
  8
1
 62
7
  6
CONTINUOUS
 10
894.225693
 20
1059.446181
 11
734.225693
 21
1059.446181
  0
ARC
  8
1
 62
7
  6
CONTINUOUS
 10
894.225693
 20
659.446181
 40
10.000000
 50
-90.000000
 51
0.000000
  0
LINE
  8
1
 62
7
  6
CONTINUOUS
 10
904.225693
 20
1049.446181
 11
904.225693
 21
659.446181
  0
ARC
  8
1
 62
7
  6
CONTINUOUS
 10
894.225693
 20
1049.446181
 40
10.000000
 50
0.000000
 51
90.000000
  0
LINE
  8
1
 62
7
  6
CONTINUOUS
 10
734.225693
 20
624.446181
 11
894.225693
 21
624.446181
  0
ARC
  8
1
 62
7
  6
CONTINUOUS
 10
734.225693
 20
659.446181
 40
35.000000
 50
180.000000
 51
-90.000000
  0
LINE
  8
1
 62
7
  6
CONTINUOUS
 10
699.225693
 20
659.446181
 11
699.225693
 21
1049.446181
  0
ARC
  8
1
 62
7
  6
CONTINUOUS
 10
734.225693
 20
1049.446181
 40
35.000000
 50
90.000000
 51
180.000000
  0
LINE
  8
1
 62
7
  6
CONTINUOUS
 10
894.225693
 20
1084.446181
 11
734.225693
 21
1084.446181
  0
ARC
  8
1
 62
7
  6
CONTINUOUS
 10
894.225693
 20
659.446181
 40
35.000000
 50
-90.000000
 51
0.000000
  0
LINE
  8
1
 62
7
  6
CONTINUOUS
 10
929.225693
 20
1049.446181
 11
929.225693
 21
659.446181
  0
ARC
  8
1
 62
7
  6
CONTINUOUS
 10
894.225693
 20
1049.446181
 40
35.000000
 50
0.000000
 51
90.000000
  0
LINE
  8
1
 62
7
  6
CONTINUOUS
 10
727.154625
 20
652.375113
 11
760.888198
 21
686.108685
  0
LINE
  8
1
 62
7
  6
CONTINUOUS
 10
760.888198
 20
686.108685
 11
800.779856
 21
686.108685
  0
TEXT
  8
1
 62
7
  6
CONTINUOUS
 10
763.279856
 20
686.108685
 40
20.000000
 41
0.375000
  1
10R*4
  7
KANJI
 50
0.000000
 51
30.000000
  0
LINE
  8
1
 62
7
  6
CONTINUOUS
 10
727.154625
 20
652.375113
 11
737.154625
 21
669.695621
  0
LINE
  8
1
 62
7
  6
CONTINUOUS
 10
727.154625
 20
652.375113
 11
744.475134
 21
662.375113
  0
LINE
  8
1
 62
7
  6
CONTINUOUS
 10
737.154625
 20
669.695621
 11
744.475134
 21
662.375113
  0
LINE
  8
1
 62
7
  6
CONTINUOUS
 10
730.569689
 20
655.790176
 11
735.569689
 21
664.450430
  0
LINE
  8
1
 62
7
  6
CONTINUOUS
 10
730.569689
 20
655.790176
 11
739.229943
 21
660.790176
  0
LINE
  8
1
 62
7
  6
CONTINUOUS
 10
735.569689
 20
664.450430
 11
739.229943
 21
660.790176
  0
DIMENSION
  8
1
 62
7
  6
CONTINUOUS
  2
*D4
 10
699.225693
 20
1215.842014
 11
814.225693
 21
1215.842014
 70
     0
  1
230
 13
699.225693
 23
1094.446181
 14
929.225693
 24
1094.446181
 50
0.000000
  0
DIMENSION
  8
1
 62
7
  6
CONTINUOUS
  2
*D5
 10
699.225693
 20
1183.490360
 11
711.725693
 21
1183.490360
 70
     0
  1
25
 13
699.225693
 23
1094.446181
 14
724.225693
 24
1094.446181
 50
0.000000
  0
DIMENSION
  8
1
 62
7
  6
CONTINUOUS
  2
*D6
 10
724.225693
 20
1183.490360
 11
814.225693
 21
1183.490360
 70
     0
  1
180
 13
724.225693
 23
1183.490360
 14
904.225693
 24
1094.446181
 50
0.000000
  0
DIMENSION
  8
1
 62
7
  6
CONTINUOUS
  2
*D7
 10
904.225693
 20
1183.490360
 11
916.725693
 21
1183.490360
 70
     0
  1
25
 13
904.225693
 23
1183.490360
 14
929.225693
 24
1094.446181
 50
0.000000
  0
DIMENSION
  8
1
 62
7
  6
CONTINUOUS
  2
*D8
 10
504.184028
 20
1084.446181
 11
504.184028
 21
854.446181
 70
     0
  1
460
 13
689.225693
 23
1084.446181
 14
689.225693
 24
624.446181
 50
-90.000000
  0
DIMENSION
  8
1
 62
7
  6
CONTINUOUS
  2
*D9
 10
551.032986
 20
1084.446181
 11
551.032986
 21
1071.946181
 70
     0
  1
25
 13
689.225693
 23
1084.446181
 14
689.225693
 24
1059.446181
 50
-90.000000
  0
DIMENSION
  8
1
 62
7
  6
CONTINUOUS
  2
*D10
 10
551.032986
 20
1059.446181
 11
551.032986
 21
854.446181
 70
     0
  1
410
 13
551.032986
 23
1059.446181
 14
689.225693
 24
649.446181
 50
-90.000000
  0
DIMENSION
  8
1
 62
7
  6
CONTINUOUS
  2
*D11
 10
551.032986
 20
649.446181
 11
551.032986
 21
636.946181
 70
     0
  1
25
 13
551.032986
 23
649.446181
 14
689.225693
 24
624.446181
 50
-90.000000
  0
DIMENSION
  8
1
 62
7
  6
CONTINUOUS
  2
*D12
 10
586.727431
 20
1059.446181
 11
586.727431
 21
998.946181
 70
     0
  1
120
 13
689.225693
 23
1059.446181
 14
689.225693
 24
938.446181
 50
-90.000000
  0
CIRCLE
  8
1
 62
7
  6
CONTINUOUS
 10
814.225693
 20
938.446181
 40
46.000000
  0
CIRCLE
  8
1
 62
7
  6
CONTINUOUS
 10
814.225693
 20
938.446181
 40
57.500000
  0
DIMENSION
  8
1
 62
7
  6
CONTINUOUS
  2
*D13
 10
756.725693
 20
820.972222
 11
814.225693
 21
820.972222
 70
     0
  1
115
 13
756.725693
 23
928.446181
 14
871.725693
 24
928.446181
 50
0.000000
  0
LINE
  8
1
 62
7
  6
CONTINUOUS
 10
929.225693
 20
1084.446181
 11
975.832916
 21
1131.053404
  0
LINE
  8
1
 62
7
  6
CONTINUOUS
 10
975.832916
 20
1131.053404
 11
1013.332916
 21
1131.053404
  0
TEXT
  8
1
 62
7
  6
CONTINUOUS
 10
975.832916
 20
1131.053404
 40
20.000000
 41
0.375000
  1
35R*4
  7
KANJI
 50
0.000000
 51
30.000000
  0
LINE
  8
1
 62
7
  6
CONTINUOUS
 10
929.225693
 20
1084.446181
 11
939.225693
 21
1101.766689
  0
LINE
  8
1
 62
7
  6
CONTINUOUS
 10
929.225693
 20
1084.446181
 11
946.546201
 21
1094.446181
  0
LINE
  8
1
 62
7
  6
CONTINUOUS
 10
939.225693
 20
1101.766689
 11
946.546201
 21
1094.446181
  0
LINE
  8
1
 62
7
  6
CONTINUOUS
 10
932.640757
 20
1087.861244
 11
937.640757
 21
1096.521498
  0
LINE
  8
1
 62
7
  6
CONTINUOUS
 10
932.640757
 20
1087.861244
 11
941.301011
 21
1092.861244
  0
LINE
  8
1
 62
7
  6
CONTINUOUS
 10
937.640757
 20
1096.521498
 11
941.301011
 21
1092.861244
  0
LINE
  8
1
 62
7
  6
CONTINUOUS
 10
704.225693
 20
443.951389
 11
699.225693
 21
455.951389
  0
LINE
  8
1
 62
7
  6
CONTINUOUS
 10
699.225693
 20
455.951389
 11
929.225693
 21
455.951389
  0
LINE
  8
1
 62
7
  6
CONTINUOUS
 10
929.225693
 20
455.951389
 11
924.225693
 21
443.951389
  0
LINE
  8
1
 62
7
  6
CONTINUOUS
 10
704.225693
 20
443.951389
 11
924.225693
 21
443.951389
  0
LINE
  8
1
 62
7
  6
CONTINUOUS
 10
756.725693
 20
302.951389
 11
749.225693
 21
302.951389
  0
LINE
  8
1
 62
7
  6
CONTINUOUS
 10
749.225693
 20
302.951389
 11
749.225693
 21
309.462103
  0
DIMENSION
  8
1
 62
7
  6
CONTINUOUS
  2
*D14
 10
749.225693
 20
222.714940
 11
814.225693
 21
222.714940
 70
     0
  1
130
 13
749.225693
 23
292.951389
 14
879.225693
 24
292.951389
 50
0.000000
  0
LINE
  8
1
 62
7
  6
CONTINUOUS
 10
717.421100
 20
443.951389
 11
730.262523
 21
319.464396
  0
ARC
  8
1
 62
7
  6
CONTINUOUS
 10
411.094897
 20
-2784.055871
 40
3111.942463
 50
83.623234
 51
83.948641
  0
ARC
  8
1
 62
7
  6
CONTINUOUS
 10
740.209740
 20
320.490499
 40
10.000000
 50
-174.110499
 51
-96.051359
  0
ARC
  8
1
 62
7
  6
CONTINUOUS
 10
1182.878954
 20
-2147.256280
 40
2474.590489
 50
96.809413
 51
97.048443
  0
LINE
  8
1
 62
7
  6
CONTINUOUS
 10
898.236370
 20
318.790362
 11
911.039886
 21
443.951389
  0
ARC
  8
1
 62
7
  6
CONTINUOUS
 10
888.288286
 20
319.808015
 40
10.000000
 50
-83.190587
 51
-5.840832
  0
DIMENSION
  8
1
 62
7
  6
CONTINUOUS
  2
*D15
 10
699.225693
 20
517.951389
 11
814.225693
 21
517.951389
 70
     0
  1
230
 13
699.225693
 23
465.951389
 14
929.225693
 24
465.951389
 50
0.000000
  0
DIMENSION
  8
1
 62
7
  6
CONTINUOUS
  2
*D16
 10
699.225693
 20
496.878356
 11
711.725693
 21
496.878356
 70
     0
  1
25
 13
699.225693
 23
465.951389
 14
724.225693
 24
465.951389
 50
0.000000
  0
DIMENSION
  8
1
 62
7
  6
CONTINUOUS
  2
*D17
 10
724.225693
 20
496.878356
 11
814.225693
 21
496.878356
 70
     0
  1
180
 13
724.225693
 23
496.878356
 14
904.225693
 24
465.951389
 50
0.000000
  0
DIMENSION
  8
1
 62
7
  6
CONTINUOUS
  2
*D18
 10
904.225693
 20
496.878356
 11
916.725693
 21
496.878356
 70
     0
  1
25
 13
904.225693
 23
496.878356
 14
929.225693
 24
465.951389
 50
0.000000
  0
DIMENSION
  8
1
 62
7
  6
CONTINUOUS
  2
*D19
 10
616.176773
 20
455.951389
 11
616.176773
 21
379.451389
 70
     0
  1
153
 13
689.225693
 23
455.951389
 14
689.225693
 24
302.951389
 50
-90.000000
  0
DIMENSION
  8
1
 62
7
  6
CONTINUOUS
  2
*D20
 10
639.122895
 20
455.951389
 11
639.122895
 21
385.951389
 70
     0
  1
140
 13
689.225693
 23
455.951389
 14
689.225693
 24
315.951389
 50
-90.000000
  0
DIMENSION
  8
1
 62
7
  6
CONTINUOUS
  2
*D21
 10
639.122895
 20
315.951389
 11
639.122895
 21
309.451389
 70
     0
  1
13
 13
639.122895
 23
315.951389
 14
689.225693
 24
302.951389
 50
-90.000000
  0
LINE
  8
1
 62
7
  6
CONTINUOUS
 10
1350.311580
 20
1081.446181
 11
1350.311580
 21
1067.487164
  0
LINE
  8
1
 62
7
  6
CONTINUOUS
 10
1338.311580
 20
1067.024649
 11
1350.311580
 21
1075.967665
  0
LINE
  8
1
 62
7
  6
CONTINUOUS
 10
1338.311580
 20
1084.446181
 11
1338.311580
 21
969.446181
  0
LINE
  8
1
 62
7
  6
CONTINUOUS
 10
1338.311580
 20
624.446181
 11
1350.311580
 21
627.446181
  0
LINE
  8
1
 62
7
  6
CONTINUOUS
 10
1350.311580
 20
627.446181
 11
1350.311580
 21
641.405197
  0
LINE
  8
1
 62
7
  6
CONTINUOUS
 10
1338.311580
 20
866.946181
 11
1338.311580
 21
624.446181
  0
LINE
  8
1
 62
7
  6
CONTINUOUS
 10
1350.311580
 20
1081.446181
 11
1338.311580
 21
1084.446181
  0
LINE
  8
1
 62
7
  6
CONTINUOUS
 10
1350.311580
 20
1081.446181
 11
1350.311580
 21
1065.936188
  0
LINE
  8
1
 62
7
  6
CONTINUOUS
 10
1338.311580
 20
969.446181
 11
1338.311580
 21
866.946181
  0
DIMENSION
  8
1
 62
7
  6
CONTINUOUS
  2
*D22
 10
1242.932634
 20
1084.446181
 11
1242.932634
 21
854.446181
 70
     0
  1
460
 13
1328.311580
 23
1084.446181
 14
1328.311580
 24
624.446181
 50
-90.000000
  0
DIMENSION
  8
1
 62
7
  6
CONTINUOUS
  2
*D23
 10
1269.778306
 20
1084.446181
 11
1269.778306
 21
1071.946181
 70
     0
  1
25
 13
1328.311580
 23
1084.446181
 14
1328.311579
 24
1059.446181
 50
-90.000000
  0
DIMENSION
  8
1
 62
7
  6
CONTINUOUS
  2
*D24
 10
1269.778306
 20
1059.446181
 11
1269.778306
 21
854.446181
 70
     0
  1
410
 13
1269.778306
 23
1059.446181
 14
1328.311581
 24
649.446181
 50
-90.000000
  0
DIMENSION
  8
1
 62
7
  6
CONTINUOUS
  2
*D25
 10
1269.778306
 20
649.446181
 11
1269.778306
 21
636.946181
 70
     0
  1
25
 13
1269.778306
 23
649.446181
 14
1328.311580
 24
624.446181
 50
-90.000000
  0
DIMENSION
  8
1
 62
7
  6
CONTINUOUS
  2
*D26
 10
1338.311580
 20
1129.725216
 11
1344.311580
 21
1129.725216
 70
     0
  1
12
 13
1338.311580
 23
1094.446181
 14
1350.311580
 24
1094.446181
 50
0.000000
  0
DIMENSION
  8
1
 62
7
  6
CONTINUOUS
  2
*D27
 10
1297.639645
 20
938.446181
 11
1297.639645
 21
998.946181
 70
     0
  1
120
 13
1328.311580
 23
938.446181
 14
1328.311579
 24
1059.446181
 50
90.000000
  0
LINE
  8
1
 62
7
  6
CONTINUOUS
 10
1338.311580
 20
649.446181
 11
1439.674079
 21
662.895497
  0
LINE
  8
1
 62
7
  6
CONTINUOUS
 10
1350.311580
 20
642.956173
 11
1440.732220
 21
654.853626
  0
LINE
  8
1
 62
7
  6
CONTINUOUS
 10
1350.311580
 20
1065.936188
 11
1423.691439
 21
1056.280944
  0
LINE
  8
1
 62
7
  6
CONTINUOUS
 10
1338.311580
 20
1059.446181
 11
1430.104967
 21
1047.368103
  0
DIMENSION
  8
1
 62
7
  6
CONTINUOUS
  2
*D28
 10
1338.311580
 20
1155.201076
 11
1408.311580
 21
1155.201076
 70
     0
  1
140
 13
1338.311580
 23
1094.446181
 14
1478.311580
 24
1094.446181
 50
0.000000
  0
DIMENSION
  8
1
 62
7
  6
CONTINUOUS
  2
*D29
 10
1478.311580
 20
1155.201076
 11
1483.609796
 21
1155.201076
 70
     0
  1
15
 13
1478.311580
 23
1155.201076
 14
1488.908012
 24
1094.446181
 50
0.000000
  0
LINE
  8
1
 62
7
  6
CONTINUOUS
 10
1419.236856
 20
1048.972336
 11
1469.649719
 21
1042.339065
  0
LINE
  8
1
 62
7
  6
CONTINUOUS
 10
1478.394756
 20
1019.778868
 11
1478.345097
 21
1032.463670
  0
ARC
  8
1
 62
7
  6
CONTINUOUS
 10
1468.345174
 20
1032.424522
 40
10.000000
 50
0.224305
 51
82.504142
  0
LINE
  8
1
 62
7
  6
CONTINUOUS
 10
1421.483288
 20
1056.571490
 11
1474.768087
 21
1049.560332
  0
LINE
  8
1
 62
7
  6
CONTINUOUS
 10
1483.463542
 20
1039.645789
 11
1483.463542
 21
1022.939424
  0
ARC
  8
1
 62
7
  6
CONTINUOUS
 10
1473.463542
 20
1039.645789
 40
10.000000
 50
0.000000
 51
82.504142
  0
LINE
  8
1
 62
7
  6
CONTINUOUS
 10
1362.186359
 20
1056.304763
 11
1370.926457
 21
1063.223704
  0
LINE
  8
1
 62
7
  6
CONTINUOUS
 10
1384.433596
 20
1053.377495
 11
1390.942834
 21
1060.589971
  0
LINE
  8
1
 62
7
  6
CONTINUOUS
 10
1404.661903
 20
1050.715875
 11
1411.706549
 21
1057.857903
  0
LINE
  8
1
 62
7
  6
CONTINUOUS
 10
1424.761938
 20
1048.071133
 11
1431.215405
 21
1055.290949
  0
LINE
  8
1
 62
7
  6
CONTINUOUS
 10
1446.072438
 20
1045.441338
 11
1452.614915
 21
1052.475223
  0
LINE
  8
1
 62
7
  6
CONTINUOUS
 10
1465.029157
 20
1042.947033
 11
1471.811452
 21
1049.949363
  0
LINE
  8
1
 62
7
  6
CONTINUOUS
 10
1478.311580
 20
1036.812151
 11
1483.463542
 21
1040.347239
  0
LINE
  8
1
 62
7
  6
CONTINUOUS
 10
1467.393364
 20
684.739482
 11
1466.770403
 21
674.638524
  0
LINE
  8
1
 62
7
  6
CONTINUOUS
 10
1458.104693
 20
665.340969
 11
1439.674079
 21
662.895497
  0
ARC
  8
1
 62
7
  6
CONTINUOUS
 10
1456.789367
 20
675.254088
 40
10.000000
 50
-82.441839
 51
-3.529155
  0
LINE
  8
1
 62
7
  6
CONTINUOUS
 10
1440.732220
 20
654.853626
 11
1464.017682
 21
657.917502
  0
LINE
  8
1
 62
7
  6
CONTINUOUS
 10
1472.700102
 20
667.321622
 11
1473.215622
 21
677.408307
  0
ARC
  8
1
 62
7
  6
CONTINUOUS
 10
1462.713137
 20
667.832045
 40
10.000000
 50
-82.504142
 51
-2.925783
  0
LINE
  8
1
 62
7
  6
CONTINUOUS
 10
1350.311580
 20
641.405197
 11
1350.311580
 21
642.956173
  0
LINE
  8
1
 62
7
  6
CONTINUOUS
 10
1367.620638
 20
645.233681
 11
1372.502541
 21
653.982820
  0
LINE
  8
1
 62
7
  6
CONTINUOUS
 10
1386.400141
 20
647.704668
 11
1390.669388
 21
656.393294
  0
LINE
  8
1
 62
7
  6
CONTINUOUS
 10
1405.114193
 20
650.167043
 11
1408.297977
 21
658.732349
  0
LINE
  8
1
 62
7
  6
CONTINUOUS
 10
1422.472495
 20
652.451030
 11
1425.890357
 21
661.066600
  0
LINE
  8
1
 62
7
  6
CONTINUOUS
 10
1437.617181
 20
654.443752
 11
1440.588560
 21
663.016836
  0
LINE
  8
1
 62
7
  6
CONTINUOUS
 10
1455.431295
 20
656.787714
 11
1458.104778
 21
665.340981
  0
LINE
  8
1
 62
7
  6
CONTINUOUS
 10
1466.855875
 20
676.024400
 11
1473.397835
 21
680.973495
  0
LINE
  8
1
 62
7
  6
CONTINUOUS
 10
1467.467254
 20
685.881342
 11
1473.984015
 21
692.442724
  0
LINE
  8
1
 62
7
  6
CONTINUOUS
 10
1468.311580
 20
698.929152
 11
1474.507355
 21
702.682412
  0
LINE
  8
1
 62
7
  6
CONTINUOUS
 10
1468.854873
 20
711.270333
 11
1475.157318
 21
715.399608
  0
LINE
  8
1
 62
7
  6
CONTINUOUS
 10
1469.773701
 20
727.173336
 11
1475.910739
 21
730.141068
  0
LINE
  8
1
 62
7
  6
CONTINUOUS
 10
1470.582354
 20
741.169420
 11
1476.626132
 21
744.138473
  0
LINE
  8
1
 62
7
  6
CONTINUOUS
 10
1471.408421
 20
755.466911
 11
1477.338096
 21
758.068783
  0
LINE
  8
1
 62
7
  6
CONTINUOUS
 10
1472.242790
 20
769.908106
 11
1478.118919
 21
773.346401
  0
LINE
  8
1
 62
7
  6
CONTINUOUS
 10
1473.078061
 20
784.364910
 11
1478.839154
 21
787.438541
  0
LINE
  8
1
 62
7
  6
CONTINUOUS
 10
1473.944855
 20
799.367289
 11
1479.560095
 21
801.544501
  0
LINE
  8
1
 62
7
  6
CONTINUOUS
 10
1474.816851
 20
814.459731
 11
1480.339741
 21
816.799086
  0
LINE
  8
1
 62
7
  6
CONTINUOUS
 10
1475.631008
 20
828.551081
 11
1481.069895
 21
831.085301
  0
LINE
  8
1
 62
7
  6
CONTINUOUS
 10
1476.481890
 20
843.278070
 11
1481.808320
 21
845.533344
  0
LINE
  8
1
 62
7
  6
CONTINUOUS
 10
1476.994242
 20
852.145807
 11
1482.307451
 21
855.299364
  0
LINE
  8
1
 62
7
  6
CONTINUOUS
 10
1478.173548
 20
872.557131
 11
1483.263079
 21
873.997221
  0
LINE
  8
1
 62
7
  6
CONTINUOUS
 10
1483.463542
 20
886.024639
 11
1488.311580
 21
889.006617
  0
ENDSEC
  0
EOF
