  0
SECTION
  2
HEADER
  9
$ACADVER
  1
AC1003
  9
$INSBASE
 10
0.000000
 20
0.000000
  9
$EXTMIN
 10
0.000000
 20
0.000000
  9
$EXTMAX
 10
1820.000000
 20
1285.000000
  9
$LIMMIN
 10
0.000000
 20
0.000000
  9
$LIMMAX
 10
1820.000000
 20
1285.000000
  9
$VIEWCTR
 10
910.000000
 20
642.500000
  9
$VIEWSIZE
 40
1285.000000
  9
$PEXTMIN
 10
0.000000
 20
0.000000
 30
0.000000
  9
$PEXTMAX
 10
364.000000
 20
257.000000
 30
0.000000
  9
$SNAPMODE
 70
     0
  9
$SNAPUNIT
 10
1.000000
 20
1.000000
  9
$SNAPBASE
 10
0.000000
 20
0.000000
  9
$SNAPANG
 50
0.000000
  9
$SNAPISOPAIR
 70
     0
  9
$SNAPSTYLE
 70
     0
  9
$GRIDMODE
 70
     0
  9
$GRIDUNIT
 10
0.000000
 20
0.000000
  9
$ORTHOMODE
 70
     0
  9
$REGENMODE
 70
     1
  9
$FILLMODE
 70
     1
  9
$QTEXTMODE
 70
     0
  9
$DRAGMODE
 70
     2
  9
$LTSCALE
 40
1.250000
  9
$OSMODE
 70
     0
  9
$ATTMODE
 70
     1
  9
$TEXTSIZE
 40
0.200000
  9
$TRACEWID
 40
0.050000
  9
$TEXTSTYLE
  7
STANDARD
  9
$CLAYER
  8
0
  9
$CELTYPE
  6
BYLAYER
  9
$CECOLOR
 62
   256
  9
$DIMSCALE
 40
1.000000
  9
$DIMASZ
 40
1.000000
  9
$DIMEXO
 40
0.000000
  9
$DIMDLI
 40
0.500000
  9
$DIMRND
 40
0.000000
  9
$DIMDLE
 40
0.000000
  9
$DIMEXE
 40
0.000000
  9
$DIMTP
 40
0.000000
  9
$DIMTM
 40
0.000000
  9
$DIMTXT
 40
0.180000
  9
$DIMCEN
 40
0.000000
  9
$DIMTSZ
 40
0.000000
  9
$DIMTOL
 70
     0
  9
$DIMLIM
 70
     0
  9
$DIMTIH
 70
     1
  9
$DIMTOH
 70
     1
  9
$DIMSE1
 70
     0
  9
$DIMSE2
 70
     0
  9
$DIMTAD
 70
     0
  9
$DIMZIN
 70
     0
  9
$DIMBLK
  1

  9
$DIMASO
 70
     0
  9
$DIMSHO
 70
     0
  9
$DIMPOST
  1

  9
$DIMAPOST
  1

  9
$DIMALT
 70
     0
  9
$DIMALTD
 70
     0
  9
$DIMALTF
 40
25.400000
  9
$DIMLFAC
 40
1.000000
  9
$DIMTOFL
 70
     0
  9
$DIMTVP
 40
0.000000
  9
$DIMTIX
 70
     0
  9
$DIMSOXD
 70
     0
  9
$DIMSAH
 70
     0
  9
$DIMBLKL
  1

  9
$DIMBLKR
  1

  9
$LUNITS
 70
     2
  9
$LUPREC
 70
     2
  9
$AXISMODE
 70
     0
  9
$AXISUNIT
 10
1.000000
 20
1.000000
  9
$SKETCHINC
 40
0.000000
  9
$FILLETRAD
 40
0.000000
  9
$AUNITS
 70
     1
  9
$AUPREC
 70
     2
  9
$MENU
  1
ACAD
  9
$ELEVATION
 40
0.000000
  9
$THICKNESS
 40
0.000000
  9
$VIEWDIR
 10
0.000000
 20
0.000000
 30
1.000000
  9
$LIMCHECK
 70
     1
  9
$BLIPMODE
 70
     1
  9
$CHAMFERA
 40
0.000000
  9
$CHAMFERB
 40
0.000000
  9
$FASTZOOM
 70
     1
  9
$SKPOLY
 70
     0
  9
$TDCREATE
 40
0.000000
  9
$TDUPDATE
 40
0.000000
  9
$TDINDWG
 40
0.000000
  9
$TDUSRTIMER
 40
0.000000
  9
$USRTIMER
 70
     1
  9
$ANGBASE
 50
0.000000
  9
$ANGDIR
 70
     0
  9
$PDMODE
 70
     0
  9
$PDSIZE
 40
0.000000
  9
$PLINEWID
 40
0.000000
  9
$COORDS
 70
     2
  9
$USERI1
 70
     0
  9
$USERI2
 70
     0
  9
$USERI3
 70
     0
  9
$USERI4
 70
     0
  9
$USERI5
 70
     0
  9
$USERR1
 40
0.000000
  9
$USERR2
 40
0.000000
  9
$USERR3
 40
0.000000
  9
$USERR4
 40
0.000000
  9
$USERR5
 40
0.000000
  0
ENDSEC
  0
SECTION
  2
TABLES
  0
TABLE
  2
LTYPE
 70
     5
  0
LTYPE
  2
CONTINUOUS
 70
    64
  3
Solid line
 72
    65
 73
     0
 40
0.0
  0
LTYPE
  2
HIDDEN
 70
    64
  3
------------------------
 72
    65
 73
     2
 40
12.6
 49
8.4
 49
-4.2
  0
LTYPE
  2
DOT
 70
    64
  3
････････････････････････
 72
    65
 73
     2
 40
8.0
 49
6.0
 49
-2.0
  0
LTYPE
  2
DASHDOT
 70
    64
  3
--･--･--･--･--･--･--･--
 72
    65
 73
     4
 40
50.5
 49
30.0
 49
-9.0
 49
2.5
 49
-9.0
  0
LTYPE
  2
DIVIDE
 70
    64
  3
--･･--･･--･･--･･--･･--
 72
    65
 73
     6
 40
58.0
 49
30.0
 49
-9.0
 49
2.5
 49
-5.0
 49
2.5
 49
-9.0
  0
ENDTAB
  0
TABLE
  2
LAYER
 70
1
  0
LAYER
  2
1
 70
64
 62
7
  6
CONTINUOUS
  0
ENDTAB
  0
TABLE
  2
STYLE
 70
     2
  0
STYLE
  2
STANDARD
 70
    64
 40
0.0
 41
1.0
 50
0.0
 71
     0
 42
0.2
  3
TXT
  4

  0
STYLE
  2
KANJI
 70
    64
 40
0.0
 41
1.0
 50
0.0
 71
     0
 42
0.2
  3
TXT
  4
BIGFONT
  0
ENDTAB
  0
TABLE
  2
VIEW
 70
     0
  0
ENDTAB
  0
ENDSEC
  0
SECTION
  2
BLOCKS
  0
BLOCK
  8
1
 62
7
  6
CONTINUOUS
  2
*D1
 70
    65
 10
0.0
 20
0.0
  0
LINE
  8
1
 62
7
  6
CONTINUOUS
 10
813.480219
 20
946.886667
 11
993.480220
 21
946.886667
  0
CIRCLE
  8
1
 62
7
  6
CONTINUOUS
 10
813.480219
 20
946.886667
 40
1.500000
  0
CIRCLE
  8
1
 62
7
  6
CONTINUOUS
 10
813.480219
 20
946.886667
 40
0.750000
  0
CIRCLE
  8
1
 62
7
  6
CONTINUOUS
 10
993.480220
 20
946.886667
 40
1.500000
  0
CIRCLE
  8
1
 62
7
  6
CONTINUOUS
 10
993.480220
 20
946.886667
 40
0.750000
  0
TEXT
  8
1
 62
7
  6
CONTINUOUS
 10
878.480219
 20
946.886667
 40
20.000000
 41
0.625000
  1
180φ
  7
KANJI
 50
0.000000
 51
30.000000
  0
ENDBLK
  0
BLOCK
  8
1
 62
7
  6
CONTINUOUS
  2
*D2
 70
    65
 10
0.0
 20
0.0
  0
LINE
  8
1
 62
7
  6
CONTINUOUS
 10
1028.727716
 20
1181.886667
 11
1028.727716
 21
946.886667
  0
LINE
  8
1
 62
7
  6
CONTINUOUS
 10
1038.727716
 20
1181.886667
 11
913.480218
 21
1181.886667
  0
LINE
  8
1
 62
7
  6
CONTINUOUS
 10
1038.727716
 20
946.886667
 11
913.480219
 21
946.886667
  0
CIRCLE
  8
1
 62
7
  6
CONTINUOUS
 10
1028.727716
 20
1181.886667
 40
1.500000
  0
CIRCLE
  8
1
 62
7
  6
CONTINUOUS
 10
1028.727716
 20
1181.886667
 40
0.750000
  0
CIRCLE
  8
1
 62
7
  6
CONTINUOUS
 10
1028.727716
 20
946.886667
 40
1.500000
  0
CIRCLE
  8
1
 62
7
  6
CONTINUOUS
 10
1028.727716
 20
946.886667
 40
0.750000
  0
TEXT
  8
1
 62
7
  6
CONTINUOUS
 10
1028.727716
 20
1049.386667
 40
20.000000
 41
0.500000
  1
235
  7
KANJI
 50
90.000000
 51
30.000000
  0
ENDBLK
  0
BLOCK
  8
1
 62
7
  6
CONTINUOUS
  2
*D3
 70
    65
 10
0.0
 20
0.0
  0
LINE
  8
1
 62
7
  6
CONTINUOUS
 10
1028.727716
 20
946.886667
 11
1028.727716
 21
711.886667
  0
LINE
  8
1
 62
7
  6
CONTINUOUS
 10
1038.727716
 20
711.886667
 11
913.480218
 21
711.886667
  0
CIRCLE
  8
1
 62
7
  6
CONTINUOUS
 10
1028.727716
 20
711.886667
 40
1.500000
  0
CIRCLE
  8
1
 62
7
  6
CONTINUOUS
 10
1028.727716
 20
711.886667
 40
0.750000
  0
TEXT
  8
1
 62
7
  6
CONTINUOUS
 10
1028.727716
 20
814.386667
 40
20.000000
 41
0.500000
  1
235
  7
KANJI
 50
90.000000
 51
30.000000
  0
ENDBLK
  0
BLOCK
  8
1
 62
7
  6
CONTINUOUS
  2
*D4
 70
    65
 10
0.0
 20
0.0
  0
LINE
  8
1
 62
7
  6
CONTINUOUS
 10
417.480218
 20
1247.074653
 11
1389.480218
 21
1247.074653
  0
LINE
  8
1
 62
7
  6
CONTINUOUS
 10
417.480218
 20
1257.074653
 11
417.480218
 21
1191.886667
  0
LINE
  8
1
 62
7
  6
CONTINUOUS
 10
1389.480218
 20
1257.074653
 11
1389.480218
 21
1191.886667
  0
CIRCLE
  8
1
 62
7
  6
CONTINUOUS
 10
417.480218
 20
1247.074653
 40
1.500000
  0
CIRCLE
  8
1
 62
7
  6
CONTINUOUS
 10
417.480218
 20
1247.074653
 40
0.750000
  0
CIRCLE
  8
1
 62
7
  6
CONTINUOUS
 10
1389.480218
 20
1247.074653
 40
1.500000
  0
CIRCLE
  8
1
 62
7
  6
CONTINUOUS
 10
1389.480218
 20
1247.074653
 40
0.750000
  0
TEXT
  8
1
 62
7
  6
CONTINUOUS
 10
888.480218
 20
1247.074653
 40
20.000000
 41
0.500000
  1
972
  7
KANJI
 50
0.000000
 51
30.000000
  0
ENDBLK
  0
BLOCK
  8
1
 62
7
  6
CONTINUOUS
  2
*D5
 70
    65
 10
0.0
 20
0.0
  0
LINE
  8
1
 62
7
  6
CONTINUOUS
 10
417.480218
 20
1215.842014
 11
439.480218
 21
1215.842014
  0
LINE
  8
1
 62
7
  6
CONTINUOUS
 10
417.480218
 20
1225.842014
 11
417.480218
 21
1191.886667
  0
LINE
  8
1
 62
7
  6
CONTINUOUS
 10
439.480218
 20
1225.842014
 11
439.480218
 21
1191.886667
  0
CIRCLE
  8
1
 62
7
  6
CONTINUOUS
 10
417.480218
 20
1215.842014
 40
1.500000
  0
CIRCLE
  8
1
 62
7
  6
CONTINUOUS
 10
417.480218
 20
1215.842014
 40
0.750000
  0
CIRCLE
  8
1
 62
7
  6
CONTINUOUS
 10
439.480218
 20
1215.842014
 40
1.500000
  0
CIRCLE
  8
1
 62
7
  6
CONTINUOUS
 10
439.480218
 20
1215.842014
 40
0.750000
  0
TEXT
  8
1
 62
7
  6
CONTINUOUS
 10
418.480218
 20
1215.842014
 40
20.000000
 41
0.500000
  1
22
  7
KANJI
 50
0.000000
 51
30.000000
  0
ENDBLK
  0
BLOCK
  8
1
 62
7
  6
CONTINUOUS
  2
*D6
 70
    65
 10
0.0
 20
0.0
  0
LINE
  8
1
 62
7
  6
CONTINUOUS
 10
439.480218
 20
1215.842014
 11
1367.480218
 21
1215.842014
  0
LINE
  8
1
 62
7
  6
CONTINUOUS
 10
1367.480218
 20
1225.842014
 11
1367.480218
 21
1191.886667
  0
CIRCLE
  8
1
 62
7
  6
CONTINUOUS
 10
1367.480218
 20
1215.842014
 40
1.500000
  0
CIRCLE
  8
1
 62
7
  6
CONTINUOUS
 10
1367.480218
 20
1215.842014
 40
0.750000
  0
TEXT
  8
1
 62
7
  6
CONTINUOUS
 10
888.480218
 20
1215.842014
 40
20.000000
 41
0.500000
  1
928
  7
KANJI
 50
0.000000
 51
30.000000
  0
ENDBLK
  0
BLOCK
  8
1
 62
7
  6
CONTINUOUS
  2
*D7
 70
    65
 10
0.0
 20
0.0
  0
LINE
  8
1
 62
7
  6
CONTINUOUS
 10
1367.480218
 20
1215.842014
 11
1389.480218
 21
1215.842014
  0
LINE
  8
1
 62
7
  6
CONTINUOUS
 10
1389.480218
 20
1225.842014
 11
1389.480218
 21
1191.886667
  0
CIRCLE
  8
1
 62
7
  6
CONTINUOUS
 10
1389.480218
 20
1215.842014
 40
1.500000
  0
CIRCLE
  8
1
 62
7
  6
CONTINUOUS
 10
1389.480218
 20
1215.842014
 40
0.750000
  0
TEXT
  8
1
 62
7
  6
CONTINUOUS
 10
1368.480218
 20
1215.842014
 40
20.000000
 41
0.500000
  1
22
  7
KANJI
 50
0.000000
 51
30.000000
  0
ENDBLK
  0
BLOCK
  8
1
 62
7
  6
CONTINUOUS
  2
*D8
 70
    65
 10
0.0
 20
0.0
  0
LINE
  8
1
 62
7
  6
CONTINUOUS
 10
325.711806
 20
1203.886667
 11
325.711806
 21
689.886667
  0
LINE
  8
1
 62
7
  6
CONTINUOUS
 10
315.711806
 20
1203.886667
 11
407.480218
 21
1203.886667
  0
LINE
  8
1
 62
7
  6
CONTINUOUS
 10
315.711806
 20
689.886667
 11
407.480218
 21
689.886667
  0
CIRCLE
  8
1
 62
7
  6
CONTINUOUS
 10
325.711806
 20
1203.886667
 40
1.500000
  0
CIRCLE
  8
1
 62
7
  6
CONTINUOUS
 10
325.711806
 20
1203.886667
 40
0.750000
  0
CIRCLE
  8
1
 62
7
  6
CONTINUOUS
 10
325.711806
 20
689.886667
 40
1.500000
  0
CIRCLE
  8
1
 62
7
  6
CONTINUOUS
 10
325.711806
 20
689.886667
 40
0.750000
  0
TEXT
  8
1
 62
7
  6
CONTINUOUS
 10
325.711806
 20
931.886667
 40
20.000000
 41
0.500000
  1
514
  7
KANJI
 50
90.000000
 51
30.000000
  0
ENDBLK
  0
BLOCK
  8
1
 62
7
  6
CONTINUOUS
  2
*D9
 70
    65
 10
0.0
 20
0.0
  0
LINE
  8
1
 62
7
  6
CONTINUOUS
 10
350.251736
 20
1203.886667
 11
350.251736
 21
1181.886667
  0
LINE
  8
1
 62
7
  6
CONTINUOUS
 10
340.251736
 20
1203.886667
 11
407.480218
 21
1203.886667
  0
LINE
  8
1
 62
7
  6
CONTINUOUS
 10
340.251736
 20
1181.886667
 11
407.480218
 21
1181.886667
  0
CIRCLE
  8
1
 62
7
  6
CONTINUOUS
 10
350.251736
 20
1203.886667
 40
1.500000
  0
CIRCLE
  8
1
 62
7
  6
CONTINUOUS
 10
350.251736
 20
1203.886667
 40
0.750000
  0
CIRCLE
  8
1
 62
7
  6
CONTINUOUS
 10
350.251736
 20
1181.886667
 40
1.500000
  0
CIRCLE
  8
1
 62
7
  6
CONTINUOUS
 10
350.251736
 20
1181.886667
 40
0.750000
  0
TEXT
  8
1
 62
7
  6
CONTINUOUS
 10
350.251736
 20
1182.886667
 40
20.000000
 41
0.500000
  1
22
  7
KANJI
 50
90.000000
 51
30.000000
  0
ENDBLK
  0
BLOCK
  8
1
 62
7
  6
CONTINUOUS
  2
*D10
 70
    65
 10
0.0
 20
0.0
  0
LINE
  8
1
 62
7
  6
CONTINUOUS
 10
350.251736
 20
1181.886667
 11
350.251736
 21
711.886667
  0
LINE
  8
1
 62
7
  6
CONTINUOUS
 10
340.251736
 20
711.886667
 11
407.480218
 21
711.886667
  0
CIRCLE
  8
1
 62
7
  6
CONTINUOUS
 10
350.251736
 20
711.886667
 40
1.500000
  0
CIRCLE
  8
1
 62
7
  6
CONTINUOUS
 10
350.251736
 20
711.886667
 40
0.750000
  0
TEXT
  8
1
 62
7
  6
CONTINUOUS
 10
350.251736
 20
931.886667
 40
20.000000
 41
0.500000
  1
470
  7
KANJI
 50
90.000000
 51
30.000000
  0
ENDBLK
  0
BLOCK
  8
1
 62
7
  6
CONTINUOUS
  2
*D11
 70
    65
 10
0.0
 20
0.0
  0
LINE
  8
1
 62
7
  6
CONTINUOUS
 10
350.251736
 20
711.886667
 11
350.251736
 21
689.886667
  0
LINE
  8
1
 62
7
  6
CONTINUOUS
 10
340.251736
 20
689.886667
 11
407.480218
 21
689.886667
  0
CIRCLE
  8
1
 62
7
  6
CONTINUOUS
 10
350.251736
 20
689.886667
 40
1.500000
  0
CIRCLE
  8
1
 62
7
  6
CONTINUOUS
 10
350.251736
 20
689.886667
 40
0.750000
  0
TEXT
  8
1
 62
7
  6
CONTINUOUS
 10
350.251736
 20
690.886667
 40
20.000000
 41
0.500000
  1
22
  7
KANJI
 50
90.000000
 51
30.000000
  0
ENDBLK
  0
BLOCK
  8
1
 62
7
  6
CONTINUOUS
  2
*D12
 70
    65
 10
0.0
 20
0.0
  0
LINE
  8
1
 62
7
  6
CONTINUOUS
 10
391.844174
 20
1028.886667
 11
391.844174
 21
864.886667
  0
LINE
  8
1
 62
7
  6
CONTINUOUS
 10
381.844174
 20
1028.886667
 11
407.480218
 21
1028.886667
  0
LINE
  8
1
 62
7
  6
CONTINUOUS
 10
381.844174
 20
864.886667
 11
407.480218
 21
864.886667
  0
CIRCLE
  8
1
 62
7
  6
CONTINUOUS
 10
391.844174
 20
1028.886667
 40
1.500000
  0
CIRCLE
  8
1
 62
7
  6
CONTINUOUS
 10
391.844174
 20
1028.886667
 40
0.750000
  0
CIRCLE
  8
1
 62
7
  6
CONTINUOUS
 10
391.844174
 20
864.886667
 40
1.500000
  0
CIRCLE
  8
1
 62
7
  6
CONTINUOUS
 10
391.844174
 20
864.886667
 40
0.750000
  0
TEXT
  8
1
 62
7
  6
CONTINUOUS
 10
391.844174
 20
931.886667
 40
20.000000
 41
0.500000
  1
164
  7
KANJI
 50
90.000000
 51
30.000000
  0
ENDBLK
  0
BLOCK
  8
1
 62
7
  6
CONTINUOUS
  2
*D13
 70
    65
 10
0.0
 20
0.0
  0
LINE
  8
1
 62
7
  6
CONTINUOUS
 10
370.844174
 20
1096.886667
 11
370.844174
 21
796.886667
  0
LINE
  8
1
 62
7
  6
CONTINUOUS
 10
360.844174
 20
1096.886667
 11
429.480218
 21
1096.886667
  0
LINE
  8
1
 62
7
  6
CONTINUOUS
 10
360.844174
 20
796.886667
 11
429.480218
 21
796.886667
  0
CIRCLE
  8
1
 62
7
  6
CONTINUOUS
 10
370.844174
 20
1096.886667
 40
1.500000
  0
CIRCLE
  8
1
 62
7
  6
CONTINUOUS
 10
370.844174
 20
1096.886667
 40
0.750000
  0
CIRCLE
  8
1
 62
7
  6
CONTINUOUS
 10
370.844174
 20
796.886667
 40
1.500000
  0
CIRCLE
  8
1
 62
7
  6
CONTINUOUS
 10
370.844174
 20
796.886667
 40
0.750000
  0
TEXT
  8
1
 62
7
  6
CONTINUOUS
 10
370.844174
 20
931.886667
 40
20.000000
 41
0.500000
  1
300
  7
KANJI
 50
90.000000
 51
30.000000
  0
ENDBLK
  0
BLOCK
  8
1
 62
7
  6
CONTINUOUS
  2
*D14
 70
    65
 10
0.0
 20
0.0
  0
LINE
  8
1
 62
7
  6
CONTINUOUS
 10
759.480218
 20
667.367795
 11
1367.480218
 21
667.367795
  0
LINE
  8
1
 62
7
  6
CONTINUOUS
 10
759.480218
 20
657.367795
 11
759.480218
 21
679.886667
  0
LINE
  8
1
 62
7
  6
CONTINUOUS
 10
1367.480218
 20
657.367795
 11
1367.480218
 21
679.886667
  0
CIRCLE
  8
1
 62
7
  6
CONTINUOUS
 10
759.480218
 20
667.367795
 40
1.500000
  0
CIRCLE
  8
1
 62
7
  6
CONTINUOUS
 10
759.480218
 20
667.367795
 40
0.750000
  0
CIRCLE
  8
1
 62
7
  6
CONTINUOUS
 10
1367.480218
 20
667.367795
 40
1.500000
  0
CIRCLE
  8
1
 62
7
  6
CONTINUOUS
 10
1367.480218
 20
667.367795
 40
0.750000
  0
TEXT
  8
1
 62
7
  6
CONTINUOUS
 10
1048.480218
 20
667.367795
 40
20.000000
 41
0.500000
  1
608
  7
KANJI
 50
0.000000
 51
30.000000
  0
ENDBLK
  0
BLOCK
  8
1
 62
7
  6
CONTINUOUS
  2
*D15
 70
    65
 10
0.0
 20
0.0
  0
LINE
  8
1
 62
7
  6
CONTINUOUS
 10
407.480218
 20
476.160000
 11
407.480218
 21
446.160000
  0
LINE
  8
1
 62
7
  6
CONTINUOUS
 10
397.480218
 20
471.160000
 11
407.480218
 21
471.160000
  0
LINE
  8
1
 62
7
  6
CONTINUOUS
 10
397.480218
 20
451.160000
 11
407.480218
 21
451.160000
  0
CIRCLE
  8
1
 62
7
  6
CONTINUOUS
 10
407.480218
 20
471.160000
 40
1.500000
  0
CIRCLE
  8
1
 62
7
  6
CONTINUOUS
 10
407.480218
 20
471.160000
 40
0.750000
  0
CIRCLE
  8
1
 62
7
  6
CONTINUOUS
 10
407.480218
 20
451.160000
 40
1.500000
  0
CIRCLE
  8
1
 62
7
  6
CONTINUOUS
 10
407.480218
 20
451.160000
 40
0.750000
  0
TEXT
  8
1
 62
7
  6
CONTINUOUS
 10
407.480218
 20
451.160000
 40
20.000000
 41
0.500000
  1
20
  7
KANJI
 50
90.000000
 51
30.000000
  0
ENDBLK
  0
BLOCK
  8
1
 62
7
  6
CONTINUOUS
  2
*D16
 70
    65
 10
0.0
 20
0.0
  0
LINE
  8
1
 62
7
  6
CONTINUOUS
 10
355.472619
 20
483.160000
 11
355.472619
 21
250.160000
  0
LINE
  8
1
 62
7
  6
CONTINUOUS
 10
345.472619
 20
483.160000
 11
407.480218
 21
483.160000
  0
LINE
  8
1
 62
7
  6
CONTINUOUS
 10
345.472619
 20
250.160000
 11
407.480218
 21
250.160000
  0
CIRCLE
  8
1
 62
7
  6
CONTINUOUS
 10
355.472619
 20
483.160000
 40
1.500000
  0
CIRCLE
  8
1
 62
7
  6
CONTINUOUS
 10
355.472619
 20
483.160000
 40
0.750000
  0
CIRCLE
  8
1
 62
7
  6
CONTINUOUS
 10
355.472619
 20
250.160000
 40
1.500000
  0
CIRCLE
  8
1
 62
7
  6
CONTINUOUS
 10
355.472619
 20
250.160000
 40
0.750000
  0
TEXT
  8
1
 62
7
  6
CONTINUOUS
 10
355.472619
 20
351.660000
 40
20.000000
 41
0.500000
  1
210
  7
KANJI
 50
90.000000
 51
30.000000
  0
ENDBLK
  0
BLOCK
  8
1
 62
7
  6
CONTINUOUS
  2
*D17
 70
    65
 10
0.0
 20
0.0
  0
LINE
  8
1
 62
7
  6
CONTINUOUS
 10
377.136007
 20
488.160000
 11
377.136007
 21
466.160000
  0
LINE
  8
1
 62
7
  6
CONTINUOUS
 10
367.136007
 20
483.160000
 11
407.480218
 21
483.160000
  0
LINE
  8
1
 62
7
  6
CONTINUOUS
 10
367.136007
 20
471.160000
 11
407.480218
 21
471.160000
  0
CIRCLE
  8
1
 62
7
  6
CONTINUOUS
 10
377.136007
 20
483.160000
 40
1.500000
  0
CIRCLE
  8
1
 62
7
  6
CONTINUOUS
 10
377.136007
 20
483.160000
 40
0.750000
  0
CIRCLE
  8
1
 62
7
  6
CONTINUOUS
 10
377.136007
 20
471.160000
 40
1.500000
  0
CIRCLE
  8
1
 62
7
  6
CONTINUOUS
 10
377.136007
 20
471.160000
 40
0.750000
  0
TEXT
  8
1
 62
7
  6
CONTINUOUS
 10
377.136007
 20
467.160000
 40
20.000000
 41
0.500000
  1
12
  7
KANJI
 50
90.000000
 51
30.000000
  0
ENDBLK
  0
BLOCK
  8
1
 62
7
  6
CONTINUOUS
  2
*D18
 70
    65
 10
0.0
 20
0.0
  0
LINE
  8
1
 62
7
  6
CONTINUOUS
 10
417.480218
 20
528.723958
 11
1389.480218
 21
528.723958
  0
LINE
  8
1
 62
7
  6
CONTINUOUS
 10
417.480218
 20
538.723958
 11
417.480218
 21
493.160000
  0
LINE
  8
1
 62
7
  6
CONTINUOUS
 10
1389.480218
 20
538.723958
 11
1389.480218
 21
493.160000
  0
CIRCLE
  8
1
 62
7
  6
CONTINUOUS
 10
417.480218
 20
528.723958
 40
1.500000
  0
CIRCLE
  8
1
 62
7
  6
CONTINUOUS
 10
417.480218
 20
528.723958
 40
0.750000
  0
CIRCLE
  8
1
 62
7
  6
CONTINUOUS
 10
1389.480218
 20
528.723958
 40
1.500000
  0
CIRCLE
  8
1
 62
7
  6
CONTINUOUS
 10
1389.480218
 20
528.723958
 40
0.750000
  0
TEXT
  8
1
 62
7
  6
CONTINUOUS
 10
888.480218
 20
528.723958
 40
20.000000
 41
0.500000
  1
972
  7
KANJI
 50
0.000000
 51
30.000000
  0
ENDBLK
  0
BLOCK
  8
1
 62
7
  6
CONTINUOUS
  2
*D19
 70
    65
 10
0.0
 20
0.0
  0
LINE
  8
1
 62
7
  6
CONTINUOUS
 10
1498.472222
 20
1247.851549
 11
1520.472222
 21
1247.851549
  0
LINE
  8
1
 62
7
  6
CONTINUOUS
 10
1503.472222
 20
1257.851549
 11
1503.472222
 21
1213.886667
  0
LINE
  8
1
 62
7
  6
CONTINUOUS
 10
1515.472222
 20
1257.851549
 11
1515.472222
 21
1213.886667
  0
CIRCLE
  8
1
 62
7
  6
CONTINUOUS
 10
1503.472222
 20
1247.851549
 40
1.500000
  0
CIRCLE
  8
1
 62
7
  6
CONTINUOUS
 10
1503.472222
 20
1247.851549
 40
0.750000
  0
CIRCLE
  8
1
 62
7
  6
CONTINUOUS
 10
1515.472222
 20
1247.851549
 40
1.500000
  0
CIRCLE
  8
1
 62
7
  6
CONTINUOUS
 10
1515.472222
 20
1247.851549
 40
0.750000
  0
TEXT
  8
1
 62
7
  6
CONTINUOUS
 10
1499.472222
 20
1247.851549
 40
20.000000
 41
0.500000
  1
12
  7
KANJI
 50
0.000000
 51
30.000000
  0
ENDBLK
  0
BLOCK
  8
1
 62
7
  6
CONTINUOUS
  2
*D20
 70
    65
 10
0.0
 20
0.0
  0
LINE
  8
1
 62
7
  6
CONTINUOUS
 10
1510.472222
 20
1225.977297
 11
1540.472222
 21
1225.977297
  0
LINE
  8
1
 62
7
  6
CONTINUOUS
 10
1515.472222
 20
1235.977297
 11
1515.472222
 21
1213.886667
  0
LINE
  8
1
 62
7
  6
CONTINUOUS
 10
1535.472222
 20
1235.977297
 11
1535.472222
 21
1213.886667
  0
CIRCLE
  8
1
 62
7
  6
CONTINUOUS
 10
1515.472222
 20
1225.977297
 40
1.500000
  0
CIRCLE
  8
1
 62
7
  6
CONTINUOUS
 10
1515.472222
 20
1225.977297
 40
0.750000
  0
CIRCLE
  8
1
 62
7
  6
CONTINUOUS
 10
1535.472222
 20
1225.977297
 40
1.500000
  0
CIRCLE
  8
1
 62
7
  6
CONTINUOUS
 10
1535.472222
 20
1225.977297
 40
0.750000
  0
TEXT
  8
1
 62
7
  6
CONTINUOUS
 10
1515.472222
 20
1225.977297
 40
20.000000
 41
0.500000
  1
20
  7
KANJI
 50
0.000000
 51
30.000000
  0
ENDBLK
  0
BLOCK
  8
1
 62
7
  6
CONTINUOUS
  2
*D21
 70
    65
 10
0.0
 20
0.0
  0
LINE
  8
1
 62
7
  6
CONTINUOUS
 10
1463.472222
 20
1203.886667
 11
1463.472222
 21
689.886667
  0
LINE
  8
1
 62
7
  6
CONTINUOUS
 10
1453.472222
 20
1203.886667
 11
1493.472222
 21
1203.886667
  0
LINE
  8
1
 62
7
  6
CONTINUOUS
 10
1453.472222
 20
689.886667
 11
1493.472222
 21
689.886667
  0
CIRCLE
  8
1
 62
7
  6
CONTINUOUS
 10
1463.472222
 20
1203.886667
 40
1.500000
  0
CIRCLE
  8
1
 62
7
  6
CONTINUOUS
 10
1463.472222
 20
1203.886667
 40
0.750000
  0
CIRCLE
  8
1
 62
7
  6
CONTINUOUS
 10
1463.472222
 20
689.886667
 40
1.500000
  0
CIRCLE
  8
1
 62
7
  6
CONTINUOUS
 10
1463.472222
 20
689.886667
 40
0.750000
  0
TEXT
  8
1
 62
7
  6
CONTINUOUS
 10
1463.472222
 20
931.886667
 40
20.000000
 41
0.500000
  1
514
  7
KANJI
 50
90.000000
 51
30.000000
  0
ENDBLK
  0
BLOCK
  8
1
 62
7
  6
CONTINUOUS
  2
*D22
 70
    65
 10
0.0
 20
0.0
  0
LINE
  8
1
 62
7
  6
CONTINUOUS
 10
1503.472222
 20
632.842258
 11
1733.472222
 21
632.842258
  0
LINE
  8
1
 62
7
  6
CONTINUOUS
 10
1503.472222
 20
622.842258
 11
1503.472222
 21
679.886667
  0
LINE
  8
1
 62
7
  6
CONTINUOUS
 10
1733.472222
 20
622.842258
 11
1733.472222
 21
679.886667
  0
CIRCLE
  8
1
 62
7
  6
CONTINUOUS
 10
1503.472222
 20
632.842258
 40
1.500000
  0
CIRCLE
  8
1
 62
7
  6
CONTINUOUS
 10
1503.472222
 20
632.842258
 40
0.750000
  0
CIRCLE
  8
1
 62
7
  6
CONTINUOUS
 10
1733.472222
 20
632.842258
 40
1.500000
  0
CIRCLE
  8
1
 62
7
  6
CONTINUOUS
 10
1733.472222
 20
632.842258
 40
0.750000
  0
TEXT
  8
1
 62
7
  6
CONTINUOUS
 10
1603.472222
 20
632.842258
 40
20.000000
 41
0.500000
  1
210
  7
KANJI
 50
0.000000
 51
30.000000
  0
ENDBLK
  0
ENDSEC
  0
SECTION
  2
ENTITIES
  0
TEXT
  8
1
 62
7
  6
CONTINUOUS
 10
39.900000
 20
144.259375
 40
24.750000
 41
0.800000
  1
取引先：
  7
KANJI
 50
0.000000
 51
0.000000
  0
TEXT
  8
1
 62
7
  6
CONTINUOUS
 10
119.100000
 20
156.634375
 40
12.375000
 41
0.400000
  1

  7
KANJI
 50
0.000000
 51
0.000000
  0
TEXT
  8
1
 62
7
  6
CONTINUOUS
 10
119.100000
 20
144.259375
 40
12.375000
 41
0.400000
  1

  7
KANJI
 50
0.000000
 51
0.000000
  0
TEXT
  8
1
 62
7
  6
CONTINUOUS
 10
39.900000
 20
94.759375
 40
24.750000
 41
0.800000
  1
物件名：
  7
KANJI
 50
0.000000
 51
0.000000
  0
TEXT
  8
1
 62
7
  6
CONTINUOUS
 10
119.100000
 20
107.134375
 40
12.375000
 41
0.400000
  1

  7
KANJI
 50
0.000000
 51
0.000000
  0
TEXT
  8
1
 62
7
  6
CONTINUOUS
 10
119.100000
 20
94.759375
 40
12.375000
 41
0.400000
  1

  7
KANJI
 50
0.000000
 51
0.000000
  0
TEXT
  8
1
 62
7
  6
CONTINUOUS
 10
39.900000
 20
45.259375
 40
24.750000
 41
0.700000
  1
納 期：
  7
KANJI
 50
0.000000
 51
0.000000
  0
TEXT
  8
1
 62
7
  6
CONTINUOUS
 10
109.200000
 20
57.634375
 40
12.375000
 41
0.400000
  1

  7
KANJI
 50
0.000000
 51
0.000000
  0
TEXT
  8
1
 62
7
  6
CONTINUOUS
 10
109.200000
 20
45.259375
 40
12.375000
 41
0.400000
  1

  7
KANJI
 50
0.000000
 51
0.000000
  0
LINE
  8
1
 62
7
  6
CONTINUOUS
 10
30.000000
 20
188.500000
 11
30.000000
 21
40.000000
  0
LINE
  8
1
 62
7
  6
CONTINUOUS
 10
30.000000
 20
188.500000
 11
327.000000
 21
188.500000
  0
LINE
  8
1
 62
7
  6
CONTINUOUS
 10
327.000000
 20
188.500000
 11
327.000000
 21
139.000000
  0
LINE
  8
1
 62
7
  6
CONTINUOUS
 10
327.000000
 20
139.000000
 11
30.000000
 21
139.000000
  0
LINE
  8
1
 62
7
  6
CONTINUOUS
 10
30.000000
 20
139.000000
 11
30.000000
 21
89.500000
  0
LINE
  8
1
 62
7
  6
CONTINUOUS
 10
30.000000
 20
89.500000
 11
327.000000
 21
89.500000
  0
LINE
  8
1
 62
7
  6
CONTINUOUS
 10
327.000000
 20
89.500000
 11
327.000000
 21
139.000000
  0
LINE
  8
1
 62
7
  6
CONTINUOUS
 10
327.000000
 20
139.000000
 11
327.000000
 21
40.000000
  0
LINE
  8
1
 62
7
  6
CONTINUOUS
 10
327.000000
 20
40.000000
 11
30.000000
 21
40.000000
  0
TEXT
  8
1
 62
7
  6
CONTINUOUS
 10
341.850000
 20
144.259375
 40
24.750000
 41
0.800000
  1
　色柄：
  7
KANJI
 50
0.000000
 51
0.000000
  0
TEXT
  8
1
 62
7
  6
CONTINUOUS
 10
421.050000
 20
156.634375
 40
12.375000
 41
0.400000
  1

  7
KANJI
 50
0.000000
 51
0.000000
  0
TEXT
  8
1
 62
7
  6
CONTINUOUS
 10
421.050000
 20
144.259375
 40
12.375000
 41
0.400000
  1

  7
KANJI
 50
0.000000
 51
0.000000
  0
TEXT
  8
1
 62
7
  6
CONTINUOUS
 10
341.850000
 20
94.759375
 40
24.750000
 41
0.800000
  1
　厚み：
  7
KANJI
 50
0.000000
 51
0.000000
  0
TEXT
  8
1
 62
7
  6
CONTINUOUS
 10
421.050000
 20
107.134375
 40
12.375000
 41
0.400000
  1

  7
KANJI
 50
0.000000
 51
0.000000
  0
TEXT
  8
1
 62
7
  6
CONTINUOUS
 10
421.050000
 20
94.759375
 40
12.375000
 41
0.400000
  1

  7
KANJI
 50
0.000000
 51
0.000000
  0
TEXT
  8
1
 62
7
  6
CONTINUOUS
 10
341.850000
 20
45.259375
 40
24.750000
 41
0.800000
  1
付属品：
  7
KANJI
 50
0.000000
 51
0.000000
  0
TEXT
  8
1
 62
7
  6
CONTINUOUS
 10
421.050000
 20
57.634375
 40
12.375000
 41
0.400000
  1

  7
KANJI
 50
0.000000
 51
0.000000
  0
TEXT
  8
1
 62
7
  6
CONTINUOUS
 10
421.050000
 20
45.259375
 40
12.375000
 41
0.400000
  1

  7
KANJI
 50
0.000000
 51
0.000000
  0
LINE
  8
1
 62
7
  6
CONTINUOUS
 10
429.073950
 20
40.000000
 11
429.073950
 21
188.500000
  0
TEXT
  8
1
 62
7
  6
CONTINUOUS
 10
438.973950
 20
164.987500
 40
19.800000
 41
1.000000
  1
単色シリーズ
  7
KANJI
 50
0.000000
 51
0.000000
  0
TEXT
  8
1
 62
7
  6
CONTINUOUS
 10
557.773950
 20
174.887500
 40
9.900000
 41
0.500000
  1

  7
KANJI
 50
0.000000
 51
0.000000
  0
TEXT
  8
1
 62
7
  6
CONTINUOUS
 10
557.773950
 20
164.987500
 40
9.900000
 41
0.500000
  1

  7
KANJI
 50
0.000000
 51
0.000000
  0
LINE
  8
1
 62
7
  6
CONTINUOUS
 10
1615.489950
 20
40.000000
 11
1615.489950
 21
188.500000
  0
TEXT
  8
1
 62
7
  6
CONTINUOUS
 10
1235.923950
 20
94.759375
 40
24.750000
 41
0.800000
  1
埼玉県比企郡川島町表２１－５
  7
KANJI
 50
0.000000
 51
0.000000
  0
TEXT
  8
1
 62
7
  6
CONTINUOUS
 10
1513.123950
 20
107.134375
 40
12.375000
 41
0.400000
  1

  7
KANJI
 50
0.000000
 51
0.000000
  0
TEXT
  8
1
 62
7
  6
CONTINUOUS
 10
1513.123950
 20
94.759375
 40
12.375000
 41
0.400000
  1

  7
KANJI
 50
0.000000
 51
0.000000
  0
TEXT
  8
1
 62
7
  6
CONTINUOUS
 10
1235.923950
 20
70.009375
 40
24.750000
 41
0.647059
  1
  TEL ０４９２－９７－７２７１
  7
KANJI
 50
0.000000
 51
0.000000
  0
TEXT
  8
1
 62
7
  6
CONTINUOUS
 10
1495.798950
 20
82.384375
 40
12.375000
 41
0.388235
  1

  7
KANJI
 50
0.000000
 51
0.000000
  0
TEXT
  8
1
 62
7
  6
CONTINUOUS
 10
1495.798950
 20
70.009375
 40
12.375000
 41
0.388235
  1

  7
KANJI
 50
0.000000
 51
0.000000
  0
TEXT
  8
1
 62
7
  6
CONTINUOUS
 10
1235.923950
 20
45.259375
 40
24.750000
 41
0.647059
  1
  FAX ０４９２－９７－７２７３
  7
KANJI
 50
0.000000
 51
0.000000
  0
TEXT
  8
1
 62
7
  6
CONTINUOUS
 10
1495.798950
 20
57.634375
 40
12.375000
 41
0.388235
  1

  7
KANJI
 50
0.000000
 51
0.000000
  0
TEXT
  8
1
 62
7
  6
CONTINUOUS
 10
1495.798950
 20
45.259375
 40
12.375000
 41
0.388235
  1

  7
KANJI
 50
0.000000
 51
0.000000
  0
TEXT
  8
1
 62
7
  6
CONTINUOUS
 10
1235.923950
 20
117.653125
 40
34.650000
 41
1.285714
  1
㈱三井ＰＣＯ
  7
KANJI
 50
0.000000
 51
0.000000
  0
TEXT
  8
1
 62
7
  6
CONTINUOUS
 10
1468.573950
 20
134.978125
 40
17.325000
 41
0.642857
  1

  7
KANJI
 50
0.000000
 51
0.000000
  0
TEXT
  8
1
 62
7
  6
CONTINUOUS
 10
1468.573950
 20
117.653125
 40
17.325000
 41
0.642857
  1

  7
KANJI
 50
0.000000
 51
0.000000
  0
LINE
  8
1
 62
7
  6
CONTINUOUS
 10
429.073950
 20
188.500000
 11
578.420400
 21
188.500000
  0
LINE
  8
1
 62
7
  6
CONTINUOUS
 10
578.420400
 20
188.500000
 11
722.960400
 21
188.500000
  0
LINE
  8
1
 62
7
  6
CONTINUOUS
 10
722.960400
 20
188.500000
 11
872.851350
 21
188.500000
  0
LINE
  8
1
 62
7
  6
CONTINUOUS
 10
872.851350
 20
40.000000
 11
429.073950
 21
40.000000
  0
LINE
  8
1
 62
7
  6
CONTINUOUS
 10
429.073950
 20
139.000000
 11
872.851350
 21
139.000000
  0
LINE
  8
1
 62
7
  6
CONTINUOUS
 10
872.851350
 20
89.500000
 11
429.073950
 21
89.500000
  0
LINE
  8
1
 62
7
  6
CONTINUOUS
 10
578.420400
 20
188.500000
 11
578.420400
 21
89.500000
  0
LINE
  8
1
 62
7
  6
CONTINUOUS
 10
906.348000
 20
139.000000
 11
872.851350
 21
139.000000
  0
LINE
  8
1
 62
7
  6
CONTINUOUS
 10
872.851350
 20
139.000000
 11
906.348000
 21
139.000000
  0
LINE
  8
1
 62
7
  6
CONTINUOUS
 10
906.348000
 20
89.500000
 11
872.851350
 21
89.500000
  0
LINE
  8
1
 62
7
  6
CONTINUOUS
 10
872.851350
 20
89.500000
 11
906.348000
 21
89.500000
  0
LINE
  8
1
 62
7
  6
CONTINUOUS
 10
578.420400
 20
89.500000
 11
578.420400
 21
40.000000
  0
LINE
  8
1
 62
7
  6
CONTINUOUS
 10
872.851350
 20
188.500000
 11
906.348000
 21
188.500000
  0
LINE
  8
1
 62
7
  6
CONTINUOUS
 10
906.348000
 20
40.000000
 11
872.851350
 21
40.000000
  0
LINE
  8
1
 62
7
  6
CONTINUOUS
 10
1129.098000
 20
188.500000
 11
1129.098000
 21
40.000000
  0
LINE
  8
1
 62
7
  6
CONTINUOUS
 10
1129.098000
 20
40.000000
 11
1615.489950
 21
40.000000
  0
LINE
  8
1
 62
7
  6
CONTINUOUS
 10
1615.489950
 20
188.500000
 11
1129.098000
 21
188.500000
  0
LINE
  8
1
 62
7
  6
CONTINUOUS
 10
906.348000
 20
188.500000
 11
1121.673000
 21
188.500000
  0
LINE
  8
1
 62
7
  6
CONTINUOUS
 10
1121.673000
 20
188.500000
 11
1121.673000
 21
40.000000
  0
LINE
  8
1
 62
7
  6
CONTINUOUS
 10
1121.673000
 20
40.000000
 11
906.348000
 21
40.000000
  0
LINE
  8
1
 62
7
  6
CONTINUOUS
 10
906.348000
 20
139.000000
 11
1121.673000
 21
139.000000
  0
LINE
  8
1
 62
7
  6
CONTINUOUS
 10
1121.673000
 20
89.500000
 11
906.348000
 21
89.500000
  0
TEXT
  8
1
 62
7
  6
CONTINUOUS
 10
931.360845
 20
164.987500
 40
19.800000
 41
1.000000
  1
モンタナシリーズ
  7
KANJI
 50
0.000000
 51
0.000000
  0
TEXT
  8
1
 62
7
  6
CONTINUOUS
 10
1089.760845
 20
174.887500
 40
9.900000
 41
0.500000
  1

  7
KANJI
 50
0.000000
 51
0.000000
  0
TEXT
  8
1
 62
7
  6
CONTINUOUS
 10
1089.760845
 20
164.987500
 40
9.900000
 41
0.500000
  1

  7
KANJI
 50
0.000000
 51
0.000000
  0
TEXT
  8
1
 62
7
  6
CONTINUOUS
 10
755.473485
 20
164.987500
 40
19.800000
 41
1.000000
  1
シエラシリーズ
  7
KANJI
 50
0.000000
 51
0.000000
  0
TEXT
  8
1
 62
7
  6
CONTINUOUS
 10
894.073485
 20
174.887500
 40
9.900000
 41
0.500000
  1

  7
KANJI
 50
0.000000
 51
0.000000
  0
TEXT
  8
1
 62
7
  6
CONTINUOUS
 10
894.073485
 20
164.987500
 40
9.900000
 41
0.500000
  1

  7
KANJI
 50
0.000000
 51
0.000000
  0
LINE
  8
1
 62
7
  6
CONTINUOUS
 10
919.192260
 20
188.500000
 11
919.192260
 21
40.000000
  0
TEXT
  8
1
 62
7
  6
CONTINUOUS
 10
588.320400
 20
161.275000
 40
19.800000
 41
1.000000
  1
ベナーロシリーズ
  7
KANJI
 50
0.000000
 51
0.000000
  0
TEXT
  8
1
 62
7
  6
CONTINUOUS
 10
746.720400
 20
171.175000
 40
9.900000
 41
0.500000
  1

  7
KANJI
 50
0.000000
 51
0.000000
  0
TEXT
  8
1
 62
7
  6
CONTINUOUS
 10
746.720400
 20
161.275000
 40
9.900000
 41
0.500000
  1

  7
KANJI
 50
0.000000
 51
0.000000
  0
LINE
  8
1
 62
7
  6
CONTINUOUS
 10
749.190450
 20
188.500000
 11
749.190450
 21
40.000000
  0
TEXT
  8
1
 62
7
  6
CONTINUOUS
 10
429.073950
 20
48.380350
 40
24.750000
 41
0.800000
  1
シーム剤  本
  7
KANJI
 50
0.000000
 51
0.000000
  0
TEXT
  8
1
 62
7
  6
CONTINUOUS
 10
557.773950
 20
60.755350
 40
12.375000
 41
0.466667
  1

  7
KANJI
 50
0.000000
 51
0.000000
  0
TEXT
  8
1
 62
7
  6
CONTINUOUS
 10
557.773950
 20
48.380350
 40
12.375000
 41
0.466667
  1

  7
KANJI
 50
0.000000
 51
0.000000
  0
TEXT
  8
1
 62
7
  6
CONTINUOUS
 10
924.142260
 20
52.589335
 40
24.750000
 41
1.000000
  1
梱包個数　　梱
  7
KANJI
 50
0.000000
 51
0.000000
  0
TEXT
  8
1
 62
7
  6
CONTINUOUS
 10
1097.392260
 20
64.964335
 40
12.375000
 41
0.500000
  1

  7
KANJI
 50
0.000000
 51
0.000000
  0
TEXT
  8
1
 62
7
  6
CONTINUOUS
 10
1097.392260
 20
52.589335
 40
12.375000
 41
0.500000
  1

  7
KANJI
 50
0.000000
 51
0.000000
  0
TEXT
  8
1
 62
7
  6
CONTINUOUS
 10
735.879900
 20
52.271050
 40
24.750000
 41
0.746667
  1
 断熱テープ   本
  7
KANJI
 50
0.000000
 51
0.000000
  0
TEXT
  8
1
 62
7
  6
CONTINUOUS
 10
900.467400
 20
64.646050
 40
12.375000
 41
0.466667
  1

  7
KANJI
 50
0.000000
 51
0.000000
  0
TEXT
  8
1
 62
7
  6
CONTINUOUS
 10
900.467400
 20
52.271050
 40
12.375000
 41
0.466667
  1

  7
KANJI
 50
0.000000
 51
0.000000
  0
TEXT
  8
1
 62
7
  6
CONTINUOUS
 10
583.370400
 20
47.910595
 40
24.750000
 41
0.656250
  1
瞬間接着剤 　本
  7
KANJI
 50
0.000000
 51
0.000000
  0
TEXT
  8
1
 62
7
  6
CONTINUOUS
 10
713.307900
 20
60.285595
 40
12.375000
 41
0.350000
  1

  7
KANJI
 50
0.000000
 51
0.000000
  0
TEXT
  8
1
 62
7
  6
CONTINUOUS
 10
713.307900
 20
47.910595
 40
12.375000
 41
0.350000
  1

  7
KANJI
 50
0.000000
 51
0.000000
  0
TEXT
  8
1
 62
7
  6
CONTINUOUS
 10
438.973950
 20
97.234375
 40
24.750000
 41
1.041667
  1
   ㎜
  7
KANJI
 50
0.000000
 51
0.000000
  0
TEXT
  8
1
 62
7
  6
CONTINUOUS
 10
525.598950
 20
109.609375
 40
12.375000
 41
0.833333
  1

  7
KANJI
 50
0.000000
 51
0.000000
  0
TEXT
  8
1
 62
7
  6
CONTINUOUS
 10
525.598950
 20
97.234375
 40
12.375000
 41
0.833333
  1

  7
KANJI
 50
0.000000
 51
0.000000
  0
TEXT
  8
1
 62
7
  6
CONTINUOUS
 10
588.320400
 20
97.234375
 40
24.750000
 41
1.041667
  1
   ㎜
  7
KANJI
 50
0.000000
 51
0.000000
  0
TEXT
  8
1
 62
7
  6
CONTINUOUS
 10
674.945400
 20
109.609375
 40
12.375000
 41
0.833333
  1

  7
KANJI
 50
0.000000
 51
0.000000
  0
TEXT
  8
1
 62
7
  6
CONTINUOUS
 10
674.945400
 20
97.234375
 40
12.375000
 41
0.833333
  1

  7
KANJI
 50
0.000000
 51
0.000000
  0
TEXT
  8
1
 62
7
  6
CONTINUOUS
 10
755.473485
 20
97.234375
 40
24.750000
 41
1.041667
  1
   ㎜
  7
KANJI
 50
0.000000
 51
0.000000
  0
TEXT
  8
1
 62
7
  6
CONTINUOUS
 10
842.098485
 20
109.609375
 40
12.375000
 41
0.833333
  1

  7
KANJI
 50
0.000000
 51
0.000000
  0
TEXT
  8
1
 62
7
  6
CONTINUOUS
 10
842.098485
 20
97.234375
 40
12.375000
 41
0.833333
  1

  7
KANJI
 50
0.000000
 51
0.000000
  0
TEXT
  8
1
 62
7
  6
CONTINUOUS
 10
924.142260
 20
97.234375
 40
24.750000
 41
1.050000
  1
    ㎜
  7
KANJI
 50
0.000000
 51
0.000000
  0
TEXT
  8
1
 62
7
  6
CONTINUOUS
 10
1035.517260
 20
109.609375
 40
12.375000
 41
0.875000
  1

  7
KANJI
 50
0.000000
 51
0.000000
  0
TEXT
  8
1
 62
7
  6
CONTINUOUS
 10
1035.517260
 20
97.234375
 40
12.375000
 41
0.875000
  1

  7
KANJI
 50
0.000000
 51
0.000000
  0
TEXT
  8
1
 62
7
  6
CONTINUOUS
 10
1138.998000
 20
159.109375
 40
24.750000
 41
0.800000
  1
デュポンコーリアン認定加工／施工工場　　Ｍｐｃｏ　
  7
KANJI
 50
0.000000
 51
0.000000
  0
TEXT
  8
1
 62
7
  6
CONTINUOUS
 10
1633.998000
 20
171.484375
 40
12.375000
 41
0.400000
  1

  7
KANJI
 50
0.000000
 51
0.000000
  0
TEXT
  8
1
 62
7
  6
CONTINUOUS
 10
1633.998000
 20
159.109375
 40
12.375000
 41
0.400000
  1

  7
KANJI
 50
0.000000
 51
0.000000
  0
LINE
  8
1
 62
7
  6
CONTINUOUS
 10
1622.914950
 20
40.000000
 11
1734.473100
 21
40.000000
  0
TEXT
  8
1
 62
7
  6
CONTINUOUS
 10
1627.864950
 20
95.378125
 40
34.650000
 41
0.714286
  1
図面番号
  7
KANJI
 50
0.000000
 51
0.000000
  0
TEXT
  8
1
 62
7
  6
CONTINUOUS
 10
1726.864950
 20
112.703125
 40
17.325000
 41
0.357143
  1

  7
KANJI
 50
0.000000
 51
0.000000
  0
TEXT
  8
1
 62
7
  6
CONTINUOUS
 10
1726.864950
 20
95.378125
 40
17.325000
 41
0.357143
  1

  7
KANJI
 50
0.000000
 51
0.000000
  0
LINE
  8
1
 62
7
  6
CONTINUOUS
 10
1622.914950
 20
139.000000
 11
1622.914950
 21
40.000000
  0
LINE
  8
1
 62
7
  6
CONTINUOUS
 10
1622.914950
 20
40.000000
 11
1734.473100
 21
40.000000
  0
LINE
  8
1
 62
7
  6
CONTINUOUS
 10
1734.473100
 20
40.000000
 11
1734.473100
 21
139.000000
  0
LINE
  8
1
 62
7
  6
CONTINUOUS
 10
1734.473100
 20
139.000000
 11
1622.914950
 21
139.000000
  0
LINE
  8
1
 62
7
  6
CONTINUOUS
 10
1622.914950
 20
139.000000
 11
1622.914950
 21
188.500000
  0
LINE
  8
1
 62
7
  6
CONTINUOUS
 10
1622.914950
 20
188.500000
 11
1734.473100
 21
188.500000
  0
LINE
  8
1
 62
7
  6
CONTINUOUS
 10
1734.473100
 20
188.500000
 11
1734.473100
 21
139.000000
  0
TEXT
  8
1
 62
7
  6
CONTINUOUS
 10
1627.864950
 20
161.275000
 40
19.800000
 41
0.875000
  1
CAD-NO
  7
KANJI
 50
0.000000
 51
0.000000
  0
TEXT
  8
1
 62
7
  6
CONTINUOUS
 10
1723.152450
 20
171.175000
 40
9.900000
 41
0.875000
  1

  7
KANJI
 50
0.000000
 51
0.000000
  0
TEXT
  8
1
 62
7
  6
CONTINUOUS
 10
1723.152450
 20
161.275000
 40
9.900000
 41
0.875000
  1

  7
KANJI
 50
0.000000
 51
0.000000
  0
CIRCLE
  8
1
 62
7
  6
DOT
 10
903.480220
 20
946.886667
 40
80.000000
  0
CIRCLE
  8
1
 62
7
  6
CONTINUOUS
 10
903.480219
 20
946.886667
 40
80.000000
  0
CIRCLE
  8
1
 62
7
  6
CONTINUOUS
 10
903.480219
 20
946.886667
 40
90.000000
  0
DIMENSION
  8
1
 62
7
  6
CONTINUOUS
  2
*D1
 10
813.480219
 20
946.886667
 11
903.480219
 21
946.886667
 70
     0
  1
180φ
 13
813.480219
 23
946.886667
 14
993.480220
 24
946.886667
 50
0.000000
  0
LINE
  8
1
 62
7
  6
CONTINUOUS
 10
1003.480218
 20
253.160000
 11
1003.480218
 21
253.541557
  0
LINE
  8
1
 62
7
  6
CONTINUOUS
 10
802.480218
 20
253.575851
 11
802.480218
 21
253.160000
  0
LINE
  8
1
 62
7
  6
CONTINUOUS
 10
603.480218
 20
483.160000
 11
626.480218
 21
483.160000
  0
LINE
  8
1
 62
7
  6
CONTINUOUS
 10
1180.480218
 20
483.160000
 11
1203.480218
 21
483.160000
  0
LINE
  8
1
 62
7
  6
CONTINUOUS
 10
1267.782541
 20
483.160000
 11
1268.480219
 21
483.160000
  0
LINE
  8
1
 62
7
  6
CONTINUOUS
 10
626.480218
 20
483.160000
 11
1180.480218
 21
483.160000
  0
LINE
  8
1
 62
7
  6
CONTINUOUS
 10
528.480218
 20
483.160000
 11
603.480218
 21
483.160000
  0
LINE
  8
1
 62
7
  6
CONTINUOUS
 10
1203.480218
 20
483.160000
 11
1278.480218
 21
483.160000
  0
LINE
  8
1
 62
7
  6
CONTINUOUS
 10
993.480218
 20
257.160000
 11
813.480218
 21
257.160000
  0
LINE
  8
1
 62
7
  6
CONTINUOUS
 10
802.480218
 20
253.160000
 11
802.435438
 21
251.706180
  0
ARC
  8
1
 62
7
  6
CONTINUOUS
 10
803.934727
 20
251.660000
 40
1.500000
 50
178.235780
 51
-90.000000
  0
LINE
  8
1
 62
7
  6
CONTINUOUS
 10
1001.922035
 20
250.160000
 11
803.934727
 21
250.160000
  0
LINE
  8
1
 62
7
  6
CONTINUOUS
 10
1003.480218
 20
253.541557
 11
1003.421335
 21
251.614195
  0
ARC
  8
1
 62
7
  6
CONTINUOUS
 10
1001.922035
 20
251.660000
 40
1.500000
 50
-90.000000
 51
-1.749887
  0
LINE
  8
1
 62
7
  6
CONTINUOUS
 10
903.480218
 20
268.160000
 11
903.480218
 21
233.797149
  0
LINE
  8
1
 62
7
  6
CONTINUOUS
 10
903.480218
 20
925.146283
 11
903.480218
 21
838.301933
  0
LINE
  8
1
 62
7
  6
CONTINUOUS
 10
903.480218
 20
977.508317
 11
903.480218
 21
1056.264222
  0
LINE
  8
1
 62
7
  6
CONTINUOUS
 10
759.480218
 20
794.775564
 11
759.480218
 21
796.485748
  0
ARC
  8
1
 62
7
  6
CONTINUOUS
 10
903.480218
 20
1496.886667
 40
776.000000
 50
-96.016558
 51
-90.000000
  0
ARC
  8
1
 62
7
  6
CONTINUOUS
 10
829.480218
 20
794.775564
 40
70.000000
 50
180.000000
 51
-96.016558
  0
LINE
  8
1
 62
7
  6
CONTINUOUS
 10
759.480218
 20
1098.997769
 11
759.480218
 21
1059.105057
  0
ARC
  8
1
 62
7
  6
CONTINUOUS
 10
903.480218
 20
396.886667
 40
776.000000
 50
86.773216
 51
96.016558
  0
ARC
  8
1
 62
7
  6
CONTINUOUS
 10
829.480218
 20
1098.997769
 40
70.000000
 50
96.016558
 51
180.000000
  0
LINE
  8
1
 62
7
  6
CONTINUOUS
 10
758.376121
 20
962.770879
 11
758.399922
 21
964.856690
  0
ARC
  8
1
 62
7
  6
CONTINUOUS
 10
728.378074
 20
963.113183
 40
30.000000
 50
-0.653765
 51
7.771398
  0
ARC
  8
1
 62
7
  6
CONTINUOUS
 10
609.480218
 20
946.886667
 40
150.000000
 50
90.000000
 51
-180.000000
  0
ARC
  8
1
 62
7
  6
CONTINUOUS
 10
609.210015
 20
945.466835
 40
151.420073
 50
40.585203
 51
89.897758
  0
ARC
  8
1
 62
7
  6
CONTINUOUS
 10
739.480218
 20
1056.886667
 40
20.000000
 50
-139.799649
 51
-0.000000
  0
LINE
  8
1
 62
7
  6
CONTINUOUS
 10
759.480218
 20
1059.529387
 11
759.480218
 21
1056.886667
  0
ARC
  8
1
 62
7
  6
CONTINUOUS
 10
739.480218
 20
836.886667
 40
20.000000
 50
-0.000000
 51
140.995082
  0
LINE
  8
1
 62
7
  6
CONTINUOUS
 10
759.480218
 20
836.886667
 11
759.480218
 21
794.775554
  0
ARC
  8
1
 62
7
  6
CONTINUOUS
 10
609.480218
 20
946.886667
 40
150.000000
 50
180.000000
 51
-90.000000
  0
ARC
  8
1
 62
7
  6
CONTINUOUS
 10
609.281364
 20
948.173464
 40
151.286928
 50
-89.924690
 51
-40.722529
  0
DIMENSION
  8
1
 62
7
  6
CONTINUOUS
  2
*D2
 10
1028.727716
 20
1181.886667
 11
1028.727716
 21
1064.386667
 70
     0
  1
235
 13
913.480218
 23
1181.886667
 14
913.480219
 24
946.886667
 50
-90.000000
  0
DIMENSION
  8
1
 62
7
  6
CONTINUOUS
  2
*D3
 10
1028.727716
 20
946.886667
 11
1028.727716
 21
829.386667
 70
     0
  1
235
 13
1028.727716
 23
946.886667
 14
913.480218
 24
711.886667
 50
-90.000000
  0
DIMENSION
  8
1
 62
7
  6
CONTINUOUS
  2
*D4
 10
417.480218
 20
1247.074653
 11
903.480218
 21
1247.074653
 70
     0
  1
972
 13
417.480218
 23
1191.886667
 14
1389.480218
 24
1191.886667
 50
0.000000
  0
DIMENSION
  8
1
 62
7
  6
CONTINUOUS
  2
*D5
 10
417.480218
 20
1215.842014
 11
428.480218
 21
1215.842014
 70
     0
  1
22
 13
417.480218
 23
1191.886667
 14
439.480218
 24
1191.886667
 50
0.000000
  0
DIMENSION
  8
1
 62
7
  6
CONTINUOUS
  2
*D6
 10
439.480218
 20
1215.842014
 11
903.480218
 21
1215.842014
 70
     0
  1
928
 13
439.480218
 23
1215.842014
 14
1367.480218
 24
1191.886667
 50
0.000000
  0
DIMENSION
  8
1
 62
7
  6
CONTINUOUS
  2
*D7
 10
1367.480218
 20
1215.842014
 11
1378.480218
 21
1215.842014
 70
     0
  1
22
 13
1367.480218
 23
1215.842014
 14
1389.480218
 24
1191.886667
 50
0.000000
  0
DIMENSION
  8
1
 62
7
  6
CONTINUOUS
  2
*D8
 10
325.711806
 20
1203.886667
 11
325.711806
 21
946.886667
 70
     0
  1
514
 13
407.480218
 23
1203.886667
 14
407.480218
 24
689.886667
 50
-90.000000
  0
DIMENSION
  8
1
 62
7
  6
CONTINUOUS
  2
*D9
 10
350.251736
 20
1203.886667
 11
350.251736
 21
1192.886667
 70
     0
  1
22
 13
407.480218
 23
1203.886667
 14
407.480218
 24
1181.886667
 50
-90.000000
  0
DIMENSION
  8
1
 62
7
  6
CONTINUOUS
  2
*D10
 10
350.251736
 20
1181.886667
 11
350.251736
 21
946.886667
 70
     0
  1
470
 13
350.251736
 23
1181.886667
 14
407.480218
 24
711.886667
 50
-90.000000
  0
DIMENSION
  8
1
 62
7
  6
CONTINUOUS
  2
*D11
 10
350.251736
 20
711.886667
 11
350.251736
 21
700.886667
 70
     0
  1
22
 13
350.251736
 23
711.886667
 14
407.480218
 24
689.886667
 50
-90.000000
  0
LINE
  8
1
 62
7
  6
CONTINUOUS
 10
1102.279846
 20
1156.425436
 11
1137.760417
 21
1028.886667
  0
LINE
  8
1
 62
7
  6
CONTINUOUS
 10
1137.760417
 20
1028.886667
 11
1197.378472
 21
1028.886667
  0
TEXT
  8
1
 62
7
  6
CONTINUOUS
 10
1167.378472
 20
1028.886667
 40
20.000000
 41
0.375000
  1
785R
  7
KANJI
 50
0.000000
 51
30.000000
  0
LINE
  8
1
 62
7
  6
CONTINUOUS
 10
1102.279846
 20
1156.425436
 11
1112.444526
 21
1139.201055
  0
LINE
  8
1
 62
7
  6
CONTINUOUS
 10
1102.279846
 20
1156.425436
 11
1102.470527
 21
1136.426345
  0
LINE
  8
1
 62
7
  6
CONTINUOUS
 10
1112.444526
 20
1139.201055
 11
1102.470527
 21
1136.426345
  0
LINE
  8
1
 62
7
  6
CONTINUOUS
 10
1103.574266
 20
1151.772502
 11
1108.656606
 21
1143.160312
  0
LINE
  8
1
 62
7
  6
CONTINUOUS
 10
1103.574266
 20
1151.772502
 11
1103.669606
 21
1141.772956
  0
LINE
  8
1
 62
7
  6
CONTINUOUS
 10
1108.656606
 20
1143.160312
 11
1103.669606
 21
1141.772956
  0
LINE
  8
1
 62
7
  6
CONTINUOUS
 10
759.480218
 20
725.207329
 11
825.434028
 21
776.354167
  0
LINE
  8
1
 62
7
  6
CONTINUOUS
 10
825.434028
 20
776.354167
 11
893.975694
 21
776.354167
  0
TEXT
  8
1
 62
7
  6
CONTINUOUS
 10
863.975694
 20
776.354167
 40
20.000000
 41
0.375000
  1
785R
  7
KANJI
 50
0.000000
 51
30.000000
  0
LINE
  8
1
 62
7
  6
CONTINUOUS
 10
759.480218
 20
725.207329
 11
771.574037
 21
741.136533
  0
LINE
  8
1
 62
7
  6
CONTINUOUS
 10
759.480218
 20
725.207329
 11
777.918374
 21
732.955514
  0
LINE
  8
1
 62
7
  6
CONTINUOUS
 10
771.574037
 20
741.136533
 11
777.918374
 21
732.955514
  0
LINE
  8
1
 62
7
  6
CONTINUOUS
 10
763.296715
 20
728.167003
 11
769.343624
 21
736.131605
  0
LINE
  8
1
 62
7
  6
CONTINUOUS
 10
763.296715
 20
728.167003
 11
772.515793
 21
732.041095
  0
LINE
  8
1
 62
7
  6
CONTINUOUS
 10
769.343624
 20
736.131605
 11
772.515793
 21
732.041095
  0
DIMENSION
  8
1
 62
7
  6
CONTINUOUS
  2
*D12
 10
391.844174
 20
1028.886667
 11
391.844174
 21
946.886667
 70
     0
  1
164
 13
407.480218
 23
1028.886667
 14
407.480218
 24
864.886667
 50
-90.000000
  0
DIMENSION
  8
1
 62
7
  6
CONTINUOUS
  2
*D13
 10
370.844174
 20
1096.886667
 11
370.844174
 21
946.886667
 70
     0
  1
300
 13
429.480218
 23
1096.886667
 14
429.480218
 24
796.886667
 50
-90.000000
  0
ARC
  8
1
 62
7
  6
CONTINUOUS
 10
445.480218
 20
1025.851153
 40
6.000000
 50
126.216800
 51
180.000000
  0
ARC
  8
1
 62
7
  6
CONTINUOUS
 10
449.480218
 20
1023.819279
 40
10.000000
 50
126.066492
 51
-180.000000
  0
LINE
  8
1
 62
7
  6
CONTINUOUS
 10
439.480218
 20
868.787152
 11
439.480218
 21
1023.819279
  0
ARC
  8
1
 62
7
  6
CONTINUOUS
 10
449.480218
 20
868.787152
 40
10.000000
 50
180.000000
 51
-125.859983
  0
ARC
  8
1
 62
7
  6
CONTINUOUS
 10
427.480218
 20
857.642582
 40
10.000000
 50
180.000000
 51
-126.672457
  0
LINE
  8
1
 62
7
  6
CONTINUOUS
 10
417.480218
 20
1036.130752
 11
417.480218
 21
857.642582
  0
ARC
  8
1
 62
7
  6
CONTINUOUS
 10
427.480218
 20
1036.130752
 40
10.000000
 50
126.672457
 51
180.000000
  0
ARC
  8
1
 62
7
  6
CONTINUOUS
 10
904.287937
 20
399.355414
 40
782.531670
 50
54.081589
 51
126.066492
  0
ARC
  8
1
 62
7
  6
CONTINUOUS
 10
1357.480218
 20
1024.992639
 40
10.000000
 50
0.000000
 51
54.081589
  0
LINE
  8
1
 62
7
  6
CONTINUOUS
 10
1367.480218
 20
868.787152
 11
1367.480218
 21
1024.992639
  0
ARC
  8
1
 62
7
  6
CONTINUOUS
 10
903.480218
 20
1496.886667
 40
785.000000
 50
-125.859983
 51
-54.140017
  0
ARC
  8
1
 62
7
  6
CONTINUOUS
 10
1357.480218
 20
868.787152
 40
10.000000
 50
-54.140017
 51
-0.000000
  0
ARC
  8
1
 62
7
  6
CONTINUOUS
 10
903.480218
 20
396.886667
 40
776.000000
 50
56.953071
 51
86.773216
  0
ARC
  8
1
 62
7
  6
CONTINUOUS
 10
1288.480218
 20
988.672946
 40
70.000000
 50
-0.000000
 51
56.953071
  0
LINE
  8
1
 62
7
  6
CONTINUOUS
 10
1358.480218
 20
905.100388
 11
1358.480218
 21
988.672946
  0
ARC
  8
1
 62
7
  6
CONTINUOUS
 10
903.480218
 20
1496.886667
 40
776.000000
 50
-90.000000
 51
-56.953071
  0
ARC
  8
1
 62
7
  6
CONTINUOUS
 10
1288.480218
 20
905.100388
 40
70.000000
 50
-56.953071
 51
-0.000000
  0
ARC
  8
1
 62
7
  6
CONTINUOUS
 10
903.480218
 20
1496.886667
 40
807.000000
 50
-126.672457
 51
-53.327543
  0
LINE
  8
1
 62
7
  6
CONTINUOUS
 10
1389.480218
 20
857.642582
 11
1389.480218
 21
864.886667
  0
ARC
  8
1
 62
7
  6
CONTINUOUS
 10
1379.480218
 20
857.642582
 40
10.000000
 50
-53.327543
 51
0.000000
  0
ARC
  8
1
 62
7
  6
CONTINUOUS
 10
903.480218
 20
396.886667
 40
807.000000
 50
53.327543
 51
126.672457
  0
LINE
  8
1
 62
7
  6
CONTINUOUS
 10
1389.480218
 20
1036.130752
 11
1389.480218
 21
864.886667
  0
ARC
  8
1
 62
7
  6
CONTINUOUS
 10
1379.480218
 20
1036.130752
 40
10.000000
 50
0.000000
 51
53.327543
  0
CIRCLE
  8
1
 62
7
  6
CONTINUOUS
 10
1358.480218
 20
1025.497039
 40
1.500000
  0
CIRCLE
  8
1
 62
7
  6
CONTINUOUS
 10
1358.480218
 20
1025.497039
 40
0.750000
  0
CIRCLE
  8
1
 62
7
  6
CONTINUOUS
 10
1358.480218
 20
868.276294
 40
1.500000
  0
CIRCLE
  8
1
 62
7
  6
CONTINUOUS
 10
1358.480218
 20
868.276294
 40
0.750000
  0
CIRCLE
  8
1
 62
7
  6
CONTINUOUS
 10
1358.480218
 20
868.276294
 40
1.500000
  0
CIRCLE
  8
1
 62
7
  6
CONTINUOUS
 10
1358.480218
 20
868.276294
 40
0.750000
  0
DIMENSION
  8
1
 62
7
  6
CONTINUOUS
  2
*D14
 10
759.480218
 20
667.367795
 11
1063.480218
 21
667.367795
 70
     0
  1
608
 13
759.480218
 23
679.886667
 14
1367.480218
 24
679.886667
 50
0.000000
  0
LINE
  8
1
 62
7
  6
CONTINUOUS
 10
417.480218
 20
483.160000
 11
1389.480218
 21
483.160000
  0
LINE
  8
1
 62
7
  6
CONTINUOUS
 10
417.480218
 20
483.160000
 11
417.480218
 21
471.160000
  0
LINE
  8
1
 62
7
  6
CONTINUOUS
 10
417.480218
 20
471.160000
 11
432.480218
 21
471.160000
  0
LINE
  8
1
 62
7
  6
CONTINUOUS
 10
432.480218
 20
471.160000
 11
432.480218
 21
451.160000
  0
LINE
  8
1
 62
7
  6
CONTINUOUS
 10
1389.480218
 20
483.160000
 11
1389.480218
 21
471.160000
  0
LINE
  8
1
 62
7
  6
CONTINUOUS
 10
1389.480218
 20
471.160000
 11
1374.480218
 21
471.160000
  0
LINE
  8
1
 62
7
  6
CONTINUOUS
 10
1374.480218
 20
471.160000
 11
1374.480218
 21
451.160000
  0
LINE
  8
1
 62
7
  6
CONTINUOUS
 10
432.480218
 20
471.160000
 11
1389.480218
 21
471.160000
  0
LINE
  8
1
 62
7
  6
CONTINUOUS
 10
1374.480218
 20
451.160000
 11
432.480218
 21
451.160000
  0
LINE
  8
1
 62
7
  6
CONTINUOUS
 10
471.625512
 20
320.910472
 11
456.480218
 21
451.160000
  0
ARC
  8
1
 62
7
  6
CONTINUOUS
 10
521.290881
 20
326.685515
 40
50.000000
 50
-173.367485
 51
-93.264284
  0
LINE
  8
1
 62
7
  6
CONTINUOUS
 10
675.717759
 20
267.796642
 11
518.443796
 21
276.766640
  0
LINE
  8
1
 62
7
  6
CONTINUOUS
 10
728.403291
 20
313.699408
 11
739.480218
 21
451.160000
  0
ARC
  8
1
 62
7
  6
CONTINUOUS
 10
678.564843
 20
317.715517
 40
50.000000
 50
-93.264284
 51
-4.607086
  0
LINE
  8
1
 62
7
  6
CONTINUOUS
 10
1358.480218
 20
451.160000
 11
1343.301964
 21
320.627016
  0
LINE
  8
1
 62
7
  6
CONTINUOUS
 10
993.467719
 20
257.160000
 11
1296.818423
 21
276.503402
  0
ARC
  8
1
 62
7
  6
CONTINUOUS
 10
1293.636595
 20
326.402059
 40
50.000000
 50
-86.351428
 51
-6.632515
  0
LINE
  8
1
 62
7
  6
CONTINUOUS
 10
681.614276
 20
267.808594
 11
813.480218
 21
257.160000
  0
LINE
  8
1
 62
7
  6
CONTINUOUS
 10
759.480218
 20
451.160000
 11
771.411485
 21
302.416866
  0
LINE
  8
1
 62
7
  6
CONTINUOUS
 10
811.980219
 20
257.281130
 11
812.230097
 21
257.235293
  0
ARC
  8
1
 62
7
  6
CONTINUOUS
 10
821.251400
 20
306.414720
 40
50.000000
 50
-175.413901
 51
-100.394579
  0
LINE
  8
1
 62
7
  6
CONTINUOUS
 10
802.434727
 20
258.051959
 11
802.434727
 21
251.660000
  0
LINE
  8
1
 62
7
  6
CONTINUOUS
 10
1003.480218
 20
257.798455
 11
1003.480218
 21
253.541557
  0
DIMENSION
  8
1
 62
7
  6
CONTINUOUS
  2
*D15
 10
407.480218
 20
471.160000
 11
407.480218
 21
461.160000
 70
     0
  1
20
 13
407.480218
 23
471.160000
 14
407.480218
 24
451.160000
 50
-90.000000
  0
DIMENSION
  8
1
 62
7
  6
CONTINUOUS
  2
*D16
 10
355.472619
 20
483.160000
 11
355.472619
 21
366.660000
 70
     0
  1
210
 13
407.480218
 23
483.160000
 14
407.480218
 24
250.160000
 50
-90.000000
  0
DIMENSION
  8
1
 62
7
  6
CONTINUOUS
  2
*D17
 10
377.136007
 20
483.160000
 11
377.136007
 21
477.160000
 70
     0
  1
12
 13
407.480218
 23
483.160000
 14
407.480218
 24
471.160000
 50
-90.000000
  0
DIMENSION
  8
1
 62
7
  6
CONTINUOUS
  2
*D18
 10
417.480218
 20
528.723958
 11
903.480218
 21
528.723958
 70
     0
  1
972
 13
417.480218
 23
493.160000
 14
1389.480218
 24
493.160000
 50
0.000000
  0
LINE
  8
1
 62
7
  6
CONTINUOUS
 10
1726.472222
 20
843.886667
 11
1733.472222
 21
843.886667
  0
LINE
  8
1
 62
7
  6
CONTINUOUS
 10
1733.472222
 20
843.886667
 11
1733.472222
 21
1023.886667
  0
LINE
  8
1
 62
7
  6
CONTINUOUS
 10
1733.472222
 20
1023.886667
 11
1726.472222
 21
1023.886667
  0
LINE
  8
1
 62
7
  6
CONTINUOUS
 10
1726.472222
 20
975.886667
 11
1726.472222
 21
843.886667
  0
LINE
  8
1
 62
7
  6
CONTINUOUS
 10
1726.472222
 20
975.886667
 11
1726.472222
 21
1023.886667
  0
LINE
  8
1
 62
7
  6
CONTINUOUS
 10
1503.472222
 20
1101.886667
 11
1503.472222
 21
775.431690
  0
LINE
  8
1
 62
7
  6
CONTINUOUS
 10
1705.289234
 20
946.886667
 11
1763.823704
 21
946.886667
  0
LINE
  8
1
 62
7
  6
CONTINUOUS
 10
1722.008307
 20
1106.915488
 11
1726.472222
 21
1023.886667
  0
LINE
  8
1
 62
7
  6
CONTINUOUS
 10
1503.472222
 20
1141.886667
 11
1503.472222
 21
1203.886667
  0
LINE
  8
1
 62
7
  6
CONTINUOUS
 10
1503.472222
 20
1203.886667
 11
1515.472222
 21
1203.886667
  0
LINE
  8
1
 62
7
  6
CONTINUOUS
 10
1503.472222
 20
1141.886667
 11
1503.472222
 21
689.886667
  0
LINE
  8
1
 62
7
  6
CONTINUOUS
 10
1503.472222
 20
689.886667
 11
1515.472222
 21
689.886667
  0
LINE
  8
1
 62
7
  6
CONTINUOUS
 10
1515.472222
 20
689.886667
 11
1515.472222
 21
704.886667
  0
LINE
  8
1
 62
7
  6
CONTINUOUS
 10
1515.472222
 20
704.886667
 11
1535.472222
 21
704.886667
  0
LINE
  8
1
 62
7
  6
CONTINUOUS
 10
1535.472222
 20
704.886667
 11
1535.472222
 21
720.886667
  0
LINE
  8
1
 62
7
  6
CONTINUOUS
 10
1515.472222
 20
1203.886667
 11
1515.472222
 21
1188.886667
  0
LINE
  8
1
 62
7
  6
CONTINUOUS
 10
1515.472222
 20
1188.886667
 11
1535.472222
 21
1188.886667
  0
LINE
  8
1
 62
7
  6
CONTINUOUS
 10
1535.472222
 20
1188.886667
 11
1535.472222
 21
1172.886667
  0
LINE
  8
1
 62
7
  6
CONTINUOUS
 10
1535.472222
 20
720.886667
 11
1688.623275
 21
737.194860
  0
LINE
  8
1
 62
7
  6
CONTINUOUS
 10
1724.368807
 20
775.736012
 11
1726.472222
 21
843.886667
  0
ARC
  8
1
 62
7
  6
CONTINUOUS
 10
1684.387845
 20
776.969993
 40
40.000000
 50
-83.921799
 51
-1.767827
  0
LINE
  8
1
 62
7
  6
CONTINUOUS
 10
1535.472222
 20
1172.886667
 11
1685.375457
 21
1156.511615
  0
LINE
  8
1
 62
7
  6
CONTINUOUS
 10
1722.547491
 20
1096.886667
 11
1720.930755
 21
1119.589482
  0
ARC
  8
1
 62
7
  6
CONTINUOUS
 10
1681.031797
 20
1116.748156
 40
40.000000
 50
4.073329
 51
83.765872
  0
DIMENSION
  8
1
 62
7
  6
CONTINUOUS
  2
*D19
 10
1503.472222
 20
1247.851549
 11
1509.472222
 21
1247.851549
 70
     0
  1
12
 13
1503.472222
 23
1213.886667
 14
1515.472222
 24
1213.886667
 50
0.000000
  0
DIMENSION
  8
1
 62
7
  6
CONTINUOUS
  2
*D20
 10
1515.472222
 20
1225.977297
 11
1525.472222
 21
1225.977297
 70
     0
  1
20
 13
1515.472222
 23
1213.886667
 14
1535.472222
 24
1213.886667
 50
0.000000
  0
DIMENSION
  8
1
 62
7
  6
CONTINUOUS
  2
*D21
 10
1463.472222
 20
1203.886667
 11
1463.472222
 21
946.886667
 70
     0
  1
514
 13
1493.472222
 23
1203.886667
 14
1493.472222
 24
689.886667
 50
-90.000000
  0
DIMENSION
  8
1
 62
7
  6
CONTINUOUS
  2
*D22
 10
1503.472222
 20
632.842258
 11
1618.472222
 21
632.842258
 70
     0
  1
210
 13
1503.472222
 23
679.886667
 14
1733.472222
 24
679.886667
 50
0.000000
  0
TEXT
  8
1
 62
7
  6
CONTINUOUS
 10
29.001736
 20
1202.046518
 40
25.000000
 41
0.676471
  1
ｱｸﾘﾙ変性ﾎﾟﾘｴｽﾃﾙ系シンク
  7
KANJI
 50
0.000000
 51
0.000000
  0
TEXT
  8
1
 62
7
  6
CONTINUOUS
 10
316.501736
 20
1214.546518
 40
12.500000
 41
0.500000
  1

  7
KANJI
 50
0.000000
 51
0.000000
  0
TEXT
  8
1
 62
7
  6
CONTINUOUS
 10
316.501736
 20
1202.046518
 40
12.500000
 41
0.500000
  1

  7
KANJI
 50
0.000000
 51
0.000000
  0
TEXT
  8
1
 62
7
  6
CONTINUOUS
 10
29.001736
 20
1141.966592
 40
25.000000
 41
1.000000
  1
専用排水金具は別売
  7
KANJI
 50
0.000000
 51
0.000000
  0
TEXT
  8
1
 62
7
  6
CONTINUOUS
 10
254.001736
 20
1154.466592
 40
12.500000
 41
0.500000
  1

  7
KANJI
 50
0.000000
 51
0.000000
  0
TEXT
  8
1
 62
7
  6
CONTINUOUS
 10
254.001736
 20
1141.966592
 40
12.500000
 41
0.500000
  1

  7
KANJI
 50
0.000000
 51
0.000000
  0
TEXT
  8
1
 62
7
  6
CONTINUOUS
 10
29.001736
 20
1231.659851
 40
35.000000
 41
0.700000
  1
AR990 帆船型ｼﾝｸ詳細図
  7
KANJI
 50
0.000000
 51
0.000000
  0
TEXT
  8
1
 62
7
  6
CONTINUOUS
 10
396.501736
 20
1249.159851
 40
17.500000
 41
0.500000
  1

  7
KANJI
 50
0.000000
 51
0.000000
  0
TEXT
  8
1
 62
7
  6
CONTINUOUS
 10
396.501736
 20
1231.659851
 40
17.500000
 41
0.500000
  1

  7
KANJI
 50
0.000000
 51
0.000000
  0
TEXT
  8
1
 62
7
  6
CONTINUOUS
 10
29.001736
 20
1172.046518
 40
25.000000
 41
0.750000
  1
設計価格：￥80,000
  7
KANJI
 50
0.000000
 51
0.000000
  0
TEXT
  8
1
 62
7
  6
CONTINUOUS
 10
254.001736
 20
1184.546518
 40
12.500000
 41
0.500000
  1

  7
KANJI
 50
0.000000
 51
0.000000
  0
TEXT
  8
1
 62
7
  6
CONTINUOUS
 10
254.001736
 20
1172.046518
 40
12.500000
 41
0.500000
  1

  7
KANJI
 50
0.000000
 51
0.000000
  0
ENDSEC
  0
EOF
