  0
SECTION
  2
HEADER
  9
$ACADVER
  1
AC1003
  9
$INSBASE
 10
0.000000
 20
0.000000
  9
$EXTMIN
 10
0.000000
 20
0.000000
  9
$EXTMAX
 10
1820.000000
 20
1285.000000
  9
$LIMMIN
 10
0.000000
 20
0.000000
  9
$LIMMAX
 10
1820.000000
 20
1285.000000
  9
$VIEWCTR
 10
910.000000
 20
642.500000
  9
$VIEWSIZE
 40
1285.000000
  9
$PEXTMIN
 10
0.000000
 20
0.000000
 30
0.000000
  9
$PEXTMAX
 10
364.000000
 20
257.000000
 30
0.000000
  9
$SNAPMODE
 70
     0
  9
$SNAPUNIT
 10
1.000000
 20
1.000000
  9
$SNAPBASE
 10
0.000000
 20
0.000000
  9
$SNAPANG
 50
0.000000
  9
$SNAPISOPAIR
 70
     0
  9
$SNAPSTYLE
 70
     0
  9
$GRIDMODE
 70
     0
  9
$GRIDUNIT
 10
0.000000
 20
0.000000
  9
$ORTHOMODE
 70
     0
  9
$REGENMODE
 70
     1
  9
$FILLMODE
 70
     1
  9
$QTEXTMODE
 70
     0
  9
$DRAGMODE
 70
     2
  9
$LTSCALE
 40
1.250000
  9
$OSMODE
 70
     0
  9
$ATTMODE
 70
     1
  9
$TEXTSIZE
 40
0.200000
  9
$TRACEWID
 40
0.050000
  9
$TEXTSTYLE
  7
STANDARD
  9
$CLAYER
  8
0
  9
$CELTYPE
  6
BYLAYER
  9
$CECOLOR
 62
   256
  9
$DIMSCALE
 40
1.000000
  9
$DIMASZ
 40
1.000000
  9
$DIMEXO
 40
0.000000
  9
$DIMDLI
 40
0.500000
  9
$DIMRND
 40
0.000000
  9
$DIMDLE
 40
0.000000
  9
$DIMEXE
 40
0.000000
  9
$DIMTP
 40
0.000000
  9
$DIMTM
 40
0.000000
  9
$DIMTXT
 40
0.180000
  9
$DIMCEN
 40
0.000000
  9
$DIMTSZ
 40
0.000000
  9
$DIMTOL
 70
     0
  9
$DIMLIM
 70
     0
  9
$DIMTIH
 70
     1
  9
$DIMTOH
 70
     1
  9
$DIMSE1
 70
     0
  9
$DIMSE2
 70
     0
  9
$DIMTAD
 70
     0
  9
$DIMZIN
 70
     0
  9
$DIMBLK
  1

  9
$DIMASO
 70
     0
  9
$DIMSHO
 70
     0
  9
$DIMPOST
  1

  9
$DIMAPOST
  1

  9
$DIMALT
 70
     0
  9
$DIMALTD
 70
     0
  9
$DIMALTF
 40
25.400000
  9
$DIMLFAC
 40
1.000000
  9
$DIMTOFL
 70
     0
  9
$DIMTVP
 40
0.000000
  9
$DIMTIX
 70
     0
  9
$DIMSOXD
 70
     0
  9
$DIMSAH
 70
     0
  9
$DIMBLKL
  1

  9
$DIMBLKR
  1

  9
$LUNITS
 70
     2
  9
$LUPREC
 70
     2
  9
$AXISMODE
 70
     0
  9
$AXISUNIT
 10
1.000000
 20
1.000000
  9
$SKETCHINC
 40
0.000000
  9
$FILLETRAD
 40
0.000000
  9
$AUNITS
 70
     1
  9
$AUPREC
 70
     2
  9
$MENU
  1
ACAD
  9
$ELEVATION
 40
0.000000
  9
$THICKNESS
 40
0.000000
  9
$VIEWDIR
 10
0.000000
 20
0.000000
 30
1.000000
  9
$LIMCHECK
 70
     1
  9
$BLIPMODE
 70
     1
  9
$CHAMFERA
 40
0.000000
  9
$CHAMFERB
 40
0.000000
  9
$FASTZOOM
 70
     1
  9
$SKPOLY
 70
     0
  9
$TDCREATE
 40
0.000000
  9
$TDUPDATE
 40
0.000000
  9
$TDINDWG
 40
0.000000
  9
$TDUSRTIMER
 40
0.000000
  9
$USRTIMER
 70
     1
  9
$ANGBASE
 50
0.000000
  9
$ANGDIR
 70
     0
  9
$PDMODE
 70
     0
  9
$PDSIZE
 40
0.000000
  9
$PLINEWID
 40
0.000000
  9
$COORDS
 70
     2
  9
$USERI1
 70
     0
  9
$USERI2
 70
     0
  9
$USERI3
 70
     0
  9
$USERI4
 70
     0
  9
$USERI5
 70
     0
  9
$USERR1
 40
0.000000
  9
$USERR2
 40
0.000000
  9
$USERR3
 40
0.000000
  9
$USERR4
 40
0.000000
  9
$USERR5
 40
0.000000
  0
ENDSEC
  0
SECTION
  2
TABLES
  0
TABLE
  2
LTYPE
 70
     5
  0
LTYPE
  2
CONTINUOUS
 70
    64
  3
Solid line
 72
    65
 73
     0
 40
0.0
  0
LTYPE
  2
HIDDEN
 70
    64
  3
------------------------
 72
    65
 73
     2
 40
12.6
 49
8.4
 49
-4.2
  0
LTYPE
  2
DOT
 70
    64
  3
････････････････････････
 72
    65
 73
     2
 40
8.0
 49
6.0
 49
-2.0
  0
LTYPE
  2
DASHDOT
 70
    64
  3
--･--･--･--･--･--･--･--
 72
    65
 73
     4
 40
50.5
 49
30.0
 49
-9.0
 49
2.5
 49
-9.0
  0
LTYPE
  2
DIVIDE
 70
    64
  3
--･･--･･--･･--･･--･･--
 72
    65
 73
     6
 40
58.0
 49
30.0
 49
-9.0
 49
2.5
 49
-5.0
 49
2.5
 49
-9.0
  0
ENDTAB
  0
TABLE
  2
LAYER
 70
1
  0
LAYER
  2
1
 70
64
 62
7
  6
CONTINUOUS
  0
ENDTAB
  0
TABLE
  2
STYLE
 70
     2
  0
STYLE
  2
STANDARD
 70
    64
 40
0.0
 41
1.0
 50
0.0
 71
     0
 42
0.2
  3
TXT
  4

  0
STYLE
  2
KANJI
 70
    64
 40
0.0
 41
1.0
 50
0.0
 71
     0
 42
0.2
  3
TXT
  4
BIGFONT
  0
ENDTAB
  0
TABLE
  2
VIEW
 70
     0
  0
ENDTAB
  0
ENDSEC
  0
SECTION
  2
BLOCKS
  0
BLOCK
  8
1
 62
7
  6
CONTINUOUS
  2
*D1
 70
    65
 10
0.0
 20
0.0
  0
LINE
  8
1
 62
7
  6
CONTINUOUS
 10
1478.332533
 20
1188.250729
 11
1708.332533
 21
1188.250729
  0
LINE
  8
1
 62
7
  6
CONTINUOUS
 10
1478.332533
 20
1198.250729
 11
1478.332533
 21
1124.886667
  0
LINE
  8
1
 62
7
  6
CONTINUOUS
 10
1708.332533
 20
1198.250729
 11
1708.332533
 21
1124.886667
  0
CIRCLE
  8
1
 62
7
  6
CONTINUOUS
 10
1478.332533
 20
1188.250729
 40
1.500000
  0
CIRCLE
  8
1
 62
7
  6
CONTINUOUS
 10
1478.332533
 20
1188.250729
 40
0.750000
  0
CIRCLE
  8
1
 62
7
  6
CONTINUOUS
 10
1708.332533
 20
1188.250729
 40
1.500000
  0
CIRCLE
  8
1
 62
7
  6
CONTINUOUS
 10
1708.332533
 20
1188.250729
 40
0.750000
  0
TEXT
  8
1
 62
7
  6
CONTINUOUS
 10
1578.332533
 20
1188.250729
 40
20.000000
 41
0.500000
  1
230
  7
KANJI
 50
0.000000
 51
30.000000
  0
ENDBLK
  0
BLOCK
  8
1
 62
7
  6
CONTINUOUS
  2
*D2
 70
    65
 10
0.0
 20
0.0
  0
LINE
  8
1
 62
7
  6
CONTINUOUS
 10
813.480219
 20
946.886667
 11
993.480220
 21
946.886667
  0
CIRCLE
  8
1
 62
7
  6
CONTINUOUS
 10
813.480219
 20
946.886667
 40
1.500000
  0
CIRCLE
  8
1
 62
7
  6
CONTINUOUS
 10
813.480219
 20
946.886667
 40
0.750000
  0
CIRCLE
  8
1
 62
7
  6
CONTINUOUS
 10
993.480220
 20
946.886667
 40
1.500000
  0
CIRCLE
  8
1
 62
7
  6
CONTINUOUS
 10
993.480220
 20
946.886667
 40
0.750000
  0
TEXT
  8
1
 62
7
  6
CONTINUOUS
 10
878.480219
 20
946.886667
 40
20.000000
 41
0.625000
  1
180φ
  7
KANJI
 50
0.000000
 51
30.000000
  0
ENDBLK
  0
BLOCK
  8
1
 62
7
  6
CONTINUOUS
  2
*D3
 70
    65
 10
0.0
 20
0.0
  0
LINE
  8
1
 62
7
  6
CONTINUOUS
 10
813.480218
 20
286.869406
 11
993.480218
 21
286.869406
  0
LINE
  8
1
 62
7
  6
CONTINUOUS
 10
813.480218
 20
296.869406
 11
813.480218
 21
283.160000
  0
LINE
  8
1
 62
7
  6
CONTINUOUS
 10
993.480218
 20
296.869406
 11
993.480218
 21
283.160000
  0
CIRCLE
  8
1
 62
7
  6
CONTINUOUS
 10
813.480218
 20
286.869406
 40
1.500000
  0
CIRCLE
  8
1
 62
7
  6
CONTINUOUS
 10
813.480218
 20
286.869406
 40
0.750000
  0
CIRCLE
  8
1
 62
7
  6
CONTINUOUS
 10
993.480218
 20
286.869406
 40
1.500000
  0
CIRCLE
  8
1
 62
7
  6
CONTINUOUS
 10
993.480218
 20
286.869406
 40
0.750000
  0
TEXT
  8
1
 62
7
  6
CONTINUOUS
 10
878.480218
 20
286.869406
 40
20.000000
 41
0.625000
  1
180φ
  7
KANJI
 50
0.000000
 51
30.000000
  0
ENDBLK
  0
BLOCK
  8
1
 62
7
  6
CONTINUOUS
  2
*D4
 70
    65
 10
0.0
 20
0.0
  0
LINE
  8
1
 62
7
  6
CONTINUOUS
 10
1337.923228
 20
483.160000
 11
1337.923228
 21
263.160000
  0
LINE
  8
1
 62
7
  6
CONTINUOUS
 10
1347.923228
 20
483.160000
 11
1303.480219
 21
483.160000
  0
LINE
  8
1
 62
7
  6
CONTINUOUS
 10
1347.923228
 20
263.160000
 11
1303.480219
 21
263.160000
  0
CIRCLE
  8
1
 62
7
  6
CONTINUOUS
 10
1337.923228
 20
483.160000
 40
1.500000
  0
CIRCLE
  8
1
 62
7
  6
CONTINUOUS
 10
1337.923228
 20
483.160000
 40
0.750000
  0
CIRCLE
  8
1
 62
7
  6
CONTINUOUS
 10
1337.923228
 20
263.160000
 40
1.500000
  0
CIRCLE
  8
1
 62
7
  6
CONTINUOUS
 10
1337.923228
 20
263.160000
 40
0.750000
  0
TEXT
  8
1
 62
7
  6
CONTINUOUS
 10
1337.923228
 20
358.160000
 40
20.000000
 41
0.500000
  1
210
  7
KANJI
 50
90.000000
 51
30.000000
  0
ENDBLK
  0
BLOCK
  8
1
 62
7
  6
CONTINUOUS
  2
*D5
 70
    65
 10
0.0
 20
0.0
  0
LINE
  8
1
 62
7
  6
CONTINUOUS
 10
1367.245085
 20
483.160000
 11
1367.245085
 21
248.160000
  0
LINE
  8
1
 62
7
  6
CONTINUOUS
 10
1377.245085
 20
483.160000
 11
1303.480219
 21
483.160000
  0
LINE
  8
1
 62
7
  6
CONTINUOUS
 10
1377.245085
 20
248.160000
 11
1303.480219
 21
248.160000
  0
CIRCLE
  8
1
 62
7
  6
CONTINUOUS
 10
1367.245085
 20
483.160000
 40
1.500000
  0
CIRCLE
  8
1
 62
7
  6
CONTINUOUS
 10
1367.245085
 20
483.160000
 40
0.750000
  0
CIRCLE
  8
1
 62
7
  6
CONTINUOUS
 10
1367.245085
 20
248.160000
 40
1.500000
  0
CIRCLE
  8
1
 62
7
  6
CONTINUOUS
 10
1367.245085
 20
248.160000
 40
0.750000
  0
TEXT
  8
1
 62
7
  6
CONTINUOUS
 10
1367.245085
 20
350.660000
 40
20.000000
 41
0.500000
  1
230
  7
KANJI
 50
90.000000
 51
30.000000
  0
ENDBLK
  0
BLOCK
  8
1
 62
7
  6
CONTINUOUS
  2
*D6
 70
    65
 10
0.0
 20
0.0
  0
LINE
  8
1
 62
7
  6
CONTINUOUS
 10
443.949653
 20
1141.886667
 11
443.949653
 21
1106.886667
  0
LINE
  8
1
 62
7
  6
CONTINUOUS
 10
433.949653
 20
1141.886667
 11
518.480218
 21
1141.886667
  0
LINE
  8
1
 62
7
  6
CONTINUOUS
 10
433.949653
 20
1106.886667
 11
518.480218
 21
1106.886667
  0
CIRCLE
  8
1
 62
7
  6
CONTINUOUS
 10
443.949653
 20
1141.886667
 40
1.500000
  0
CIRCLE
  8
1
 62
7
  6
CONTINUOUS
 10
443.949653
 20
1141.886667
 40
0.750000
  0
CIRCLE
  8
1
 62
7
  6
CONTINUOUS
 10
443.949653
 20
1106.886667
 40
1.500000
  0
CIRCLE
  8
1
 62
7
  6
CONTINUOUS
 10
443.949653
 20
1106.886667
 40
0.750000
  0
TEXT
  8
1
 62
7
  6
CONTINUOUS
 10
443.949653
 20
1114.386667
 40
20.000000
 41
0.500000
  1
35
  7
KANJI
 50
90.000000
 51
30.000000
  0
ENDBLK
  0
BLOCK
  8
1
 62
7
  6
CONTINUOUS
  2
*D7
 70
    65
 10
0.0
 20
0.0
  0
LINE
  8
1
 62
7
  6
CONTINUOUS
 10
443.949653
 20
1106.886667
 11
443.949653
 21
691.886667
  0
LINE
  8
1
 62
7
  6
CONTINUOUS
 10
433.949653
 20
691.886667
 11
518.480218
 21
691.886667
  0
CIRCLE
  8
1
 62
7
  6
CONTINUOUS
 10
443.949653
 20
691.886667
 40
1.500000
  0
CIRCLE
  8
1
 62
7
  6
CONTINUOUS
 10
443.949653
 20
691.886667
 40
0.750000
  0
TEXT
  8
1
 62
7
  6
CONTINUOUS
 10
443.949653
 20
884.386667
 40
20.000000
 41
0.500000
  1
415
  7
KANJI
 50
90.000000
 51
30.000000
  0
ENDBLK
  0
BLOCK
  8
1
 62
7
  6
CONTINUOUS
  2
*D8
 70
    65
 10
0.0
 20
0.0
  0
LINE
  8
1
 62
7
  6
CONTINUOUS
 10
443.949653
 20
691.886667
 11
443.949653
 21
656.886667
  0
LINE
  8
1
 62
7
  6
CONTINUOUS
 10
433.949653
 20
656.886667
 11
518.480218
 21
656.886667
  0
CIRCLE
  8
1
 62
7
  6
CONTINUOUS
 10
443.949653
 20
656.886667
 40
1.500000
  0
CIRCLE
  8
1
 62
7
  6
CONTINUOUS
 10
443.949653
 20
656.886667
 40
0.750000
  0
TEXT
  8
1
 62
7
  6
CONTINUOUS
 10
443.949653
 20
664.386667
 40
20.000000
 41
0.500000
  1
35
  7
KANJI
 50
90.000000
 51
30.000000
  0
ENDBLK
  0
BLOCK
  8
1
 62
7
  6
CONTINUOUS
  2
*D9
 70
    65
 10
0.0
 20
0.0
  0
LINE
  8
1
 62
7
  6
CONTINUOUS
 10
410.486111
 20
1141.886667
 11
410.486111
 21
656.886667
  0
LINE
  8
1
 62
7
  6
CONTINUOUS
 10
400.486111
 20
1141.886667
 11
518.480218
 21
1141.886667
  0
LINE
  8
1
 62
7
  6
CONTINUOUS
 10
400.486111
 20
656.886667
 11
518.480218
 21
656.886667
  0
CIRCLE
  8
1
 62
7
  6
CONTINUOUS
 10
410.486111
 20
1141.886667
 40
1.500000
  0
CIRCLE
  8
1
 62
7
  6
CONTINUOUS
 10
410.486111
 20
1141.886667
 40
0.750000
  0
CIRCLE
  8
1
 62
7
  6
CONTINUOUS
 10
410.486111
 20
656.886667
 40
1.500000
  0
CIRCLE
  8
1
 62
7
  6
CONTINUOUS
 10
410.486111
 20
656.886667
 40
0.750000
  0
TEXT
  8
1
 62
7
  6
CONTINUOUS
 10
410.486111
 20
884.386667
 40
20.000000
 41
0.500000
  1
485
  7
KANJI
 50
90.000000
 51
30.000000
  0
ENDBLK
  0
BLOCK
  8
1
 62
7
  6
CONTINUOUS
  2
*D10
 70
    65
 10
0.0
 20
0.0
  0
LINE
  8
1
 62
7
  6
CONTINUOUS
 10
528.480218
 20
1222.534722
 11
1278.480218
 21
1222.534722
  0
LINE
  8
1
 62
7
  6
CONTINUOUS
 10
528.480218
 20
1232.534722
 11
528.480218
 21
1151.886667
  0
LINE
  8
1
 62
7
  6
CONTINUOUS
 10
1278.480218
 20
1232.534722
 11
1278.480218
 21
1151.886667
  0
CIRCLE
  8
1
 62
7
  6
CONTINUOUS
 10
528.480218
 20
1222.534722
 40
1.500000
  0
CIRCLE
  8
1
 62
7
  6
CONTINUOUS
 10
528.480218
 20
1222.534722
 40
0.750000
  0
CIRCLE
  8
1
 62
7
  6
CONTINUOUS
 10
1278.480218
 20
1222.534722
 40
1.500000
  0
CIRCLE
  8
1
 62
7
  6
CONTINUOUS
 10
1278.480218
 20
1222.534722
 40
0.750000
  0
TEXT
  8
1
 62
7
  6
CONTINUOUS
 10
888.480218
 20
1222.534722
 40
20.000000
 41
0.500000
  1
750
  7
KANJI
 50
0.000000
 51
30.000000
  0
ENDBLK
  0
BLOCK
  8
1
 62
7
  6
CONTINUOUS
  2
*D11
 70
    65
 10
0.0
 20
0.0
  0
LINE
  8
1
 62
7
  6
CONTINUOUS
 10
528.480218
 20
1193.532986
 11
563.480218
 21
1193.532986
  0
LINE
  8
1
 62
7
  6
CONTINUOUS
 10
528.480218
 20
1203.532986
 11
528.480218
 21
1151.886667
  0
LINE
  8
1
 62
7
  6
CONTINUOUS
 10
563.480218
 20
1203.532986
 11
563.480218
 21
1151.886667
  0
CIRCLE
  8
1
 62
7
  6
CONTINUOUS
 10
528.480218
 20
1193.532986
 40
1.500000
  0
CIRCLE
  8
1
 62
7
  6
CONTINUOUS
 10
528.480218
 20
1193.532986
 40
0.750000
  0
CIRCLE
  8
1
 62
7
  6
CONTINUOUS
 10
563.480218
 20
1193.532986
 40
1.500000
  0
CIRCLE
  8
1
 62
7
  6
CONTINUOUS
 10
563.480218
 20
1193.532986
 40
0.750000
  0
TEXT
  8
1
 62
7
  6
CONTINUOUS
 10
535.980218
 20
1193.532986
 40
20.000000
 41
0.500000
  1
35
  7
KANJI
 50
0.000000
 51
30.000000
  0
ENDBLK
  0
BLOCK
  8
1
 62
7
  6
CONTINUOUS
  2
*D12
 70
    65
 10
0.0
 20
0.0
  0
LINE
  8
1
 62
7
  6
CONTINUOUS
 10
563.480218
 20
1193.532986
 11
1243.480218
 21
1193.532986
  0
LINE
  8
1
 62
7
  6
CONTINUOUS
 10
1243.480218
 20
1203.532986
 11
1243.480218
 21
1151.886667
  0
CIRCLE
  8
1
 62
7
  6
CONTINUOUS
 10
1243.480218
 20
1193.532986
 40
1.500000
  0
CIRCLE
  8
1
 62
7
  6
CONTINUOUS
 10
1243.480218
 20
1193.532986
 40
0.750000
  0
TEXT
  8
1
 62
7
  6
CONTINUOUS
 10
888.480218
 20
1193.532986
 40
20.000000
 41
0.500000
  1
680
  7
KANJI
 50
0.000000
 51
30.000000
  0
ENDBLK
  0
BLOCK
  8
1
 62
7
  6
CONTINUOUS
  2
*D13
 70
    65
 10
0.0
 20
0.0
  0
LINE
  8
1
 62
7
  6
CONTINUOUS
 10
1243.480218
 20
1193.532986
 11
1278.480218
 21
1193.532986
  0
LINE
  8
1
 62
7
  6
CONTINUOUS
 10
1278.480218
 20
1203.532986
 11
1278.480218
 21
1151.886667
  0
CIRCLE
  8
1
 62
7
  6
CONTINUOUS
 10
1278.480218
 20
1193.532986
 40
1.500000
  0
CIRCLE
  8
1
 62
7
  6
CONTINUOUS
 10
1278.480218
 20
1193.532986
 40
0.750000
  0
TEXT
  8
1
 62
7
  6
CONTINUOUS
 10
1250.980218
 20
1193.532986
 40
20.000000
 41
0.500000
  1
35
  7
KANJI
 50
0.000000
 51
30.000000
  0
ENDBLK
  0
BLOCK
  8
1
 62
7
  6
CONTINUOUS
  2
*D14
 70
    65
 10
0.0
 20
0.0
  0
LINE
  8
1
 62
7
  6
CONTINUOUS
 10
1068.602431
 20
1106.886667
 11
1068.602431
 21
946.886667
  0
LINE
  8
1
 62
7
  6
CONTINUOUS
 10
1078.602431
 20
1106.886667
 11
913.480219
 21
1106.886667
  0
LINE
  8
1
 62
7
  6
CONTINUOUS
 10
1078.602431
 20
946.886667
 11
913.480219
 21
946.886667
  0
CIRCLE
  8
1
 62
7
  6
CONTINUOUS
 10
1068.602431
 20
1106.886667
 40
1.500000
  0
CIRCLE
  8
1
 62
7
  6
CONTINUOUS
 10
1068.602431
 20
1106.886667
 40
0.750000
  0
CIRCLE
  8
1
 62
7
  6
CONTINUOUS
 10
1068.602431
 20
946.886667
 40
1.500000
  0
CIRCLE
  8
1
 62
7
  6
CONTINUOUS
 10
1068.602431
 20
946.886667
 40
0.750000
  0
TEXT
  8
1
 62
7
  6
CONTINUOUS
 10
1068.602431
 20
1011.886667
 40
20.000000
 41
0.500000
  1
160
  7
KANJI
 50
90.000000
 51
30.000000
  0
ENDBLK
  0
BLOCK
  8
1
 62
7
  6
CONTINUOUS
  2
*D15
 70
    65
 10
0.0
 20
0.0
  0
LINE
  8
1
 62
7
  6
CONTINUOUS
 10
1412.161458
 20
1141.886667
 11
1412.161458
 21
656.886667
  0
LINE
  8
1
 62
7
  6
CONTINUOUS
 10
1402.161458
 20
1141.886667
 11
1468.332533
 21
1141.886667
  0
LINE
  8
1
 62
7
  6
CONTINUOUS
 10
1402.161458
 20
656.886667
 11
1468.332533
 21
656.886667
  0
CIRCLE
  8
1
 62
7
  6
CONTINUOUS
 10
1412.161458
 20
1141.886667
 40
1.500000
  0
CIRCLE
  8
1
 62
7
  6
CONTINUOUS
 10
1412.161458
 20
1141.886667
 40
0.750000
  0
CIRCLE
  8
1
 62
7
  6
CONTINUOUS
 10
1412.161458
 20
656.886667
 40
1.500000
  0
CIRCLE
  8
1
 62
7
  6
CONTINUOUS
 10
1412.161458
 20
656.886667
 40
0.750000
  0
TEXT
  8
1
 62
7
  6
CONTINUOUS
 10
1412.161458
 20
884.386667
 40
20.000000
 41
0.500000
  1
485
  7
KANJI
 50
90.000000
 51
30.000000
  0
ENDBLK
  0
BLOCK
  8
1
 62
7
  6
CONTINUOUS
  2
*D16
 70
    65
 10
0.0
 20
0.0
  0
LINE
  8
1
 62
7
  6
CONTINUOUS
 10
1473.332533
 20
1163.579731
 11
1495.332533
 21
1163.579731
  0
LINE
  8
1
 62
7
  6
CONTINUOUS
 10
1478.332533
 20
1173.579731
 11
1478.332533
 21
1151.886667
  0
LINE
  8
1
 62
7
  6
CONTINUOUS
 10
1490.332533
 20
1173.579731
 11
1490.332533
 21
1151.886667
  0
CIRCLE
  8
1
 62
7
  6
CONTINUOUS
 10
1478.332533
 20
1163.579731
 40
1.500000
  0
CIRCLE
  8
1
 62
7
  6
CONTINUOUS
 10
1478.332533
 20
1163.579731
 40
0.750000
  0
CIRCLE
  8
1
 62
7
  6
CONTINUOUS
 10
1490.332533
 20
1163.579731
 40
1.500000
  0
CIRCLE
  8
1
 62
7
  6
CONTINUOUS
 10
1490.332533
 20
1163.579731
 40
0.750000
  0
TEXT
  8
1
 62
7
  6
CONTINUOUS
 10
1474.332533
 20
1163.579731
 40
20.000000
 41
0.500000
  1
12
  7
KANJI
 50
0.000000
 51
30.000000
  0
ENDBLK
  0
BLOCK
  8
1
 62
7
  6
CONTINUOUS
  2
*D17
 70
    65
 10
0.0
 20
0.0
  0
LINE
  8
1
 62
7
  6
CONTINUOUS
 10
441.718750
 20
466.160000
 11
441.718750
 21
488.160000
  0
LINE
  8
1
 62
7
  6
CONTINUOUS
 10
431.718750
 20
471.160000
 11
518.480218
 21
471.160000
  0
LINE
  8
1
 62
7
  6
CONTINUOUS
 10
431.718750
 20
483.160000
 11
518.480218
 21
483.160000
  0
CIRCLE
  8
1
 62
7
  6
CONTINUOUS
 10
441.718750
 20
471.160000
 40
1.500000
  0
CIRCLE
  8
1
 62
7
  6
CONTINUOUS
 10
441.718750
 20
471.160000
 40
0.750000
  0
CIRCLE
  8
1
 62
7
  6
CONTINUOUS
 10
441.718750
 20
483.160000
 40
1.500000
  0
CIRCLE
  8
1
 62
7
  6
CONTINUOUS
 10
441.718750
 20
483.160000
 40
0.750000
  0
TEXT
  8
1
 62
7
  6
CONTINUOUS
 10
441.718750
 20
467.160000
 40
20.000000
 41
0.500000
  1
12
  7
KANJI
 50
90.000000
 51
30.000000
  0
ENDBLK
  0
BLOCK
  8
1
 62
7
  6
CONTINUOUS
  2
*D18
 70
    65
 10
0.0
 20
0.0
  0
LINE
  8
1
 62
7
  6
CONTINUOUS
 10
528.480218
 20
582.156761
 11
1278.480218
 21
582.156761
  0
LINE
  8
1
 62
7
  6
CONTINUOUS
 10
528.480218
 20
592.156761
 11
528.480218
 21
493.160000
  0
LINE
  8
1
 62
7
  6
CONTINUOUS
 10
1278.480218
 20
592.156761
 11
1278.480218
 21
493.160000
  0
CIRCLE
  8
1
 62
7
  6
CONTINUOUS
 10
528.480218
 20
582.156761
 40
1.500000
  0
CIRCLE
  8
1
 62
7
  6
CONTINUOUS
 10
528.480218
 20
582.156761
 40
0.750000
  0
CIRCLE
  8
1
 62
7
  6
CONTINUOUS
 10
1278.480218
 20
582.156761
 40
1.500000
  0
CIRCLE
  8
1
 62
7
  6
CONTINUOUS
 10
1278.480218
 20
582.156761
 40
0.750000
  0
TEXT
  8
1
 62
7
  6
CONTINUOUS
 10
888.480218
 20
582.156761
 40
20.000000
 41
0.500000
  1
750
  7
KANJI
 50
0.000000
 51
30.000000
  0
ENDBLK
  0
BLOCK
  8
1
 62
7
  6
CONTINUOUS
  2
*D19
 70
    65
 10
0.0
 20
0.0
  0
LINE
  8
1
 62
7
  6
CONTINUOUS
 10
528.480218
 20
561.020866
 11
563.480218
 21
561.020866
  0
LINE
  8
1
 62
7
  6
CONTINUOUS
 10
528.480218
 20
571.020866
 11
528.480218
 21
493.160000
  0
LINE
  8
1
 62
7
  6
CONTINUOUS
 10
563.480218
 20
571.020866
 11
563.480218
 21
493.160000
  0
CIRCLE
  8
1
 62
7
  6
CONTINUOUS
 10
528.480218
 20
561.020866
 40
1.500000
  0
CIRCLE
  8
1
 62
7
  6
CONTINUOUS
 10
528.480218
 20
561.020866
 40
0.750000
  0
CIRCLE
  8
1
 62
7
  6
CONTINUOUS
 10
563.480218
 20
561.020866
 40
1.500000
  0
CIRCLE
  8
1
 62
7
  6
CONTINUOUS
 10
563.480218
 20
561.020866
 40
0.750000
  0
TEXT
  8
1
 62
7
  6
CONTINUOUS
 10
535.980218
 20
561.020866
 40
20.000000
 41
0.500000
  1
35
  7
KANJI
 50
0.000000
 51
30.000000
  0
ENDBLK
  0
BLOCK
  8
1
 62
7
  6
CONTINUOUS
  2
*D20
 70
    65
 10
0.0
 20
0.0
  0
LINE
  8
1
 62
7
  6
CONTINUOUS
 10
563.480218
 20
561.020866
 11
1243.480218
 21
561.020866
  0
LINE
  8
1
 62
7
  6
CONTINUOUS
 10
1243.480218
 20
571.020866
 11
1243.480218
 21
493.160000
  0
CIRCLE
  8
1
 62
7
  6
CONTINUOUS
 10
1243.480218
 20
561.020866
 40
1.500000
  0
CIRCLE
  8
1
 62
7
  6
CONTINUOUS
 10
1243.480218
 20
561.020866
 40
0.750000
  0
TEXT
  8
1
 62
7
  6
CONTINUOUS
 10
888.480218
 20
561.020866
 40
20.000000
 41
0.500000
  1
680
  7
KANJI
 50
0.000000
 51
30.000000
  0
ENDBLK
  0
BLOCK
  8
1
 62
7
  6
CONTINUOUS
  2
*D21
 70
    65
 10
0.0
 20
0.0
  0
LINE
  8
1
 62
7
  6
CONTINUOUS
 10
1243.480218
 20
561.020866
 11
1278.480218
 21
561.020866
  0
LINE
  8
1
 62
7
  6
CONTINUOUS
 10
1278.480218
 20
571.020866
 11
1278.480218
 21
493.160000
  0
CIRCLE
  8
1
 62
7
  6
CONTINUOUS
 10
1278.480218
 20
561.020866
 40
1.500000
  0
CIRCLE
  8
1
 62
7
  6
CONTINUOUS
 10
1278.480218
 20
561.020866
 40
0.750000
  0
TEXT
  8
1
 62
7
  6
CONTINUOUS
 10
1250.980218
 20
561.020866
 40
20.000000
 41
0.500000
  1
35
  7
KANJI
 50
0.000000
 51
30.000000
  0
ENDBLK
  0
ENDSEC
  0
SECTION
  2
ENTITIES
  0
TEXT
  8
1
 62
7
  6
CONTINUOUS
 10
39.900000
 20
144.259375
 40
24.750000
 41
0.800000
  1
取引先：
  7
KANJI
 50
0.000000
 51
0.000000
  0
TEXT
  8
1
 62
7
  6
CONTINUOUS
 10
119.100000
 20
156.634375
 40
12.375000
 41
0.400000
  1

  7
KANJI
 50
0.000000
 51
0.000000
  0
TEXT
  8
1
 62
7
  6
CONTINUOUS
 10
119.100000
 20
144.259375
 40
12.375000
 41
0.400000
  1

  7
KANJI
 50
0.000000
 51
0.000000
  0
TEXT
  8
1
 62
7
  6
CONTINUOUS
 10
39.900000
 20
94.759375
 40
24.750000
 41
0.800000
  1
物件名：
  7
KANJI
 50
0.000000
 51
0.000000
  0
TEXT
  8
1
 62
7
  6
CONTINUOUS
 10
119.100000
 20
107.134375
 40
12.375000
 41
0.400000
  1

  7
KANJI
 50
0.000000
 51
0.000000
  0
TEXT
  8
1
 62
7
  6
CONTINUOUS
 10
119.100000
 20
94.759375
 40
12.375000
 41
0.400000
  1

  7
KANJI
 50
0.000000
 51
0.000000
  0
TEXT
  8
1
 62
7
  6
CONTINUOUS
 10
39.900000
 20
45.259375
 40
24.750000
 41
0.700000
  1
納 期：
  7
KANJI
 50
0.000000
 51
0.000000
  0
TEXT
  8
1
 62
7
  6
CONTINUOUS
 10
109.200000
 20
57.634375
 40
12.375000
 41
0.400000
  1

  7
KANJI
 50
0.000000
 51
0.000000
  0
TEXT
  8
1
 62
7
  6
CONTINUOUS
 10
109.200000
 20
45.259375
 40
12.375000
 41
0.400000
  1

  7
KANJI
 50
0.000000
 51
0.000000
  0
LINE
  8
1
 62
7
  6
CONTINUOUS
 10
30.000000
 20
188.500000
 11
30.000000
 21
40.000000
  0
LINE
  8
1
 62
7
  6
CONTINUOUS
 10
30.000000
 20
188.500000
 11
327.000000
 21
188.500000
  0
LINE
  8
1
 62
7
  6
CONTINUOUS
 10
327.000000
 20
188.500000
 11
327.000000
 21
139.000000
  0
LINE
  8
1
 62
7
  6
CONTINUOUS
 10
327.000000
 20
139.000000
 11
30.000000
 21
139.000000
  0
LINE
  8
1
 62
7
  6
CONTINUOUS
 10
30.000000
 20
139.000000
 11
30.000000
 21
89.500000
  0
LINE
  8
1
 62
7
  6
CONTINUOUS
 10
30.000000
 20
89.500000
 11
327.000000
 21
89.500000
  0
LINE
  8
1
 62
7
  6
CONTINUOUS
 10
327.000000
 20
89.500000
 11
327.000000
 21
139.000000
  0
LINE
  8
1
 62
7
  6
CONTINUOUS
 10
327.000000
 20
139.000000
 11
327.000000
 21
40.000000
  0
LINE
  8
1
 62
7
  6
CONTINUOUS
 10
327.000000
 20
40.000000
 11
30.000000
 21
40.000000
  0
TEXT
  8
1
 62
7
  6
CONTINUOUS
 10
341.850000
 20
144.259375
 40
24.750000
 41
0.800000
  1
　色柄：
  7
KANJI
 50
0.000000
 51
0.000000
  0
TEXT
  8
1
 62
7
  6
CONTINUOUS
 10
421.050000
 20
156.634375
 40
12.375000
 41
0.400000
  1

  7
KANJI
 50
0.000000
 51
0.000000
  0
TEXT
  8
1
 62
7
  6
CONTINUOUS
 10
421.050000
 20
144.259375
 40
12.375000
 41
0.400000
  1

  7
KANJI
 50
0.000000
 51
0.000000
  0
TEXT
  8
1
 62
7
  6
CONTINUOUS
 10
341.850000
 20
94.759375
 40
24.750000
 41
0.800000
  1
　厚み：
  7
KANJI
 50
0.000000
 51
0.000000
  0
TEXT
  8
1
 62
7
  6
CONTINUOUS
 10
421.050000
 20
107.134375
 40
12.375000
 41
0.400000
  1

  7
KANJI
 50
0.000000
 51
0.000000
  0
TEXT
  8
1
 62
7
  6
CONTINUOUS
 10
421.050000
 20
94.759375
 40
12.375000
 41
0.400000
  1

  7
KANJI
 50
0.000000
 51
0.000000
  0
TEXT
  8
1
 62
7
  6
CONTINUOUS
 10
341.850000
 20
45.259375
 40
24.750000
 41
0.800000
  1
付属品：
  7
KANJI
 50
0.000000
 51
0.000000
  0
TEXT
  8
1
 62
7
  6
CONTINUOUS
 10
421.050000
 20
57.634375
 40
12.375000
 41
0.400000
  1

  7
KANJI
 50
0.000000
 51
0.000000
  0
TEXT
  8
1
 62
7
  6
CONTINUOUS
 10
421.050000
 20
45.259375
 40
12.375000
 41
0.400000
  1

  7
KANJI
 50
0.000000
 51
0.000000
  0
LINE
  8
1
 62
7
  6
CONTINUOUS
 10
429.073950
 20
40.000000
 11
429.073950
 21
188.500000
  0
TEXT
  8
1
 62
7
  6
CONTINUOUS
 10
438.973950
 20
164.987500
 40
19.800000
 41
1.000000
  1
単色シリーズ
  7
KANJI
 50
0.000000
 51
0.000000
  0
TEXT
  8
1
 62
7
  6
CONTINUOUS
 10
557.773950
 20
174.887500
 40
9.900000
 41
0.500000
  1

  7
KANJI
 50
0.000000
 51
0.000000
  0
TEXT
  8
1
 62
7
  6
CONTINUOUS
 10
557.773950
 20
164.987500
 40
9.900000
 41
0.500000
  1

  7
KANJI
 50
0.000000
 51
0.000000
  0
LINE
  8
1
 62
7
  6
CONTINUOUS
 10
1615.489950
 20
40.000000
 11
1615.489950
 21
188.500000
  0
TEXT
  8
1
 62
7
  6
CONTINUOUS
 10
1235.923950
 20
94.759375
 40
24.750000
 41
0.800000
  1
埼玉県比企郡川島町表２１－５
  7
KANJI
 50
0.000000
 51
0.000000
  0
TEXT
  8
1
 62
7
  6
CONTINUOUS
 10
1513.123950
 20
107.134375
 40
12.375000
 41
0.400000
  1

  7
KANJI
 50
0.000000
 51
0.000000
  0
TEXT
  8
1
 62
7
  6
CONTINUOUS
 10
1513.123950
 20
94.759375
 40
12.375000
 41
0.400000
  1

  7
KANJI
 50
0.000000
 51
0.000000
  0
TEXT
  8
1
 62
7
  6
CONTINUOUS
 10
1235.923950
 20
70.009375
 40
24.750000
 41
0.647059
  1
  TEL ０４９２－９７－７２７１
  7
KANJI
 50
0.000000
 51
0.000000
  0
TEXT
  8
1
 62
7
  6
CONTINUOUS
 10
1495.798950
 20
82.384375
 40
12.375000
 41
0.388235
  1

  7
KANJI
 50
0.000000
 51
0.000000
  0
TEXT
  8
1
 62
7
  6
CONTINUOUS
 10
1495.798950
 20
70.009375
 40
12.375000
 41
0.388235
  1

  7
KANJI
 50
0.000000
 51
0.000000
  0
TEXT
  8
1
 62
7
  6
CONTINUOUS
 10
1235.923950
 20
45.259375
 40
24.750000
 41
0.647059
  1
  FAX ０４９２－９７－７２７３
  7
KANJI
 50
0.000000
 51
0.000000
  0
TEXT
  8
1
 62
7
  6
CONTINUOUS
 10
1495.798950
 20
57.634375
 40
12.375000
 41
0.388235
  1

  7
KANJI
 50
0.000000
 51
0.000000
  0
TEXT
  8
1
 62
7
  6
CONTINUOUS
 10
1495.798950
 20
45.259375
 40
12.375000
 41
0.388235
  1

  7
KANJI
 50
0.000000
 51
0.000000
  0
TEXT
  8
1
 62
7
  6
CONTINUOUS
 10
1235.923950
 20
117.653125
 40
34.650000
 41
1.285714
  1
㈱三井ＰＣＯ
  7
KANJI
 50
0.000000
 51
0.000000
  0
TEXT
  8
1
 62
7
  6
CONTINUOUS
 10
1468.573950
 20
134.978125
 40
17.325000
 41
0.642857
  1

  7
KANJI
 50
0.000000
 51
0.000000
  0
TEXT
  8
1
 62
7
  6
CONTINUOUS
 10
1468.573950
 20
117.653125
 40
17.325000
 41
0.642857
  1

  7
KANJI
 50
0.000000
 51
0.000000
  0
LINE
  8
1
 62
7
  6
CONTINUOUS
 10
429.073950
 20
188.500000
 11
578.420400
 21
188.500000
  0
LINE
  8
1
 62
7
  6
CONTINUOUS
 10
578.420400
 20
188.500000
 11
722.960400
 21
188.500000
  0
LINE
  8
1
 62
7
  6
CONTINUOUS
 10
722.960400
 20
188.500000
 11
872.851350
 21
188.500000
  0
LINE
  8
1
 62
7
  6
CONTINUOUS
 10
872.851350
 20
40.000000
 11
429.073950
 21
40.000000
  0
LINE
  8
1
 62
7
  6
CONTINUOUS
 10
429.073950
 20
139.000000
 11
872.851350
 21
139.000000
  0
LINE
  8
1
 62
7
  6
CONTINUOUS
 10
872.851350
 20
89.500000
 11
429.073950
 21
89.500000
  0
LINE
  8
1
 62
7
  6
CONTINUOUS
 10
578.420400
 20
188.500000
 11
578.420400
 21
89.500000
  0
LINE
  8
1
 62
7
  6
CONTINUOUS
 10
906.348000
 20
139.000000
 11
872.851350
 21
139.000000
  0
LINE
  8
1
 62
7
  6
CONTINUOUS
 10
872.851350
 20
139.000000
 11
906.348000
 21
139.000000
  0
LINE
  8
1
 62
7
  6
CONTINUOUS
 10
906.348000
 20
89.500000
 11
872.851350
 21
89.500000
  0
LINE
  8
1
 62
7
  6
CONTINUOUS
 10
872.851350
 20
89.500000
 11
906.348000
 21
89.500000
  0
LINE
  8
1
 62
7
  6
CONTINUOUS
 10
578.420400
 20
89.500000
 11
578.420400
 21
40.000000
  0
LINE
  8
1
 62
7
  6
CONTINUOUS
 10
872.851350
 20
188.500000
 11
906.348000
 21
188.500000
  0
LINE
  8
1
 62
7
  6
CONTINUOUS
 10
906.348000
 20
40.000000
 11
872.851350
 21
40.000000
  0
LINE
  8
1
 62
7
  6
CONTINUOUS
 10
1129.098000
 20
188.500000
 11
1129.098000
 21
40.000000
  0
LINE
  8
1
 62
7
  6
CONTINUOUS
 10
1129.098000
 20
40.000000
 11
1615.489950
 21
40.000000
  0
LINE
  8
1
 62
7
  6
CONTINUOUS
 10
1615.489950
 20
188.500000
 11
1129.098000
 21
188.500000
  0
LINE
  8
1
 62
7
  6
CONTINUOUS
 10
906.348000
 20
188.500000
 11
1121.673000
 21
188.500000
  0
LINE
  8
1
 62
7
  6
CONTINUOUS
 10
1121.673000
 20
188.500000
 11
1121.673000
 21
40.000000
  0
LINE
  8
1
 62
7
  6
CONTINUOUS
 10
1121.673000
 20
40.000000
 11
906.348000
 21
40.000000
  0
LINE
  8
1
 62
7
  6
CONTINUOUS
 10
906.348000
 20
139.000000
 11
1121.673000
 21
139.000000
  0
LINE
  8
1
 62
7
  6
CONTINUOUS
 10
1121.673000
 20
89.500000
 11
906.348000
 21
89.500000
  0
TEXT
  8
1
 62
7
  6
CONTINUOUS
 10
931.360845
 20
164.987500
 40
19.800000
 41
1.000000
  1
モンタナシリーズ
  7
KANJI
 50
0.000000
 51
0.000000
  0
TEXT
  8
1
 62
7
  6
CONTINUOUS
 10
1089.760845
 20
174.887500
 40
9.900000
 41
0.500000
  1

  7
KANJI
 50
0.000000
 51
0.000000
  0
TEXT
  8
1
 62
7
  6
CONTINUOUS
 10
1089.760845
 20
164.987500
 40
9.900000
 41
0.500000
  1

  7
KANJI
 50
0.000000
 51
0.000000
  0
TEXT
  8
1
 62
7
  6
CONTINUOUS
 10
755.473485
 20
164.987500
 40
19.800000
 41
1.000000
  1
シエラシリーズ
  7
KANJI
 50
0.000000
 51
0.000000
  0
TEXT
  8
1
 62
7
  6
CONTINUOUS
 10
894.073485
 20
174.887500
 40
9.900000
 41
0.500000
  1

  7
KANJI
 50
0.000000
 51
0.000000
  0
TEXT
  8
1
 62
7
  6
CONTINUOUS
 10
894.073485
 20
164.987500
 40
9.900000
 41
0.500000
  1

  7
KANJI
 50
0.000000
 51
0.000000
  0
LINE
  8
1
 62
7
  6
CONTINUOUS
 10
919.192260
 20
188.500000
 11
919.192260
 21
40.000000
  0
TEXT
  8
1
 62
7
  6
CONTINUOUS
 10
588.320400
 20
161.275000
 40
19.800000
 41
1.000000
  1
ベナーロシリーズ
  7
KANJI
 50
0.000000
 51
0.000000
  0
TEXT
  8
1
 62
7
  6
CONTINUOUS
 10
746.720400
 20
171.175000
 40
9.900000
 41
0.500000
  1

  7
KANJI
 50
0.000000
 51
0.000000
  0
TEXT
  8
1
 62
7
  6
CONTINUOUS
 10
746.720400
 20
161.275000
 40
9.900000
 41
0.500000
  1

  7
KANJI
 50
0.000000
 51
0.000000
  0
LINE
  8
1
 62
7
  6
CONTINUOUS
 10
749.190450
 20
188.500000
 11
749.190450
 21
40.000000
  0
TEXT
  8
1
 62
7
  6
CONTINUOUS
 10
429.073950
 20
48.380350
 40
24.750000
 41
0.800000
  1
シーム剤  本
  7
KANJI
 50
0.000000
 51
0.000000
  0
TEXT
  8
1
 62
7
  6
CONTINUOUS
 10
557.773950
 20
60.755350
 40
12.375000
 41
0.466667
  1

  7
KANJI
 50
0.000000
 51
0.000000
  0
TEXT
  8
1
 62
7
  6
CONTINUOUS
 10
557.773950
 20
48.380350
 40
12.375000
 41
0.466667
  1

  7
KANJI
 50
0.000000
 51
0.000000
  0
TEXT
  8
1
 62
7
  6
CONTINUOUS
 10
924.142260
 20
52.589335
 40
24.750000
 41
1.000000
  1
梱包個数　　梱
  7
KANJI
 50
0.000000
 51
0.000000
  0
TEXT
  8
1
 62
7
  6
CONTINUOUS
 10
1097.392260
 20
64.964335
 40
12.375000
 41
0.500000
  1

  7
KANJI
 50
0.000000
 51
0.000000
  0
TEXT
  8
1
 62
7
  6
CONTINUOUS
 10
1097.392260
 20
52.589335
 40
12.375000
 41
0.500000
  1

  7
KANJI
 50
0.000000
 51
0.000000
  0
TEXT
  8
1
 62
7
  6
CONTINUOUS
 10
735.879900
 20
52.271050
 40
24.750000
 41
0.746667
  1
 断熱テープ   本
  7
KANJI
 50
0.000000
 51
0.000000
  0
TEXT
  8
1
 62
7
  6
CONTINUOUS
 10
900.467400
 20
64.646050
 40
12.375000
 41
0.466667
  1

  7
KANJI
 50
0.000000
 51
0.000000
  0
TEXT
  8
1
 62
7
  6
CONTINUOUS
 10
900.467400
 20
52.271050
 40
12.375000
 41
0.466667
  1

  7
KANJI
 50
0.000000
 51
0.000000
  0
TEXT
  8
1
 62
7
  6
CONTINUOUS
 10
583.370400
 20
47.910595
 40
24.750000
 41
0.656250
  1
瞬間接着剤 　本
  7
KANJI
 50
0.000000
 51
0.000000
  0
TEXT
  8
1
 62
7
  6
CONTINUOUS
 10
713.307900
 20
60.285595
 40
12.375000
 41
0.350000
  1

  7
KANJI
 50
0.000000
 51
0.000000
  0
TEXT
  8
1
 62
7
  6
CONTINUOUS
 10
713.307900
 20
47.910595
 40
12.375000
 41
0.350000
  1

  7
KANJI
 50
0.000000
 51
0.000000
  0
TEXT
  8
1
 62
7
  6
CONTINUOUS
 10
438.973950
 20
97.234375
 40
24.750000
 41
1.041667
  1
   ㎜
  7
KANJI
 50
0.000000
 51
0.000000
  0
TEXT
  8
1
 62
7
  6
CONTINUOUS
 10
525.598950
 20
109.609375
 40
12.375000
 41
0.833333
  1

  7
KANJI
 50
0.000000
 51
0.000000
  0
TEXT
  8
1
 62
7
  6
CONTINUOUS
 10
525.598950
 20
97.234375
 40
12.375000
 41
0.833333
  1

  7
KANJI
 50
0.000000
 51
0.000000
  0
TEXT
  8
1
 62
7
  6
CONTINUOUS
 10
588.320400
 20
97.234375
 40
24.750000
 41
1.041667
  1
   ㎜
  7
KANJI
 50
0.000000
 51
0.000000
  0
TEXT
  8
1
 62
7
  6
CONTINUOUS
 10
674.945400
 20
109.609375
 40
12.375000
 41
0.833333
  1

  7
KANJI
 50
0.000000
 51
0.000000
  0
TEXT
  8
1
 62
7
  6
CONTINUOUS
 10
674.945400
 20
97.234375
 40
12.375000
 41
0.833333
  1

  7
KANJI
 50
0.000000
 51
0.000000
  0
TEXT
  8
1
 62
7
  6
CONTINUOUS
 10
755.473485
 20
97.234375
 40
24.750000
 41
1.041667
  1
   ㎜
  7
KANJI
 50
0.000000
 51
0.000000
  0
TEXT
  8
1
 62
7
  6
CONTINUOUS
 10
842.098485
 20
109.609375
 40
12.375000
 41
0.833333
  1

  7
KANJI
 50
0.000000
 51
0.000000
  0
TEXT
  8
1
 62
7
  6
CONTINUOUS
 10
842.098485
 20
97.234375
 40
12.375000
 41
0.833333
  1

  7
KANJI
 50
0.000000
 51
0.000000
  0
TEXT
  8
1
 62
7
  6
CONTINUOUS
 10
924.142260
 20
97.234375
 40
24.750000
 41
1.050000
  1
    ㎜
  7
KANJI
 50
0.000000
 51
0.000000
  0
TEXT
  8
1
 62
7
  6
CONTINUOUS
 10
1035.517260
 20
109.609375
 40
12.375000
 41
0.875000
  1

  7
KANJI
 50
0.000000
 51
0.000000
  0
TEXT
  8
1
 62
7
  6
CONTINUOUS
 10
1035.517260
 20
97.234375
 40
12.375000
 41
0.875000
  1

  7
KANJI
 50
0.000000
 51
0.000000
  0
TEXT
  8
1
 62
7
  6
CONTINUOUS
 10
1138.998000
 20
159.109375
 40
24.750000
 41
0.800000
  1
デュポンコーリアン認定加工／施工工場　　Ｍｐｃｏ　
  7
KANJI
 50
0.000000
 51
0.000000
  0
TEXT
  8
1
 62
7
  6
CONTINUOUS
 10
1633.998000
 20
171.484375
 40
12.375000
 41
0.400000
  1

  7
KANJI
 50
0.000000
 51
0.000000
  0
TEXT
  8
1
 62
7
  6
CONTINUOUS
 10
1633.998000
 20
159.109375
 40
12.375000
 41
0.400000
  1

  7
KANJI
 50
0.000000
 51
0.000000
  0
LINE
  8
1
 62
7
  6
CONTINUOUS
 10
1622.914950
 20
40.000000
 11
1734.473100
 21
40.000000
  0
TEXT
  8
1
 62
7
  6
CONTINUOUS
 10
1627.864950
 20
95.378125
 40
34.650000
 41
0.714286
  1
図面番号
  7
KANJI
 50
0.000000
 51
0.000000
  0
TEXT
  8
1
 62
7
  6
CONTINUOUS
 10
1726.864950
 20
112.703125
 40
17.325000
 41
0.357143
  1

  7
KANJI
 50
0.000000
 51
0.000000
  0
TEXT
  8
1
 62
7
  6
CONTINUOUS
 10
1726.864950
 20
95.378125
 40
17.325000
 41
0.357143
  1

  7
KANJI
 50
0.000000
 51
0.000000
  0
LINE
  8
1
 62
7
  6
CONTINUOUS
 10
1622.914950
 20
139.000000
 11
1622.914950
 21
40.000000
  0
LINE
  8
1
 62
7
  6
CONTINUOUS
 10
1622.914950
 20
40.000000
 11
1734.473100
 21
40.000000
  0
LINE
  8
1
 62
7
  6
CONTINUOUS
 10
1734.473100
 20
40.000000
 11
1734.473100
 21
139.000000
  0
LINE
  8
1
 62
7
  6
CONTINUOUS
 10
1734.473100
 20
139.000000
 11
1622.914950
 21
139.000000
  0
LINE
  8
1
 62
7
  6
CONTINUOUS
 10
1622.914950
 20
139.000000
 11
1622.914950
 21
188.500000
  0
LINE
  8
1
 62
7
  6
CONTINUOUS
 10
1622.914950
 20
188.500000
 11
1734.473100
 21
188.500000
  0
LINE
  8
1
 62
7
  6
CONTINUOUS
 10
1734.473100
 20
188.500000
 11
1734.473100
 21
139.000000
  0
TEXT
  8
1
 62
7
  6
CONTINUOUS
 10
1627.864950
 20
161.275000
 40
19.800000
 41
0.875000
  1
CAD-NO
  7
KANJI
 50
0.000000
 51
0.000000
  0
TEXT
  8
1
 62
7
  6
CONTINUOUS
 10
1723.152450
 20
171.175000
 40
9.900000
 41
0.875000
  1

  7
KANJI
 50
0.000000
 51
0.000000
  0
TEXT
  8
1
 62
7
  6
CONTINUOUS
 10
1723.152450
 20
161.275000
 40
9.900000
 41
0.875000
  1

  7
KANJI
 50
0.000000
 51
0.000000
  0
DIMENSION
  8
1
 62
7
  6
CONTINUOUS
  2
*D1
 10
1478.332533
 20
1188.250729
 11
1593.332533
 21
1188.250729
 70
     0
  1
230
 13
1478.332533
 23
1124.886667
 14
1708.332533
 24
1124.886667
 50
0.000000
  0
CIRCLE
  8
1
 62
7
  6
DOT
 10
903.480220
 20
946.886667
 40
80.000000
  0
CIRCLE
  8
1
 62
7
  6
CONTINUOUS
 10
903.480219
 20
946.886667
 40
80.000000
  0
CIRCLE
  8
1
 62
7
  6
CONTINUOUS
 10
903.480219
 20
946.886667
 40
90.000000
  0
DIMENSION
  8
1
 62
7
  6
CONTINUOUS
  2
*D2
 10
813.480219
 20
946.886667
 11
903.480219
 21
946.886667
 70
     0
  1
180φ
 13
813.480219
 23
946.886667
 14
993.480220
 24
946.886667
 50
0.000000
  0
LINE
  8
1
 62
7
  6
CONTINUOUS
 10
1003.480218
 20
253.160000
 11
1003.480218
 21
253.541557
  0
LINE
  8
1
 62
7
  6
CONTINUOUS
 10
802.480218
 20
253.575851
 11
802.480218
 21
253.160000
  0
LINE
  8
1
 62
7
  6
CONTINUOUS
 10
813.480218
 20
261.236894
 11
813.480218
 21
256.160000
  0
DIMENSION
  8
1
 62
7
  6
CONTINUOUS
  2
*D3
 10
813.480218
 20
286.869406
 11
903.480218
 21
286.869406
 70
     0
  1
180φ
 13
813.480218
 23
283.160000
 14
993.480218
 24
283.160000
 50
0.000000
  0
DIMENSION
  8
1
 62
7
  6
CONTINUOUS
  2
*D4
 10
1337.923228
 20
483.160000
 11
1337.923228
 21
373.160000
 70
     0
  1
210
 13
1303.480219
 23
483.160000
 14
1303.480219
 24
263.160000
 50
-90.000000
  0
DIMENSION
  8
1
 62
7
  6
CONTINUOUS
  2
*D5
 10
1367.245085
 20
483.160000
 11
1367.245085
 21
365.660000
 70
     0
  1
230
 13
1303.480219
 23
483.160000
 14
1303.480219
 24
248.160000
 50
-90.000000
  0
LINE
  8
1
 62
7
  6
CONTINUOUS
 10
603.480218
 20
483.160000
 11
626.480218
 21
483.160000
  0
LINE
  8
1
 62
7
  6
CONTINUOUS
 10
1180.480218
 20
483.160000
 11
1203.480218
 21
483.160000
  0
LINE
  8
1
 62
7
  6
CONTINUOUS
 10
1267.782541
 20
483.160000
 11
1268.480219
 21
483.160000
  0
LINE
  8
1
 62
7
  6
CONTINUOUS
 10
626.480218
 20
483.160000
 11
1180.480218
 21
483.160000
  0
LINE
  8
1
 62
7
  6
CONTINUOUS
 10
995.401846
 20
263.235358
 11
1003.854451
 21
263.566833
  0
LINE
  8
1
 62
7
  6
CONTINUOUS
 10
1003.480218
 20
253.541557
 11
1010.961561
 21
253.827013
  0
LINE
  8
1
 62
7
  6
CONTINUOUS
 10
1701.332533
 20
843.886667
 11
1708.332533
 21
843.886667
  0
LINE
  8
1
 62
7
  6
CONTINUOUS
 10
1708.332533
 20
843.886667
 11
1708.332533
 21
1023.886667
  0
LINE
  8
1
 62
7
  6
CONTINUOUS
 10
1708.332533
 20
1023.886667
 11
1701.332533
 21
1023.886667
  0
LINE
  8
1
 62
7
  6
CONTINUOUS
 10
1701.332533
 20
975.886667
 11
1701.332533
 21
843.886667
  0
LINE
  8
1
 62
7
  6
CONTINUOUS
 10
1701.332533
 20
975.886667
 11
1701.332533
 21
1023.886667
  0
LINE
  8
1
 62
7
  6
CONTINUOUS
 10
1478.332533
 20
1101.886667
 11
1478.332533
 21
775.431690
  0
LINE
  8
1
 62
7
  6
CONTINUOUS
 10
1680.149545
 20
946.886667
 11
1738.684015
 21
946.886667
  0
LINE
  8
1
 62
7
  6
CONTINUOUS
 10
534.480218
 20
656.886667
 11
1272.480218
 21
656.886667
  0
ARC
  8
1
 62
7
  6
CONTINUOUS
 10
534.480218
 20
662.886667
 40
6.000000
 50
180.000000
 51
-90.000000
  0
LINE
  8
1
 62
7
  6
CONTINUOUS
 10
528.480218
 20
662.886667
 11
528.480218
 21
1135.886667
  0
ARC
  8
1
 62
7
  6
CONTINUOUS
 10
534.480218
 20
1135.886667
 40
6.000000
 50
90.000000
 51
180.000000
  0
LINE
  8
1
 62
7
  6
CONTINUOUS
 10
1272.480218
 20
1141.886667
 11
534.480218
 21
1141.886667
  0
ARC
  8
1
 62
7
  6
CONTINUOUS
 10
1272.480218
 20
662.886667
 40
6.000000
 50
-90.000000
 51
0.000000
  0
LINE
  8
1
 62
7
  6
CONTINUOUS
 10
1278.480218
 20
1135.886667
 11
1278.480218
 21
662.886667
  0
ARC
  8
1
 62
7
  6
CONTINUOUS
 10
1272.480218
 20
1135.886667
 40
6.000000
 50
0.000000
 51
90.000000
  0
LINE
  8
1
 62
7
  6
CONTINUOUS
 10
569.480218
 20
691.886667
 11
1237.480218
 21
691.886667
  0
ARC
  8
1
 62
7
  6
CONTINUOUS
 10
569.480218
 20
697.886667
 40
6.000000
 50
180.000000
 51
-90.000000
  0
LINE
  8
1
 62
7
  6
CONTINUOUS
 10
563.480218
 20
697.886667
 11
563.480218
 21
1100.886667
  0
ARC
  8
1
 62
7
  6
CONTINUOUS
 10
569.480218
 20
1100.886667
 40
6.000000
 50
90.000000
 51
180.000000
  0
LINE
  8
1
 62
7
  6
CONTINUOUS
 10
1237.480218
 20
1106.886667
 11
569.480218
 21
1106.886667
  0
ARC
  8
1
 62
7
  6
CONTINUOUS
 10
1237.480218
 20
697.886667
 40
6.000000
 50
-90.000000
 51
0.000000
  0
LINE
  8
1
 62
7
  6
CONTINUOUS
 10
1243.480218
 20
1100.886667
 11
1243.480218
 21
697.886667
  0
ARC
  8
1
 62
7
  6
CONTINUOUS
 10
1237.480218
 20
1100.886667
 40
6.000000
 50
0.000000
 51
90.000000
  0
DIMENSION
  8
1
 62
7
  6
CONTINUOUS
  2
*D6
 10
443.949653
 20
1141.886667
 11
443.949653
 21
1124.386667
 70
     0
  1
35
 13
518.480218
 23
1141.886667
 14
518.480218
 24
1106.886667
 50
-90.000000
  0
DIMENSION
  8
1
 62
7
  6
CONTINUOUS
  2
*D7
 10
443.949653
 20
1106.886667
 11
443.949653
 21
899.386667
 70
     0
  1
415
 13
443.949653
 23
1106.886667
 14
518.480218
 24
691.886667
 50
-90.000000
  0
DIMENSION
  8
1
 62
7
  6
CONTINUOUS
  2
*D8
 10
443.949653
 20
691.886667
 11
443.949653
 21
674.386667
 70
     0
  1
35
 13
443.949653
 23
691.886667
 14
518.480218
 24
656.886667
 50
-90.000000
  0
DIMENSION
  8
1
 62
7
  6
CONTINUOUS
  2
*D9
 10
410.486111
 20
1141.886667
 11
410.486111
 21
899.386667
 70
     0
  1
485
 13
518.480218
 23
1141.886667
 14
518.480218
 24
656.886667
 50
-90.000000
  0
DIMENSION
  8
1
 62
7
  6
CONTINUOUS
  2
*D10
 10
528.480218
 20
1222.534722
 11
903.480218
 21
1222.534722
 70
     0
  1
750
 13
528.480218
 23
1151.886667
 14
1278.480218
 24
1151.886667
 50
0.000000
  0
DIMENSION
  8
1
 62
7
  6
CONTINUOUS
  2
*D11
 10
528.480218
 20
1193.532986
 11
545.980218
 21
1193.532986
 70
     0
  1
35
 13
528.480218
 23
1151.886667
 14
563.480218
 24
1151.886667
 50
0.000000
  0
DIMENSION
  8
1
 62
7
  6
CONTINUOUS
  2
*D12
 10
563.480218
 20
1193.532986
 11
903.480218
 21
1193.532986
 70
     0
  1
680
 13
563.480218
 23
1193.532986
 14
1243.480218
 24
1151.886667
 50
0.000000
  0
DIMENSION
  8
1
 62
7
  6
CONTINUOUS
  2
*D13
 10
1243.480218
 20
1193.532986
 11
1260.980218
 21
1193.532986
 70
     0
  1
35
 13
1243.480218
 23
1193.532986
 14
1278.480218
 24
1151.886667
 50
0.000000
  0
DIMENSION
  8
1
 62
7
  6
CONTINUOUS
  2
*D14
 10
1068.602431
 20
1106.886667
 11
1068.602431
 21
1026.886667
 70
     0
  1
160
 13
913.480219
 23
1106.886667
 14
913.480219
 24
946.886667
 50
-90.000000
  0
LINE
  8
1
 62
7
  6
CONTINUOUS
 10
584.989483
 20
713.395933
 11
635.184795
 21
763.591246
  0
LINE
  8
1
 62
7
  6
CONTINUOUS
 10
635.184795
 20
763.591246
 11
665.184795
 21
763.591246
  0
TEXT
  8
1
 62
7
  6
CONTINUOUS
 10
635.184795
 20
763.591246
 40
20.000000
 41
0.375000
  1
6R*4
  7
KANJI
 50
0.000000
 51
30.000000
  0
LINE
  8
1
 62
7
  6
CONTINUOUS
 10
584.989483
 20
713.395933
 11
594.989483
 21
730.716441
  0
LINE
  8
1
 62
7
  6
CONTINUOUS
 10
584.989483
 20
713.395933
 11
602.309991
 21
723.395933
  0
LINE
  8
1
 62
7
  6
CONTINUOUS
 10
594.989483
 20
730.716441
 11
602.309991
 21
723.395933
  0
LINE
  8
1
 62
7
  6
CONTINUOUS
 10
588.404546
 20
716.810997
 11
593.404546
 21
725.471251
  0
LINE
  8
1
 62
7
  6
CONTINUOUS
 10
588.404546
 20
716.810997
 11
597.064800
 21
721.810997
  0
LINE
  8
1
 62
7
  6
CONTINUOUS
 10
593.404546
 20
725.471251
 11
597.064800
 21
721.810997
  0
LINE
  8
1
 62
7
  6
CONTINUOUS
 10
523.120241
 20
651.526691
 11
470.294885
 21
598.701336
  0
LINE
  8
1
 62
7
  6
CONTINUOUS
 10
470.294885
 20
598.701336
 11
500.294885
 21
598.701336
  0
TEXT
  8
1
 62
7
  6
CONTINUOUS
 10
470.294885
 20
598.701336
 40
20.000000
 41
0.375000
  1
6R*4
  7
KANJI
 50
0.000000
 51
30.000000
  0
LINE
  8
1
 62
7
  6
CONTINUOUS
 10
523.120241
 20
651.526691
 11
513.120241
 21
634.206183
  0
LINE
  8
1
 62
7
  6
CONTINUOUS
 10
523.120241
 20
651.526691
 11
505.799733
 21
641.526692
  0
LINE
  8
1
 62
7
  6
CONTINUOUS
 10
513.120241
 20
634.206183
 11
505.799733
 21
641.526692
  0
LINE
  8
1
 62
7
  6
CONTINUOUS
 10
519.705178
 20
648.111628
 11
514.705178
 21
639.451374
  0
LINE
  8
1
 62
7
  6
CONTINUOUS
 10
519.705178
 20
648.111628
 11
511.044924
 21
643.111628
  0
LINE
  8
1
 62
7
  6
CONTINUOUS
 10
514.705178
 20
639.451374
 11
511.044924
 21
643.111628
  0
LINE
  8
1
 62
7
  6
CONTINUOUS
 10
581.480218
 20
703.886667
 11
1225.480218
 21
703.886667
  0
ARC
  8
1
 62
7
  6
CONTINUOUS
 10
581.480218
 20
709.886667
 40
6.000000
 50
180.000000
 51
-90.000000
  0
LINE
  8
1
 62
7
  6
CONTINUOUS
 10
575.480218
 20
709.886667
 11
575.480218
 21
1088.886667
  0
ARC
  8
1
 62
7
  6
CONTINUOUS
 10
581.480218
 20
1088.886667
 40
6.000000
 50
90.000000
 51
180.000000
  0
LINE
  8
1
 62
7
  6
CONTINUOUS
 10
1225.480218
 20
1094.886667
 11
581.480218
 21
1094.886667
  0
ARC
  8
1
 62
7
  6
CONTINUOUS
 10
1225.480218
 20
709.886667
 40
6.000000
 50
-90.000000
 51
0.000000
  0
LINE
  8
1
 62
7
  6
CONTINUOUS
 10
1231.480218
 20
1088.886667
 11
1231.480218
 21
709.886667
  0
ARC
  8
1
 62
7
  6
CONTINUOUS
 10
1225.480218
 20
1088.886667
 40
6.000000
 50
0.000000
 51
90.000000
  0
LINE
  8
1
 62
7
  6
CONTINUOUS
 10
1490.332533
 20
1141.886667
 11
1478.332533
 21
1141.886667
  0
LINE
  8
1
 62
7
  6
CONTINUOUS
 10
1478.332533
 20
1141.886667
 11
1478.332533
 21
656.886667
  0
LINE
  8
1
 62
7
  6
CONTINUOUS
 10
1478.332533
 20
656.886667
 11
1490.332533
 21
656.886667
  0
LINE
  8
1
 62
7
  6
CONTINUOUS
 10
1490.332533
 20
1141.886667
 11
1490.332533
 21
1116.886667
  0
LINE
  8
1
 62
7
  6
CONTINUOUS
 10
1478.332533
 20
656.886667
 11
1490.332533
 21
656.886667
  0
LINE
  8
1
 62
7
  6
CONTINUOUS
 10
1490.332533
 20
656.886667
 11
1490.332533
 21
681.886667
  0
LINE
  8
1
 62
7
  6
CONTINUOUS
 10
1490.332533
 20
681.886667
 11
1692.028104
 21
691.663066
  0
LINE
  8
1
 62
7
  6
CONTINUOUS
 10
1696.783653
 20
696.502955
 11
1701.332533
 21
843.886667
  0
ARC
  8
1
 62
7
  6
CONTINUOUS
 10
1691.786033
 20
696.657203
 40
5.000000
 50
-87.224984
 51
-1.767827
  0
LINE
  8
1
 62
7
  6
CONTINUOUS
 10
1696.868618
 20
1106.915488
 11
1701.332533
 21
1023.886667
  0
LINE
  8
1
 62
7
  6
CONTINUOUS
 10
1490.332533
 20
1116.886667
 11
1696.332533
 21
1106.886667
  0
DIMENSION
  8
1
 62
7
  6
CONTINUOUS
  2
*D15
 10
1412.161458
 20
1141.886667
 11
1412.161458
 21
899.386667
 70
     0
  1
485
 13
1468.332533
 23
1141.886667
 14
1468.332533
 24
656.886667
 50
-90.000000
  0
DIMENSION
  8
1
 62
7
  6
CONTINUOUS
  2
*D16
 10
1478.332533
 20
1163.579731
 11
1484.332533
 21
1163.579731
 70
     0
  1
12
 13
1478.332533
 23
1151.886667
 14
1490.332533
 24
1151.886667
 50
0.000000
  0
LINE
  8
1
 62
7
  6
CONTINUOUS
 10
553.480218
 20
471.160000
 11
528.480218
 21
471.160000
  0
LINE
  8
1
 62
7
  6
CONTINUOUS
 10
528.480218
 20
471.160000
 11
528.480218
 21
483.160000
  0
LINE
  8
1
 62
7
  6
CONTINUOUS
 10
528.480218
 20
483.160000
 11
603.480218
 21
483.160000
  0
LINE
  8
1
 62
7
  6
CONTINUOUS
 10
1203.480218
 20
483.160000
 11
1278.480218
 21
483.160000
  0
LINE
  8
1
 62
7
  6
CONTINUOUS
 10
1278.480218
 20
483.160000
 11
1278.480218
 21
471.160000
  0
LINE
  8
1
 62
7
  6
CONTINUOUS
 10
1278.480218
 20
471.160000
 11
1253.480218
 21
471.160000
  0
LINE
  8
1
 62
7
  6
CONTINUOUS
 10
1243.480218
 20
483.160000
 11
1243.480218
 21
471.160000
  0
LINE
  8
1
 62
7
  6
CONTINUOUS
 10
563.480218
 20
483.160000
 11
575.169277
 21
273.731026
  0
ARC
  8
1
 62
7
  6
CONTINUOUS
 10
581.159953
 20
274.065390
 40
6.000000
 50
-176.805411
 51
-90.962864
  0
LINE
  8
1
 62
7
  6
CONTINUOUS
 10
553.480218
 20
471.160000
 11
563.851155
 21
261.791732
  0
LINE
  8
1
 62
7
  6
CONTINUOUS
 10
569.768294
 20
256.089050
 11
802.480218
 21
253.160000
  0
ARC
  8
1
 62
7
  6
CONTINUOUS
 10
569.843808
 20
262.088574
 40
6.000000
 50
-177.164204
 51
-90.721120
  0
LINE
  8
1
 62
7
  6
CONTINUOUS
 10
1225.938788
 20
268.048182
 11
1003.854451
 21
263.566833
  0
LINE
  8
1
 62
7
  6
CONTINUOUS
 10
1243.480218
 20
471.160000
 11
1231.807286
 21
273.692899
  0
ARC
  8
1
 62
7
  6
CONTINUOUS
 10
1225.817741
 20
274.046961
 40
6.000000
 50
-88.844009
 51
-3.383006
  0
LINE
  8
1
 62
7
  6
CONTINUOUS
 10
1237.140212
 20
256.103126
 11
1010.961561
 21
253.827013
  0
LINE
  8
1
 62
7
  6
CONTINUOUS
 10
1253.480218
 20
471.160000
 11
1243.072435
 21
261.804909
  0
ARC
  8
1
 62
7
  6
CONTINUOUS
 10
1237.079835
 20
262.102822
 40
6.000000
 50
-89.423433
 51
-2.846033
  0
LINE
  8
1
 62
7
  6
CONTINUOUS
 10
813.480218
 20
261.236894
 11
813.480218
 21
261.209996
  0
LINE
  8
1
 62
7
  6
CONTINUOUS
 10
581.059127
 20
268.066237
 11
810.530631
 21
264.209573
  0
LINE
  8
1
 62
7
  6
CONTINUOUS
 10
813.480218
 20
258.740283
 11
813.480218
 21
261.209996
  0
LINE
  8
1
 62
7
  6
CONTINUOUS
 10
810.530631
 20
264.209573
 11
812.005424
 21
264.184786
  0
LINE
  8
1
 62
7
  6
CONTINUOUS
 10
813.480218
 20
262.684998
 11
813.480218
 21
261.236894
  0
ARC
  8
1
 62
7
  6
CONTINUOUS
 10
811.980218
 20
262.684998
 40
1.500000
 50
-0.000000
 51
89.037136
  0
LINE
  8
1
 62
7
  6
CONTINUOUS
 10
993.480218
 20
261.701842
 11
993.480218
 21
261.236894
  0
LINE
  8
1
 62
7
  6
CONTINUOUS
 10
995.401846
 20
263.235358
 11
994.874538
 21
263.198115
  0
ARC
  8
1
 62
7
  6
CONTINUOUS
 10
994.980218
 20
261.701842
 40
1.500000
 50
94.040023
 51
180.000000
  0
LINE
  8
1
 62
7
  6
CONTINUOUS
 10
993.480218
 20
261.236894
 11
993.480218
 21
257.160000
  0
LINE
  8
1
 62
7
  6
CONTINUOUS
 10
993.480218
 20
257.160000
 11
813.480218
 21
257.160000
  0
LINE
  8
1
 62
7
  6
CONTINUOUS
 10
823.480218
 20
257.160000
 11
823.480218
 21
250.160000
  0
LINE
  8
1
 62
7
  6
CONTINUOUS
 10
802.480218
 20
253.160000
 11
802.435438
 21
251.706180
  0
ARC
  8
1
 62
7
  6
CONTINUOUS
 10
803.934727
 20
251.660000
 40
1.500000
 50
178.235780
 51
-90.000000
  0
LINE
  8
1
 62
7
  6
CONTINUOUS
 10
983.480218
 20
257.160000
 11
983.480218
 21
250.160000
  0
LINE
  8
1
 62
7
  6
CONTINUOUS
 10
1001.922035
 20
250.160000
 11
803.934727
 21
250.160000
  0
LINE
  8
1
 62
7
  6
CONTINUOUS
 10
1003.480218
 20
253.541557
 11
1003.421335
 21
251.614195
  0
ARC
  8
1
 62
7
  6
CONTINUOUS
 10
1001.922035
 20
251.660000
 40
1.500000
 50
-90.000000
 51
-1.749887
  0
DIMENSION
  8
1
 62
7
  6
CONTINUOUS
  2
*D17
 10
441.718750
 20
471.160000
 11
441.718750
 21
477.160000
 70
     0
  1
12
 13
518.480218
 23
471.160000
 14
518.480218
 24
483.160000
 50
90.000000
  0
DIMENSION
  8
1
 62
7
  6
CONTINUOUS
  2
*D18
 10
528.480218
 20
582.156761
 11
903.480218
 21
582.156761
 70
     0
  1
750
 13
528.480218
 23
493.160000
 14
1278.480218
 24
493.160000
 50
0.000000
  0
DIMENSION
  8
1
 62
7
  6
CONTINUOUS
  2
*D19
 10
528.480218
 20
561.020866
 11
545.980218
 21
561.020866
 70
     0
  1
35
 13
528.480218
 23
493.160000
 14
563.480218
 24
493.160000
 50
0.000000
  0
DIMENSION
  8
1
 62
7
  6
CONTINUOUS
  2
*D20
 10
563.480218
 20
561.020866
 11
903.480218
 21
561.020866
 70
     0
  1
680
 13
563.480218
 23
561.020866
 14
1243.480218
 24
493.160000
 50
0.000000
  0
DIMENSION
  8
1
 62
7
  6
CONTINUOUS
  2
*D21
 10
1243.480218
 20
561.020866
 11
1260.980218
 21
561.020866
 70
     0
  1
35
 13
1243.480218
 23
561.020866
 14
1278.480218
 24
493.160000
 50
0.000000
  0
LINE
  8
1
 62
7
  6
CONTINUOUS
 10
535.092818
 20
471.160000
 11
545.403319
 21
483.160000
  0
LINE
  8
1
 62
7
  6
CONTINUOUS
 10
545.894295
 20
471.160000
 11
557.677725
 21
483.160000
  0
LINE
  8
1
 62
7
  6
CONTINUOUS
 10
553.879727
 20
463.094714
 11
564.149985
 21
471.160000
  0
LINE
  8
1
 62
7
  6
CONTINUOUS
 10
553.787624
 20
441.484352
 11
565.177251
 21
452.754825
  0
LINE
  8
1
 62
7
  6
CONTINUOUS
 10
555.702885
 20
426.288844
 11
566.215343
 21
434.155667
  0
LINE
  8
1
 62
7
  6
CONTINUOUS
 10
556.530152
 20
409.587989
 11
567.174530
 21
416.970228
  0
LINE
  8
1
 62
7
  6
CONTINUOUS
 10
557.357419
 20
392.887134
 11
568.106400
 21
400.274240
  0
LINE
  8
1
 62
7
  6
CONTINUOUS
 10
557.295030
 20
378.643328
 11
568.980583
 21
384.611791
  0
LINE
  8
1
 62
7
  6
CONTINUOUS
 10
558.198056
 20
362.464111
 11
569.753117
 21
370.770558
  0
LINE
  8
1
 62
7
  6
CONTINUOUS
 10
559.569950
 20
348.220611
 11
570.625775
 21
355.135428
  0
LINE
  8
1
 62
7
  6
CONTINUOUS
 10
560.348696
 20
332.499305
 11
571.448371
 21
340.397246
  0
LINE
  8
1
 62
7
  6
CONTINUOUS
 10
561.297267
 20
313.349577
 11
572.463720
 21
322.205585
  0
LINE
  8
1
 62
7
  6
CONTINUOUS
 10
561.814734
 20
297.665283
 11
573.284791
 21
307.494721
  0
LINE
  8
1
 62
7
  6
CONTINUOUS
 10
562.926339
 20
280.461903
 11
574.298615
 21
289.330379
  0
LINE
  8
1
 62
7
  6
CONTINUOUS
 10
563.480218
 20
267.825374
 11
575.169277
 21
273.731019
  0
LINE
  8
1
 62
7
  6
CONTINUOUS
 10
569.768294
 20
256.089050
 11
585.185569
 21
267.996885
  0
LINE
  8
1
 62
7
  6
CONTINUOUS
 10
594.505325
 20
255.777695
 11
607.273261
 21
267.625663
  0
LINE
  8
1
 62
7
  6
CONTINUOUS
 10
619.540733
 20
257.160000
 11
626.424177
 21
267.303799
  0
LINE
  8
1
 62
7
  6
CONTINUOUS
 10
608.926892
 20
255.596176
 11
618.558781
 21
268.160000
  0
LINE
  8
1
 62
7
  6
CONTINUOUS
 10
630.838049
 20
255.227922
 11
641.165804
 21
267.056041
  0
LINE
  8
1
 62
7
  6
CONTINUOUS
 10
647.031463
 20
255.116570
 11
658.818834
 21
264.160000
  0
LINE
  8
1
 62
7
  6
CONTINUOUS
 10
667.168282
 20
254.617330
 11
680.421789
 21
268.160000
  0
LINE
  8
1
 62
7
  6
CONTINUOUS
 10
647.031463
 20
255.116570
 11
658.818834
 21
264.160000
  0
LINE
  8
1
 62
7
  6
CONTINUOUS
 10
688.770191
 20
254.591221
 11
699.569863
 21
264.160000
  0
LINE
  8
1
 62
7
  6
CONTINUOUS
 10
706.927257
 20
254.362686
 11
716.763045
 21
265.785499
  0
LINE
  8
1
 62
7
  6
CONTINUOUS
 10
725.602703
 20
253.635238
 11
736.884058
 21
264.160000
  0
LINE
  8
1
 62
7
  6
CONTINUOUS
 10
751.122369
 20
256.160000
 11
758.487013
 21
264.160000
  0
LINE
  8
1
 62
7
  6
CONTINUOUS
 10
751.122369
 20
256.160000
 11
758.487013
 21
264.160000
  0
LINE
  8
1
 62
7
  6
CONTINUOUS
 10
751.122369
 20
256.160000
 11
758.487013
 21
264.160000
  0
LINE
  8
1
 62
7
  6
CONTINUOUS
 10
768.305574
 20
252.917543
 11
779.108016
 21
264.160000
  0
LINE
  8
1
 62
7
  6
CONTINUOUS
 10
786.471347
 20
253.361497
 11
797.765113
 21
264.160000
  0
LINE
  8
1
 62
7
  6
CONTINUOUS
 10
802.480218
 20
253.160000
 11
812.252926
 21
264.160000
  0
LINE
  8
1
 62
7
  6
CONTINUOUS
 10
813.480218
 20
250.160000
 11
817.895140
 21
257.160000
  0
LINE
  8
1
 62
7
  6
CONTINUOUS
 10
818.877092
 20
250.160000
 11
823.480218
 21
257.160000
  0
LINE
  8
1
 62
7
  6
CONTINUOUS
 10
983.480218
 20
249.301162
 11
993.480218
 21
257.160000
  0
LINE
  8
1
 62
7
  6
CONTINUOUS
 10
993.480218
 20
250.160000
 11
1003.854451
 21
263.566833
  0
LINE
  8
1
 62
7
  6
CONTINUOUS
 10
1010.961561
 20
253.827013
 11
1019.173577
 21
263.875951
  0
LINE
  8
1
 62
7
  6
CONTINUOUS
 10
1027.536686
 20
253.993815
 11
1033.250325
 21
264.160000
  0
LINE
  8
1
 62
7
  6
CONTINUOUS
 10
1045.214981
 20
254.171717
 11
1052.090812
 21
264.160000
  0
LINE
  8
1
 62
7
  6
CONTINUOUS
 10
1062.397410
 20
254.344630
 11
1068.784005
 21
264.160000
  0
LINE
  8
1
 62
7
  6
CONTINUOUS
 10
1079.093853
 20
254.512652
 11
1085.968174
 21
264.160000
  0
LINE
  8
1
 62
7
  6
CONTINUOUS
 10
1095.785355
 20
254.680624
 11
1102.170390
 21
264.160000
  0
LINE
  8
1
 62
7
  6
CONTINUOUS
 10
1112.480891
 20
256.160000
 11
1122.305948
 21
265.957017
  0
LINE
  8
1
 62
7
  6
CONTINUOUS
 10
1130.150212
 20
255.026449
 11
1139.493026
 21
266.303828
  0
LINE
  8
1
 62
7
  6
CONTINUOUS
 10
1143.400289
 20
255.159789
 11
1152.249968
 21
264.160000
  0
LINE
  8
1
 62
7
  6
CONTINUOUS
 10
1158.633832
 20
255.313090
 11
1168.438931
 21
266.887916
  0
LINE
  8
1
 62
7
  6
CONTINUOUS
 10
1152.249968
 20
264.160000
 11
1143.400289
 21
255.159789
  0
LINE
  8
1
 62
7
  6
CONTINUOUS
 10
1152.249968
 20
264.160000
 11
1156.169521
 21
266.640336
  0
LINE
  8
1
 62
7
  6
CONTINUOUS
 10
1180.235614
 20
256.160000
 11
1187.600258
 21
264.160000
  0
LINE
  8
1
 62
7
  6
CONTINUOUS
 10
1200.848574
 20
255.737911
 11
1209.664151
 21
267.719782
  0
LINE
  8
1
 62
7
  6
CONTINUOUS
 10
1187.600258
 20
264.160000
 11
1191.535133
 21
267.353964
  0
LINE
  8
1
 62
7
  6
CONTINUOUS
 10
1220.495516
 20
255.935625
 11
1226.976920
 21
268.160000
  0
LINE
  8
1
 62
7
  6
CONTINUOUS
 10
1231.480218
 20
256.046168
 11
1243.480218
 21
282.433343
  0
LINE
  8
1
 62
7
  6
CONTINUOUS
 10
1232.815483
 20
290.748232
 11
1243.480218
 21
308.946061
  0
LINE
  8
1
 62
7
  6
CONTINUOUS
 10
1234.499807
 20
319.241382
 11
1246.706726
 21
334.909574
  0
LINE
  8
1
 62
7
  6
CONTINUOUS
 10
1235.952754
 20
343.820399
 11
1247.904620
 21
359.005492
  0
LINE
  8
1
 62
7
  6
CONTINUOUS
 10
1237.458416
 20
369.291183
 11
1250.295196
 21
383.092344
  0
LINE
  8
1
 62
7
  6
CONTINUOUS
 10
1238.941994
 20
394.388388
 11
1250.099571
 21
403.157461
  0
LINE
  8
1
 62
7
  6
CONTINUOUS
 10
1240.364309
 20
418.449217
 11
1251.251189
 21
426.322542
  0
LINE
  8
1
 62
7
  6
CONTINUOUS
 10
1241.468480
 20
437.128113
 11
1252.323711
 21
447.896587
  0
LINE
  8
1
 62
7
  6
CONTINUOUS
 10
1242.536891
 20
455.202054
 11
1253.480218
 21
462.130652
  0
LINE
  8
1
 62
7
  6
CONTINUOUS
 10
1243.480218
 20
471.160000
 11
1256.210525
 21
483.160000
  0
LINE
  8
1
 62
7
  6
CONTINUOUS
 10
1259.773767
 20
471.160000
 11
1272.292026
 21
483.160000
  0
TEXT
  8
1
 62
7
  6
CONTINUOUS
 10
54.560220
 20
1176.500000
 40
50.000000
 41
0.625000
  1
AR700 ｼﾝｸ詳細図
  7
KANJI
 50
0.000000
 51
0.000000
  0
TEXT
  8
1
 62
7
  6
CONTINUOUS
 10
429.560220
 20
1201.500000
 40
25.000000
 41
0.500000
  1

  7
KANJI
 50
0.000000
 51
0.000000
  0
TEXT
  8
1
 62
7
  6
CONTINUOUS
 10
429.560220
 20
1176.500000
 40
25.000000
 41
0.500000
  1

  7
KANJI
 50
0.000000
 51
0.000000
  0
LINE
  8
1
 62
7
  6
CONTINUOUS
 10
903.480218
 20
268.160000
 11
903.480218
 21
233.797149
  0
LINE
  8
1
 62
7
  6
CONTINUOUS
 10
903.480218
 20
925.146283
 11
903.480218
 21
838.301933
  0
LINE
  8
1
 62
7
  6
CONTINUOUS
 10
903.480218
 20
977.508317
 11
903.480218
 21
1056.264222
  0
TEXT
  8
1
 62
7
  6
CONTINUOUS
 10
54.560220
 20
1116.886667
 40
25.000000
 41
0.750000
  1
設計価格：￥60,000
  7
KANJI
 50
0.000000
 51
0.000000
  0
TEXT
  8
1
 62
7
  6
CONTINUOUS
 10
279.560220
 20
1129.386667
 40
12.500000
 41
0.500000
  1

  7
KANJI
 50
0.000000
 51
0.000000
  0
TEXT
  8
1
 62
7
  6
CONTINUOUS
 10
279.560220
 20
1116.886667
 40
12.500000
 41
0.500000
  1

  7
KANJI
 50
0.000000
 51
0.000000
  0
TEXT
  8
1
 62
7
  6
CONTINUOUS
 10
54.560220
 20
1146.886667
 40
25.000000
 41
0.676471
  1
ｱｸﾘﾙ変性ﾎﾟﾘｴｽﾃﾙ系シンク
  7
KANJI
 50
0.000000
 51
0.000000
  0
TEXT
  8
1
 62
7
  6
CONTINUOUS
 10
342.060220
 20
1159.386667
 40
12.500000
 41
0.500000
  1

  7
KANJI
 50
0.000000
 51
0.000000
  0
TEXT
  8
1
 62
7
  6
CONTINUOUS
 10
342.060220
 20
1146.886667
 40
12.500000
 41
0.500000
  1

  7
KANJI
 50
0.000000
 51
0.000000
  0
TEXT
  8
1
 62
7
  6
CONTINUOUS
 10
54.560220
 20
1086.806741
 40
25.000000
 41
1.000000
  1
専用排水金具は別売
  7
KANJI
 50
0.000000
 51
0.000000
  0
TEXT
  8
1
 62
7
  6
CONTINUOUS
 10
279.560220
 20
1099.306741
 40
12.500000
 41
0.500000
  1

  7
KANJI
 50
0.000000
 51
0.000000
  0
TEXT
  8
1
 62
7
  6
CONTINUOUS
 10
279.560220
 20
1086.806741
 40
12.500000
 41
0.500000
  1

  7
KANJI
 50
0.000000
 51
0.000000
  0
ENDSEC
  0
EOF
