  0
SECTION
  2
HEADER
  9
$ACADVER
  1
AC1003
  9
$INSBASE
 10
0.000000
 20
0.000000
  9
$EXTMIN
 10
0.000000
 20
0.000000
  9
$EXTMAX
 10
1820.000000
 20
1285.000000
  9
$LIMMIN
 10
0.000000
 20
0.000000
  9
$LIMMAX
 10
1820.000000
 20
1285.000000
  9
$VIEWCTR
 10
910.000000
 20
642.500000
  9
$VIEWSIZE
 40
1285.000000
  9
$PEXTMIN
 10
0.000000
 20
0.000000
 30
0.000000
  9
$PEXTMAX
 10
364.000000
 20
257.000000
 30
0.000000
  9
$SNAPMODE
 70
     0
  9
$SNAPUNIT
 10
1.000000
 20
1.000000
  9
$SNAPBASE
 10
0.000000
 20
0.000000
  9
$SNAPANG
 50
0.000000
  9
$SNAPISOPAIR
 70
     0
  9
$SNAPSTYLE
 70
     0
  9
$GRIDMODE
 70
     0
  9
$GRIDUNIT
 10
0.000000
 20
0.000000
  9
$ORTHOMODE
 70
     0
  9
$REGENMODE
 70
     1
  9
$FILLMODE
 70
     1
  9
$QTEXTMODE
 70
     0
  9
$DRAGMODE
 70
     2
  9
$LTSCALE
 40
1.250000
  9
$OSMODE
 70
     0
  9
$ATTMODE
 70
     1
  9
$TEXTSIZE
 40
0.200000
  9
$TRACEWID
 40
0.050000
  9
$TEXTSTYLE
  7
STANDARD
  9
$CLAYER
  8
0
  9
$CELTYPE
  6
BYLAYER
  9
$CECOLOR
 62
   256
  9
$DIMSCALE
 40
1.000000
  9
$DIMASZ
 40
1.000000
  9
$DIMEXO
 40
0.000000
  9
$DIMDLI
 40
0.500000
  9
$DIMRND
 40
0.000000
  9
$DIMDLE
 40
0.000000
  9
$DIMEXE
 40
0.000000
  9
$DIMTP
 40
0.000000
  9
$DIMTM
 40
0.000000
  9
$DIMTXT
 40
0.180000
  9
$DIMCEN
 40
0.000000
  9
$DIMTSZ
 40
0.000000
  9
$DIMTOL
 70
     0
  9
$DIMLIM
 70
     0
  9
$DIMTIH
 70
     1
  9
$DIMTOH
 70
     1
  9
$DIMSE1
 70
     0
  9
$DIMSE2
 70
     0
  9
$DIMTAD
 70
     0
  9
$DIMZIN
 70
     0
  9
$DIMBLK
  1

  9
$DIMASO
 70
     0
  9
$DIMSHO
 70
     0
  9
$DIMPOST
  1

  9
$DIMAPOST
  1

  9
$DIMALT
 70
     0
  9
$DIMALTD
 70
     0
  9
$DIMALTF
 40
25.400000
  9
$DIMLFAC
 40
1.000000
  9
$DIMTOFL
 70
     0
  9
$DIMTVP
 40
0.000000
  9
$DIMTIX
 70
     0
  9
$DIMSOXD
 70
     0
  9
$DIMSAH
 70
     0
  9
$DIMBLKL
  1

  9
$DIMBLKR
  1

  9
$LUNITS
 70
     2
  9
$LUPREC
 70
     2
  9
$AXISMODE
 70
     0
  9
$AXISUNIT
 10
1.000000
 20
1.000000
  9
$SKETCHINC
 40
0.000000
  9
$FILLETRAD
 40
0.000000
  9
$AUNITS
 70
     1
  9
$AUPREC
 70
     2
  9
$MENU
  1
ACAD
  9
$ELEVATION
 40
0.000000
  9
$THICKNESS
 40
0.000000
  9
$VIEWDIR
 10
0.000000
 20
0.000000
 30
1.000000
  9
$LIMCHECK
 70
     1
  9
$BLIPMODE
 70
     1
  9
$CHAMFERA
 40
0.000000
  9
$CHAMFERB
 40
0.000000
  9
$FASTZOOM
 70
     1
  9
$SKPOLY
 70
     0
  9
$TDCREATE
 40
0.000000
  9
$TDUPDATE
 40
0.000000
  9
$TDINDWG
 40
0.000000
  9
$TDUSRTIMER
 40
0.000000
  9
$USRTIMER
 70
     1
  9
$ANGBASE
 50
0.000000
  9
$ANGDIR
 70
     0
  9
$PDMODE
 70
     0
  9
$PDSIZE
 40
0.000000
  9
$PLINEWID
 40
0.000000
  9
$COORDS
 70
     2
  9
$USERI1
 70
     0
  9
$USERI2
 70
     0
  9
$USERI3
 70
     0
  9
$USERI4
 70
     0
  9
$USERI5
 70
     0
  9
$USERR1
 40
0.000000
  9
$USERR2
 40
0.000000
  9
$USERR3
 40
0.000000
  9
$USERR4
 40
0.000000
  9
$USERR5
 40
0.000000
  0
ENDSEC
  0
SECTION
  2
TABLES
  0
TABLE
  2
LTYPE
 70
     5
  0
LTYPE
  2
CONTINUOUS
 70
    64
  3
Solid line
 72
    65
 73
     0
 40
0.0
  0
LTYPE
  2
HIDDEN
 70
    64
  3
------------------------
 72
    65
 73
     2
 40
12.6
 49
8.4
 49
-4.2
  0
LTYPE
  2
DOT
 70
    64
  3
････････････････････････
 72
    65
 73
     2
 40
8.0
 49
6.0
 49
-2.0
  0
LTYPE
  2
DASHDOT
 70
    64
  3
--･--･--･--･--･--･--･--
 72
    65
 73
     4
 40
50.5
 49
30.0
 49
-9.0
 49
2.5
 49
-9.0
  0
LTYPE
  2
DIVIDE
 70
    64
  3
--･･--･･--･･--･･--･･--
 72
    65
 73
     6
 40
58.0
 49
30.0
 49
-9.0
 49
2.5
 49
-5.0
 49
2.5
 49
-9.0
  0
ENDTAB
  0
TABLE
  2
LAYER
 70
1
  0
LAYER
  2
1
 70
64
 62
7
  6
CONTINUOUS
  0
ENDTAB
  0
TABLE
  2
STYLE
 70
     2
  0
STYLE
  2
STANDARD
 70
    64
 40
0.0
 41
1.0
 50
0.0
 71
     0
 42
0.2
  3
TXT
  4

  0
STYLE
  2
KANJI
 70
    64
 40
0.0
 41
1.0
 50
0.0
 71
     0
 42
0.2
  3
TXT
  4
BIGFONT
  0
ENDTAB
  0
TABLE
  2
VIEW
 70
     0
  0
ENDTAB
  0
ENDSEC
  0
SECTION
  2
BLOCKS
  0
BLOCK
  8
1
 62
7
  6
CONTINUOUS
  2
*D1
 70
    65
 10
0.0
 20
0.0
  0
LINE
  8
1
 62
7
  6
CONTINUOUS
 10
1478.332533
 20
1188.250729
 11
1708.332533
 21
1188.250729
  0
LINE
  8
1
 62
7
  6
CONTINUOUS
 10
1478.332533
 20
1198.250729
 11
1478.332533
 21
1124.886667
  0
LINE
  8
1
 62
7
  6
CONTINUOUS
 10
1708.332533
 20
1198.250729
 11
1708.332533
 21
1124.886667
  0
CIRCLE
  8
1
 62
7
  6
CONTINUOUS
 10
1478.332533
 20
1188.250729
 40
1.500000
  0
CIRCLE
  8
1
 62
7
  6
CONTINUOUS
 10
1478.332533
 20
1188.250729
 40
0.750000
  0
CIRCLE
  8
1
 62
7
  6
CONTINUOUS
 10
1708.332533
 20
1188.250729
 40
1.500000
  0
CIRCLE
  8
1
 62
7
  6
CONTINUOUS
 10
1708.332533
 20
1188.250729
 40
0.750000
  0
TEXT
  8
1
 62
7
  6
CONTINUOUS
 10
1578.332533
 20
1188.250729
 40
20.000000
 41
0.500000
  1
230
  7
KANJI
 50
0.000000
 51
30.000000
  0
ENDBLK
  0
BLOCK
  8
1
 62
7
  6
CONTINUOUS
  2
*D2
 70
    65
 10
0.0
 20
0.0
  0
LINE
  8
1
 62
7
  6
CONTINUOUS
 10
813.480219
 20
946.886667
 11
993.480220
 21
946.886667
  0
CIRCLE
  8
1
 62
7
  6
CONTINUOUS
 10
813.480219
 20
946.886667
 40
1.500000
  0
CIRCLE
  8
1
 62
7
  6
CONTINUOUS
 10
813.480219
 20
946.886667
 40
0.750000
  0
CIRCLE
  8
1
 62
7
  6
CONTINUOUS
 10
993.480220
 20
946.886667
 40
1.500000
  0
CIRCLE
  8
1
 62
7
  6
CONTINUOUS
 10
993.480220
 20
946.886667
 40
0.750000
  0
TEXT
  8
1
 62
7
  6
CONTINUOUS
 10
878.480219
 20
946.886667
 40
20.000000
 41
0.625000
  1
180φ
  7
KANJI
 50
0.000000
 51
30.000000
  0
ENDBLK
  0
BLOCK
  8
1
 62
7
  6
CONTINUOUS
  2
*D3
 70
    65
 10
0.0
 20
0.0
  0
LINE
  8
1
 62
7
  6
CONTINUOUS
 10
603.480218
 20
1209.886667
 11
1203.480218
 21
1209.886667
  0
LINE
  8
1
 62
7
  6
CONTINUOUS
 10
603.480218
 20
1219.886667
 11
603.480218
 21
1111.886667
  0
LINE
  8
1
 62
7
  6
CONTINUOUS
 10
1203.480218
 20
1219.886667
 11
1203.480218
 21
1111.886668
  0
CIRCLE
  8
1
 62
7
  6
CONTINUOUS
 10
603.480218
 20
1209.886667
 40
1.500000
  0
CIRCLE
  8
1
 62
7
  6
CONTINUOUS
 10
603.480218
 20
1209.886667
 40
0.750000
  0
CIRCLE
  8
1
 62
7
  6
CONTINUOUS
 10
1203.480218
 20
1209.886667
 40
1.500000
  0
CIRCLE
  8
1
 62
7
  6
CONTINUOUS
 10
1203.480218
 20
1209.886667
 40
0.750000
  0
TEXT
  8
1
 62
7
  6
CONTINUOUS
 10
888.480218
 20
1209.886667
 40
20.000000
 41
0.500000
  1
600
  7
KANJI
 50
0.000000
 51
30.000000
  0
ENDBLK
  0
BLOCK
  8
1
 62
7
  6
CONTINUOUS
  2
*D4
 70
    65
 10
0.0
 20
0.0
  0
LINE
  8
1
 62
7
  6
CONTINUOUS
 10
603.480218
 20
1189.886667
 11
626.480218
 21
1189.886667
  0
LINE
  8
1
 62
7
  6
CONTINUOUS
 10
603.480218
 20
1199.886667
 11
603.480218
 21
1111.886667
  0
LINE
  8
1
 62
7
  6
CONTINUOUS
 10
626.480218
 20
1199.886667
 11
626.480218
 21
1111.886667
  0
CIRCLE
  8
1
 62
7
  6
CONTINUOUS
 10
603.480218
 20
1189.886667
 40
1.500000
  0
CIRCLE
  8
1
 62
7
  6
CONTINUOUS
 10
603.480218
 20
1189.886667
 40
0.750000
  0
CIRCLE
  8
1
 62
7
  6
CONTINUOUS
 10
626.480218
 20
1189.886667
 40
1.500000
  0
CIRCLE
  8
1
 62
7
  6
CONTINUOUS
 10
626.480218
 20
1189.886667
 40
0.750000
  0
TEXT
  8
1
 62
7
  6
CONTINUOUS
 10
604.980218
 20
1189.886667
 40
20.000000
 41
0.500000
  1
23
  7
KANJI
 50
0.000000
 51
30.000000
  0
ENDBLK
  0
BLOCK
  8
1
 62
7
  6
CONTINUOUS
  2
*D5
 70
    65
 10
0.0
 20
0.0
  0
LINE
  8
1
 62
7
  6
CONTINUOUS
 10
626.480218
 20
1189.886667
 11
1180.480218
 21
1189.886667
  0
LINE
  8
1
 62
7
  6
CONTINUOUS
 10
1180.480218
 20
1199.886667
 11
1180.480218
 21
1111.886667
  0
CIRCLE
  8
1
 62
7
  6
CONTINUOUS
 10
1180.480218
 20
1189.886667
 40
1.500000
  0
CIRCLE
  8
1
 62
7
  6
CONTINUOUS
 10
1180.480218
 20
1189.886667
 40
0.750000
  0
TEXT
  8
1
 62
7
  6
CONTINUOUS
 10
888.480218
 20
1189.886667
 40
20.000000
 41
0.500000
  1
554
  7
KANJI
 50
0.000000
 51
30.000000
  0
ENDBLK
  0
BLOCK
  8
1
 62
7
  6
CONTINUOUS
  2
*D6
 70
    65
 10
0.0
 20
0.0
  0
LINE
  8
1
 62
7
  6
CONTINUOUS
 10
1180.480218
 20
1189.886667
 11
1203.480218
 21
1189.886667
  0
LINE
  8
1
 62
7
  6
CONTINUOUS
 10
1203.480218
 20
1199.886667
 11
1203.480218
 21
1111.886667
  0
CIRCLE
  8
1
 62
7
  6
CONTINUOUS
 10
1203.480218
 20
1189.886667
 40
1.500000
  0
CIRCLE
  8
1
 62
7
  6
CONTINUOUS
 10
1203.480218
 20
1189.886667
 40
0.750000
  0
TEXT
  8
1
 62
7
  6
CONTINUOUS
 10
1181.980218
 20
1189.886667
 40
20.000000
 41
0.500000
  1
23
  7
KANJI
 50
0.000000
 51
30.000000
  0
ENDBLK
  0
BLOCK
  8
1
 62
7
  6
CONTINUOUS
  2
*D7
 70
    65
 10
0.0
 20
0.0
  0
LINE
  8
1
 62
7
  6
CONTINUOUS
 10
626.480218
 20
1168.928874
 11
641.480218
 21
1168.928874
  0
LINE
  8
1
 62
7
  6
CONTINUOUS
 10
626.480218
 20
1178.928874
 11
626.480218
 21
1111.886667
  0
LINE
  8
1
 62
7
  6
CONTINUOUS
 10
641.480218
 20
1178.928874
 11
641.480218
 21
1111.886667
  0
CIRCLE
  8
1
 62
7
  6
CONTINUOUS
 10
626.480218
 20
1168.928874
 40
1.500000
  0
CIRCLE
  8
1
 62
7
  6
CONTINUOUS
 10
626.480218
 20
1168.928874
 40
0.750000
  0
CIRCLE
  8
1
 62
7
  6
CONTINUOUS
 10
641.480218
 20
1168.928874
 40
1.500000
  0
CIRCLE
  8
1
 62
7
  6
CONTINUOUS
 10
641.480218
 20
1168.928874
 40
0.750000
  0
TEXT
  8
1
 62
7
  6
CONTINUOUS
 10
623.980218
 20
1168.928874
 40
20.000000
 41
0.500000
  1
15
  7
KANJI
 50
0.000000
 51
30.000000
  0
ENDBLK
  0
BLOCK
  8
1
 62
7
  6
CONTINUOUS
  2
*D8
 70
    65
 10
0.0
 20
0.0
  0
LINE
  8
1
 62
7
  6
CONTINUOUS
 10
641.480218
 20
1168.928874
 11
1165.480218
 21
1168.928874
  0
LINE
  8
1
 62
7
  6
CONTINUOUS
 10
1165.480218
 20
1178.928874
 11
1165.480218
 21
1111.886667
  0
CIRCLE
  8
1
 62
7
  6
CONTINUOUS
 10
1165.480218
 20
1168.928874
 40
1.500000
  0
CIRCLE
  8
1
 62
7
  6
CONTINUOUS
 10
1165.480218
 20
1168.928874
 40
0.750000
  0
TEXT
  8
1
 62
7
  6
CONTINUOUS
 10
888.480218
 20
1168.928874
 40
20.000000
 41
0.500000
  1
524
  7
KANJI
 50
0.000000
 51
30.000000
  0
ENDBLK
  0
BLOCK
  8
1
 62
7
  6
CONTINUOUS
  2
*D9
 70
    65
 10
0.0
 20
0.0
  0
LINE
  8
1
 62
7
  6
CONTINUOUS
 10
1165.480218
 20
1168.928874
 11
1180.480218
 21
1168.928874
  0
LINE
  8
1
 62
7
  6
CONTINUOUS
 10
1180.480218
 20
1178.928874
 11
1180.480218
 21
1111.886667
  0
CIRCLE
  8
1
 62
7
  6
CONTINUOUS
 10
1180.480218
 20
1168.928874
 40
1.500000
  0
CIRCLE
  8
1
 62
7
  6
CONTINUOUS
 10
1180.480218
 20
1168.928874
 40
0.750000
  0
TEXT
  8
1
 62
7
  6
CONTINUOUS
 10
1162.980218
 20
1168.928874
 40
20.000000
 41
0.500000
  1
15
  7
KANJI
 50
0.000000
 51
30.000000
  0
ENDBLK
  0
BLOCK
  8
1
 62
7
  6
CONTINUOUS
  2
*D10
 70
    65
 10
0.0
 20
0.0
  0
LINE
  8
1
 62
7
  6
CONTINUOUS
 10
490.798611
 20
1101.886667
 11
490.798611
 21
595.886667
  0
LINE
  8
1
 62
7
  6
CONTINUOUS
 10
480.798611
 20
1101.886667
 11
593.480218
 21
1101.886667
  0
LINE
  8
1
 62
7
  6
CONTINUOUS
 10
480.798611
 20
595.886667
 11
593.480218
 21
595.886667
  0
CIRCLE
  8
1
 62
7
  6
CONTINUOUS
 10
490.798611
 20
1101.886667
 40
1.500000
  0
CIRCLE
  8
1
 62
7
  6
CONTINUOUS
 10
490.798611
 20
1101.886667
 40
0.750000
  0
CIRCLE
  8
1
 62
7
  6
CONTINUOUS
 10
490.798611
 20
595.886667
 40
1.500000
  0
CIRCLE
  8
1
 62
7
  6
CONTINUOUS
 10
490.798611
 20
595.886667
 40
0.750000
  0
TEXT
  8
1
 62
7
  6
CONTINUOUS
 10
490.798611
 20
833.886667
 40
20.000000
 41
0.500000
  1
506
  7
KANJI
 50
90.000000
 51
30.000000
  0
ENDBLK
  0
BLOCK
  8
1
 62
7
  6
CONTINUOUS
  2
*D11
 70
    65
 10
0.0
 20
0.0
  0
LINE
  8
1
 62
7
  6
CONTINUOUS
 10
515.588004
 20
1101.886667
 11
515.588004
 21
1078.886667
  0
LINE
  8
1
 62
7
  6
CONTINUOUS
 10
505.588004
 20
1101.886667
 11
593.480218
 21
1101.886667
  0
LINE
  8
1
 62
7
  6
CONTINUOUS
 10
505.588004
 20
1078.886667
 11
593.480218
 21
1078.886667
  0
CIRCLE
  8
1
 62
7
  6
CONTINUOUS
 10
515.588004
 20
1101.886667
 40
1.500000
  0
CIRCLE
  8
1
 62
7
  6
CONTINUOUS
 10
515.588004
 20
1101.886667
 40
0.750000
  0
CIRCLE
  8
1
 62
7
  6
CONTINUOUS
 10
515.588004
 20
1078.886667
 40
1.500000
  0
CIRCLE
  8
1
 62
7
  6
CONTINUOUS
 10
515.588004
 20
1078.886667
 40
0.750000
  0
TEXT
  8
1
 62
7
  6
CONTINUOUS
 10
515.588004
 20
1080.386667
 40
20.000000
 41
0.500000
  1
23
  7
KANJI
 50
90.000000
 51
30.000000
  0
ENDBLK
  0
BLOCK
  8
1
 62
7
  6
CONTINUOUS
  2
*D12
 70
    65
 10
0.0
 20
0.0
  0
LINE
  8
1
 62
7
  6
CONTINUOUS
 10
515.588004
 20
1078.886667
 11
515.588004
 21
618.886667
  0
LINE
  8
1
 62
7
  6
CONTINUOUS
 10
505.588004
 20
618.886667
 11
593.480218
 21
618.886667
  0
CIRCLE
  8
1
 62
7
  6
CONTINUOUS
 10
515.588004
 20
618.886667
 40
1.500000
  0
CIRCLE
  8
1
 62
7
  6
CONTINUOUS
 10
515.588004
 20
618.886667
 40
0.750000
  0
TEXT
  8
1
 62
7
  6
CONTINUOUS
 10
515.588004
 20
833.886667
 40
20.000000
 41
0.500000
  1
460
  7
KANJI
 50
90.000000
 51
30.000000
  0
ENDBLK
  0
BLOCK
  8
1
 62
7
  6
CONTINUOUS
  2
*D13
 70
    65
 10
0.0
 20
0.0
  0
LINE
  8
1
 62
7
  6
CONTINUOUS
 10
515.588004
 20
618.886667
 11
515.588004
 21
595.886667
  0
LINE
  8
1
 62
7
  6
CONTINUOUS
 10
505.588004
 20
595.886667
 11
593.480218
 21
595.886667
  0
CIRCLE
  8
1
 62
7
  6
CONTINUOUS
 10
515.588004
 20
595.886667
 40
1.500000
  0
CIRCLE
  8
1
 62
7
  6
CONTINUOUS
 10
515.588004
 20
595.886667
 40
0.750000
  0
TEXT
  8
1
 62
7
  6
CONTINUOUS
 10
515.588004
 20
597.386667
 40
20.000000
 41
0.500000
  1
23
  7
KANJI
 50
90.000000
 51
30.000000
  0
ENDBLK
  0
BLOCK
  8
1
 62
7
  6
CONTINUOUS
  2
*D14
 70
    65
 10
0.0
 20
0.0
  0
LINE
  8
1
 62
7
  6
CONTINUOUS
 10
542.337455
 20
1078.886667
 11
542.337455
 21
1063.886667
  0
LINE
  8
1
 62
7
  6
CONTINUOUS
 10
532.337455
 20
1078.886667
 11
593.480218
 21
1078.886667
  0
LINE
  8
1
 62
7
  6
CONTINUOUS
 10
532.337455
 20
1063.886667
 11
593.480218
 21
1063.886667
  0
CIRCLE
  8
1
 62
7
  6
CONTINUOUS
 10
542.337455
 20
1078.886667
 40
1.500000
  0
CIRCLE
  8
1
 62
7
  6
CONTINUOUS
 10
542.337455
 20
1078.886667
 40
0.750000
  0
CIRCLE
  8
1
 62
7
  6
CONTINUOUS
 10
542.337455
 20
1063.886667
 40
1.500000
  0
CIRCLE
  8
1
 62
7
  6
CONTINUOUS
 10
542.337455
 20
1063.886667
 40
0.750000
  0
TEXT
  8
1
 62
7
  6
CONTINUOUS
 10
542.337455
 20
1061.386667
 40
20.000000
 41
0.500000
  1
15
  7
KANJI
 50
90.000000
 51
30.000000
  0
ENDBLK
  0
BLOCK
  8
1
 62
7
  6
CONTINUOUS
  2
*D15
 70
    65
 10
0.0
 20
0.0
  0
LINE
  8
1
 62
7
  6
CONTINUOUS
 10
542.337455
 20
1063.886667
 11
542.337455
 21
633.886667
  0
LINE
  8
1
 62
7
  6
CONTINUOUS
 10
532.337455
 20
633.886667
 11
593.480218
 21
633.886667
  0
CIRCLE
  8
1
 62
7
  6
CONTINUOUS
 10
542.337455
 20
633.886667
 40
1.500000
  0
CIRCLE
  8
1
 62
7
  6
CONTINUOUS
 10
542.337455
 20
633.886667
 40
0.750000
  0
TEXT
  8
1
 62
7
  6
CONTINUOUS
 10
542.337455
 20
833.886667
 40
20.000000
 41
0.500000
  1
430
  7
KANJI
 50
90.000000
 51
30.000000
  0
ENDBLK
  0
BLOCK
  8
1
 62
7
  6
CONTINUOUS
  2
*D16
 70
    65
 10
0.0
 20
0.0
  0
LINE
  8
1
 62
7
  6
CONTINUOUS
 10
542.337455
 20
633.886667
 11
542.337455
 21
618.886667
  0
LINE
  8
1
 62
7
  6
CONTINUOUS
 10
532.337455
 20
618.886667
 11
593.480218
 21
618.886667
  0
CIRCLE
  8
1
 62
7
  6
CONTINUOUS
 10
542.337455
 20
618.886667
 40
1.500000
  0
CIRCLE
  8
1
 62
7
  6
CONTINUOUS
 10
542.337455
 20
618.886667
 40
0.750000
  0
TEXT
  8
1
 62
7
  6
CONTINUOUS
 10
542.337455
 20
616.386667
 40
20.000000
 41
0.500000
  1
15
  7
KANJI
 50
90.000000
 51
30.000000
  0
ENDBLK
  0
BLOCK
  8
1
 62
7
  6
CONTINUOUS
  2
*D17
 70
    65
 10
0.0
 20
0.0
  0
LINE
  8
1
 62
7
  6
CONTINUOUS
 10
813.480218
 20
286.869406
 11
993.480218
 21
286.869406
  0
LINE
  8
1
 62
7
  6
CONTINUOUS
 10
813.480218
 20
296.869406
 11
813.480218
 21
283.160000
  0
LINE
  8
1
 62
7
  6
CONTINUOUS
 10
993.480218
 20
296.869406
 11
993.480218
 21
283.160000
  0
CIRCLE
  8
1
 62
7
  6
CONTINUOUS
 10
813.480218
 20
286.869406
 40
1.500000
  0
CIRCLE
  8
1
 62
7
  6
CONTINUOUS
 10
813.480218
 20
286.869406
 40
0.750000
  0
CIRCLE
  8
1
 62
7
  6
CONTINUOUS
 10
993.480218
 20
286.869406
 40
1.500000
  0
CIRCLE
  8
1
 62
7
  6
CONTINUOUS
 10
993.480218
 20
286.869406
 40
0.750000
  0
TEXT
  8
1
 62
7
  6
CONTINUOUS
 10
878.480218
 20
286.869406
 40
20.000000
 41
0.625000
  1
180φ
  7
KANJI
 50
0.000000
 51
30.000000
  0
ENDBLK
  0
BLOCK
  8
1
 62
7
  6
CONTINUOUS
  2
*D18
 70
    65
 10
0.0
 20
0.0
  0
LINE
  8
1
 62
7
  6
CONTINUOUS
 10
1337.923228
 20
483.160000
 11
1337.923228
 21
263.160000
  0
LINE
  8
1
 62
7
  6
CONTINUOUS
 10
1347.923228
 20
483.160000
 11
1303.480219
 21
483.160000
  0
LINE
  8
1
 62
7
  6
CONTINUOUS
 10
1347.923228
 20
263.160000
 11
1303.480219
 21
263.160000
  0
CIRCLE
  8
1
 62
7
  6
CONTINUOUS
 10
1337.923228
 20
483.160000
 40
1.500000
  0
CIRCLE
  8
1
 62
7
  6
CONTINUOUS
 10
1337.923228
 20
483.160000
 40
0.750000
  0
CIRCLE
  8
1
 62
7
  6
CONTINUOUS
 10
1337.923228
 20
263.160000
 40
1.500000
  0
CIRCLE
  8
1
 62
7
  6
CONTINUOUS
 10
1337.923228
 20
263.160000
 40
0.750000
  0
TEXT
  8
1
 62
7
  6
CONTINUOUS
 10
1337.923228
 20
358.160000
 40
20.000000
 41
0.500000
  1
210
  7
KANJI
 50
90.000000
 51
30.000000
  0
ENDBLK
  0
BLOCK
  8
1
 62
7
  6
CONTINUOUS
  2
*D19
 70
    65
 10
0.0
 20
0.0
  0
LINE
  8
1
 62
7
  6
CONTINUOUS
 10
1367.245085
 20
483.160000
 11
1367.245085
 21
248.160000
  0
LINE
  8
1
 62
7
  6
CONTINUOUS
 10
1377.245085
 20
483.160000
 11
1303.480219
 21
483.160000
  0
LINE
  8
1
 62
7
  6
CONTINUOUS
 10
1377.245085
 20
248.160000
 11
1303.480219
 21
248.160000
  0
CIRCLE
  8
1
 62
7
  6
CONTINUOUS
 10
1367.245085
 20
483.160000
 40
1.500000
  0
CIRCLE
  8
1
 62
7
  6
CONTINUOUS
 10
1367.245085
 20
483.160000
 40
0.750000
  0
CIRCLE
  8
1
 62
7
  6
CONTINUOUS
 10
1367.245085
 20
248.160000
 40
1.500000
  0
CIRCLE
  8
1
 62
7
  6
CONTINUOUS
 10
1367.245085
 20
248.160000
 40
0.750000
  0
TEXT
  8
1
 62
7
  6
CONTINUOUS
 10
1367.245085
 20
350.660000
 40
20.000000
 41
0.500000
  1
230
  7
KANJI
 50
90.000000
 51
30.000000
  0
ENDBLK
  0
BLOCK
  8
1
 62
7
  6
CONTINUOUS
  2
*D20
 70
    65
 10
0.0
 20
0.0
  0
LINE
  8
1
 62
7
  6
CONTINUOUS
 10
546.296583
 20
488.160000
 11
546.296583
 21
458.160000
  0
LINE
  8
1
 62
7
  6
CONTINUOUS
 10
536.296583
 20
483.160000
 11
593.480218
 21
483.160000
  0
LINE
  8
1
 62
7
  6
CONTINUOUS
 10
536.296583
 20
463.160000
 11
593.480218
 21
463.160000
  0
CIRCLE
  8
1
 62
7
  6
CONTINUOUS
 10
546.296583
 20
483.160000
 40
1.500000
  0
CIRCLE
  8
1
 62
7
  6
CONTINUOUS
 10
546.296583
 20
483.160000
 40
0.750000
  0
CIRCLE
  8
1
 62
7
  6
CONTINUOUS
 10
546.296583
 20
463.160000
 40
1.500000
  0
CIRCLE
  8
1
 62
7
  6
CONTINUOUS
 10
546.296583
 20
463.160000
 40
0.750000
  0
TEXT
  8
1
 62
7
  6
CONTINUOUS
 10
546.296583
 20
463.160000
 40
20.000000
 41
0.500000
  1
20
  7
KANJI
 50
90.000000
 51
30.000000
  0
ENDBLK
  0
BLOCK
  8
1
 62
7
  6
CONTINUOUS
  2
*D21
 70
    65
 10
0.0
 20
0.0
  0
LINE
  8
1
 62
7
  6
CONTINUOUS
 10
1306.972686
 20
488.160000
 11
1306.972686
 21
458.160000
  0
LINE
  8
1
 62
7
  6
CONTINUOUS
 10
1316.972686
 20
483.160000
 11
1213.480218
 21
483.160000
  0
LINE
  8
1
 62
7
  6
CONTINUOUS
 10
1316.972686
 20
463.160000
 11
1213.480218
 21
463.160000
  0
CIRCLE
  8
1
 62
7
  6
CONTINUOUS
 10
1306.972686
 20
483.160000
 40
1.500000
  0
CIRCLE
  8
1
 62
7
  6
CONTINUOUS
 10
1306.972686
 20
483.160000
 40
0.750000
  0
CIRCLE
  8
1
 62
7
  6
CONTINUOUS
 10
1306.972686
 20
463.160000
 40
1.500000
  0
CIRCLE
  8
1
 62
7
  6
CONTINUOUS
 10
1306.972686
 20
463.160000
 40
0.750000
  0
TEXT
  8
1
 62
7
  6
CONTINUOUS
 10
1306.972686
 20
463.160000
 40
20.000000
 41
0.500000
  1
20
  7
KANJI
 50
90.000000
 51
30.000000
  0
ENDBLK
  0
BLOCK
  8
1
 62
7
  6
CONTINUOUS
  2
*D22
 70
    65
 10
0.0
 20
0.0
  0
LINE
  8
1
 62
7
  6
CONTINUOUS
 10
636.375716
 20
354.321735
 11
684.259459
 21
354.321735
  0
CIRCLE
  8
1
 62
7
  6
CONTINUOUS
 10
641.375716
 20
354.321735
 40
1.500000
  0
CIRCLE
  8
1
 62
7
  6
CONTINUOUS
 10
641.375716
 20
354.321735
 40
0.750000
  0
CIRCLE
  8
1
 62
7
  6
CONTINUOUS
 10
651.845767
 20
354.321735
 40
1.500000
  0
CIRCLE
  8
1
 62
7
  6
CONTINUOUS
 10
651.845767
 20
354.321735
 40
0.750000
  0
TEXT
  8
1
 62
7
  6
CONTINUOUS
 10
659.259459
 20
354.321735
 40
20.000000
 41
0.500000
  1
10
  7
KANJI
 50
0.000000
 51
30.000000
  0
ENDBLK
  0
BLOCK
  8
1
 62
7
  6
CONTINUOUS
  2
*D23
 70
    65
 10
0.0
 20
0.0
  0
LINE
  8
1
 62
7
  6
CONTINUOUS
 10
603.480218
 20
522.896476
 11
1203.480218
 21
522.896476
  0
LINE
  8
1
 62
7
  6
CONTINUOUS
 10
603.480218
 20
532.896476
 11
603.480218
 21
493.160000
  0
LINE
  8
1
 62
7
  6
CONTINUOUS
 10
1203.480218
 20
532.896476
 11
1203.480218
 21
493.160000
  0
CIRCLE
  8
1
 62
7
  6
CONTINUOUS
 10
603.480218
 20
522.896476
 40
1.500000
  0
CIRCLE
  8
1
 62
7
  6
CONTINUOUS
 10
603.480218
 20
522.896476
 40
0.750000
  0
CIRCLE
  8
1
 62
7
  6
CONTINUOUS
 10
1203.480218
 20
522.896476
 40
1.500000
  0
CIRCLE
  8
1
 62
7
  6
CONTINUOUS
 10
1203.480218
 20
522.896476
 40
0.750000
  0
TEXT
  8
1
 62
7
  6
CONTINUOUS
 10
888.480218
 20
522.896476
 40
20.000000
 41
0.500000
  1
600
  7
KANJI
 50
0.000000
 51
30.000000
  0
ENDBLK
  0
BLOCK
  8
1
 62
7
  6
CONTINUOUS
  2
*D24
 70
    65
 10
0.0
 20
0.0
  0
LINE
  8
1
 62
7
  6
CONTINUOUS
 10
598.480218
 20
501.149643
 11
631.480218
 21
501.149643
  0
LINE
  8
1
 62
7
  6
CONTINUOUS
 10
603.480218
 20
511.149643
 11
603.480218
 21
493.160000
  0
LINE
  8
1
 62
7
  6
CONTINUOUS
 10
626.480218
 20
511.149643
 11
626.480218
 21
493.160000
  0
CIRCLE
  8
1
 62
7
  6
CONTINUOUS
 10
603.480218
 20
501.149643
 40
1.500000
  0
CIRCLE
  8
1
 62
7
  6
CONTINUOUS
 10
603.480218
 20
501.149643
 40
0.750000
  0
CIRCLE
  8
1
 62
7
  6
CONTINUOUS
 10
626.480218
 20
501.149643
 40
1.500000
  0
CIRCLE
  8
1
 62
7
  6
CONTINUOUS
 10
626.480218
 20
501.149643
 40
0.750000
  0
TEXT
  8
1
 62
7
  6
CONTINUOUS
 10
604.980218
 20
501.149643
 40
20.000000
 41
0.500000
  1
23
  7
KANJI
 50
0.000000
 51
30.000000
  0
ENDBLK
  0
BLOCK
  8
1
 62
7
  6
CONTINUOUS
  2
*D25
 70
    65
 10
0.0
 20
0.0
  0
LINE
  8
1
 62
7
  6
CONTINUOUS
 10
621.480218
 20
501.149643
 11
646.480218
 21
501.149643
  0
LINE
  8
1
 62
7
  6
CONTINUOUS
 10
626.480218
 20
511.149643
 11
626.480218
 21
493.160000
  0
LINE
  8
1
 62
7
  6
CONTINUOUS
 10
641.480218
 20
511.149643
 11
641.480218
 21
493.160000
  0
CIRCLE
  8
1
 62
7
  6
CONTINUOUS
 10
626.480218
 20
501.149643
 40
1.500000
  0
CIRCLE
  8
1
 62
7
  6
CONTINUOUS
 10
626.480218
 20
501.149643
 40
0.750000
  0
CIRCLE
  8
1
 62
7
  6
CONTINUOUS
 10
641.480218
 20
501.149643
 40
1.500000
  0
CIRCLE
  8
1
 62
7
  6
CONTINUOUS
 10
641.480218
 20
501.149643
 40
0.750000
  0
TEXT
  8
1
 62
7
  6
CONTINUOUS
 10
623.980218
 20
501.149643
 40
20.000000
 41
0.500000
  1
15
  7
KANJI
 50
0.000000
 51
30.000000
  0
ENDBLK
  0
BLOCK
  8
1
 62
7
  6
CONTINUOUS
  2
*D26
 70
    65
 10
0.0
 20
0.0
  0
LINE
  8
1
 62
7
  6
CONTINUOUS
 10
697.595012
 20
458.160000
 11
697.595012
 21
488.160000
  0
LINE
  8
1
 62
7
  6
CONTINUOUS
 10
707.595012
 20
463.160000
 11
659.643078
 21
463.160000
  0
LINE
  8
1
 62
7
  6
CONTINUOUS
 10
707.595012
 20
483.160000
 11
659.643078
 21
483.160000
  0
CIRCLE
  8
1
 62
7
  6
CONTINUOUS
 10
697.595012
 20
463.160000
 40
1.500000
  0
CIRCLE
  8
1
 62
7
  6
CONTINUOUS
 10
697.595012
 20
463.160000
 40
0.750000
  0
CIRCLE
  8
1
 62
7
  6
CONTINUOUS
 10
697.595012
 20
483.160000
 40
1.500000
  0
CIRCLE
  8
1
 62
7
  6
CONTINUOUS
 10
697.595012
 20
483.160000
 40
0.750000
  0
TEXT
  8
1
 62
7
  6
CONTINUOUS
 10
697.595012
 20
463.160000
 40
20.000000
 41
0.500000
  1
20
  7
KANJI
 50
90.000000
 51
30.000000
  0
ENDBLK
  0
BLOCK
  8
1
 62
7
  6
CONTINUOUS
  2
*D27
 70
    65
 10
0.0
 20
0.0
  0
LINE
  8
1
 62
7
  6
CONTINUOUS
 10
1473.332533
 20
1154.698885
 11
1503.332533
 21
1154.698885
  0
LINE
  8
1
 62
7
  6
CONTINUOUS
 10
1478.332533
 20
1164.698885
 11
1478.332533
 21
1111.886667
  0
LINE
  8
1
 62
7
  6
CONTINUOUS
 10
1498.332533
 20
1164.698885
 11
1498.332533
 21
1111.886667
  0
CIRCLE
  8
1
 62
7
  6
CONTINUOUS
 10
1478.332533
 20
1154.698885
 40
1.500000
  0
CIRCLE
  8
1
 62
7
  6
CONTINUOUS
 10
1478.332533
 20
1154.698885
 40
0.750000
  0
CIRCLE
  8
1
 62
7
  6
CONTINUOUS
 10
1498.332533
 20
1154.698885
 40
1.500000
  0
CIRCLE
  8
1
 62
7
  6
CONTINUOUS
 10
1498.332533
 20
1154.698885
 40
0.750000
  0
TEXT
  8
1
 62
7
  6
CONTINUOUS
 10
1478.332533
 20
1154.698885
 40
20.000000
 41
0.500000
  1
20
  7
KANJI
 50
0.000000
 51
30.000000
  0
ENDBLK
  0
BLOCK
  8
1
 62
7
  6
CONTINUOUS
  2
*D28
 70
    65
 10
0.0
 20
0.0
  0
LINE
  8
1
 62
7
  6
CONTINUOUS
 10
1048.480216
 20
1101.886667
 11
1048.480216
 21
948.386667
  0
LINE
  8
1
 62
7
  6
CONTINUOUS
 10
1058.480216
 20
1101.886667
 11
1003.480219
 21
1101.886667
  0
LINE
  8
1
 62
7
  6
CONTINUOUS
 10
1058.480216
 20
948.386667
 11
1003.480219
 21
948.386667
  0
CIRCLE
  8
1
 62
7
  6
CONTINUOUS
 10
1048.480216
 20
1101.886667
 40
1.500000
  0
CIRCLE
  8
1
 62
7
  6
CONTINUOUS
 10
1048.480216
 20
1101.886667
 40
0.750000
  0
CIRCLE
  8
1
 62
7
  6
CONTINUOUS
 10
1048.480216
 20
948.386667
 40
1.500000
  0
CIRCLE
  8
1
 62
7
  6
CONTINUOUS
 10
1048.480216
 20
948.386667
 40
0.750000
  0
TEXT
  8
1
 62
7
  6
CONTINUOUS
 10
1048.480216
 20
1010.136667
 40
20.000000
 41
0.500000
  1
155
  7
KANJI
 50
90.000000
 51
30.000000
  0
ENDBLK
  0
ENDSEC
  0
SECTION
  2
ENTITIES
  0
TEXT
  8
1
 62
7
  6
CONTINUOUS
 10
39.900000
 20
144.259375
 40
24.750000
 41
0.800000
  1
取引先：
  7
KANJI
 50
0.000000
 51
0.000000
  0
TEXT
  8
1
 62
7
  6
CONTINUOUS
 10
119.100000
 20
156.634375
 40
12.375000
 41
0.400000
  1

  7
KANJI
 50
0.000000
 51
0.000000
  0
TEXT
  8
1
 62
7
  6
CONTINUOUS
 10
119.100000
 20
144.259375
 40
12.375000
 41
0.400000
  1

  7
KANJI
 50
0.000000
 51
0.000000
  0
TEXT
  8
1
 62
7
  6
CONTINUOUS
 10
39.900000
 20
94.759375
 40
24.750000
 41
0.800000
  1
物件名：
  7
KANJI
 50
0.000000
 51
0.000000
  0
TEXT
  8
1
 62
7
  6
CONTINUOUS
 10
119.100000
 20
107.134375
 40
12.375000
 41
0.400000
  1

  7
KANJI
 50
0.000000
 51
0.000000
  0
TEXT
  8
1
 62
7
  6
CONTINUOUS
 10
119.100000
 20
94.759375
 40
12.375000
 41
0.400000
  1

  7
KANJI
 50
0.000000
 51
0.000000
  0
TEXT
  8
1
 62
7
  6
CONTINUOUS
 10
39.900000
 20
45.259375
 40
24.750000
 41
0.700000
  1
納 期：
  7
KANJI
 50
0.000000
 51
0.000000
  0
TEXT
  8
1
 62
7
  6
CONTINUOUS
 10
109.200000
 20
57.634375
 40
12.375000
 41
0.400000
  1

  7
KANJI
 50
0.000000
 51
0.000000
  0
TEXT
  8
1
 62
7
  6
CONTINUOUS
 10
109.200000
 20
45.259375
 40
12.375000
 41
0.400000
  1

  7
KANJI
 50
0.000000
 51
0.000000
  0
LINE
  8
1
 62
7
  6
CONTINUOUS
 10
30.000000
 20
188.500000
 11
30.000000
 21
40.000000
  0
LINE
  8
1
 62
7
  6
CONTINUOUS
 10
30.000000
 20
188.500000
 11
327.000000
 21
188.500000
  0
LINE
  8
1
 62
7
  6
CONTINUOUS
 10
327.000000
 20
188.500000
 11
327.000000
 21
139.000000
  0
LINE
  8
1
 62
7
  6
CONTINUOUS
 10
327.000000
 20
139.000000
 11
30.000000
 21
139.000000
  0
LINE
  8
1
 62
7
  6
CONTINUOUS
 10
30.000000
 20
139.000000
 11
30.000000
 21
89.500000
  0
LINE
  8
1
 62
7
  6
CONTINUOUS
 10
30.000000
 20
89.500000
 11
327.000000
 21
89.500000
  0
LINE
  8
1
 62
7
  6
CONTINUOUS
 10
327.000000
 20
89.500000
 11
327.000000
 21
139.000000
  0
LINE
  8
1
 62
7
  6
CONTINUOUS
 10
327.000000
 20
139.000000
 11
327.000000
 21
40.000000
  0
LINE
  8
1
 62
7
  6
CONTINUOUS
 10
327.000000
 20
40.000000
 11
30.000000
 21
40.000000
  0
TEXT
  8
1
 62
7
  6
CONTINUOUS
 10
341.850000
 20
144.259375
 40
24.750000
 41
0.800000
  1
　色柄：
  7
KANJI
 50
0.000000
 51
0.000000
  0
TEXT
  8
1
 62
7
  6
CONTINUOUS
 10
421.050000
 20
156.634375
 40
12.375000
 41
0.400000
  1

  7
KANJI
 50
0.000000
 51
0.000000
  0
TEXT
  8
1
 62
7
  6
CONTINUOUS
 10
421.050000
 20
144.259375
 40
12.375000
 41
0.400000
  1

  7
KANJI
 50
0.000000
 51
0.000000
  0
TEXT
  8
1
 62
7
  6
CONTINUOUS
 10
341.850000
 20
94.759375
 40
24.750000
 41
0.800000
  1
　厚み：
  7
KANJI
 50
0.000000
 51
0.000000
  0
TEXT
  8
1
 62
7
  6
CONTINUOUS
 10
421.050000
 20
107.134375
 40
12.375000
 41
0.400000
  1

  7
KANJI
 50
0.000000
 51
0.000000
  0
TEXT
  8
1
 62
7
  6
CONTINUOUS
 10
421.050000
 20
94.759375
 40
12.375000
 41
0.400000
  1

  7
KANJI
 50
0.000000
 51
0.000000
  0
TEXT
  8
1
 62
7
  6
CONTINUOUS
 10
341.850000
 20
45.259375
 40
24.750000
 41
0.800000
  1
付属品：
  7
KANJI
 50
0.000000
 51
0.000000
  0
TEXT
  8
1
 62
7
  6
CONTINUOUS
 10
421.050000
 20
57.634375
 40
12.375000
 41
0.400000
  1

  7
KANJI
 50
0.000000
 51
0.000000
  0
TEXT
  8
1
 62
7
  6
CONTINUOUS
 10
421.050000
 20
45.259375
 40
12.375000
 41
0.400000
  1

  7
KANJI
 50
0.000000
 51
0.000000
  0
LINE
  8
1
 62
7
  6
CONTINUOUS
 10
429.073950
 20
40.000000
 11
429.073950
 21
188.500000
  0
TEXT
  8
1
 62
7
  6
CONTINUOUS
 10
438.973950
 20
164.987500
 40
19.800000
 41
1.000000
  1
単色シリーズ
  7
KANJI
 50
0.000000
 51
0.000000
  0
TEXT
  8
1
 62
7
  6
CONTINUOUS
 10
557.773950
 20
174.887500
 40
9.900000
 41
0.500000
  1

  7
KANJI
 50
0.000000
 51
0.000000
  0
TEXT
  8
1
 62
7
  6
CONTINUOUS
 10
557.773950
 20
164.987500
 40
9.900000
 41
0.500000
  1

  7
KANJI
 50
0.000000
 51
0.000000
  0
LINE
  8
1
 62
7
  6
CONTINUOUS
 10
1615.489950
 20
40.000000
 11
1615.489950
 21
188.500000
  0
TEXT
  8
1
 62
7
  6
CONTINUOUS
 10
1235.923950
 20
94.759375
 40
24.750000
 41
0.800000
  1
埼玉県比企郡川島町表２１－５
  7
KANJI
 50
0.000000
 51
0.000000
  0
TEXT
  8
1
 62
7
  6
CONTINUOUS
 10
1513.123950
 20
107.134375
 40
12.375000
 41
0.400000
  1

  7
KANJI
 50
0.000000
 51
0.000000
  0
TEXT
  8
1
 62
7
  6
CONTINUOUS
 10
1513.123950
 20
94.759375
 40
12.375000
 41
0.400000
  1

  7
KANJI
 50
0.000000
 51
0.000000
  0
TEXT
  8
1
 62
7
  6
CONTINUOUS
 10
1235.923950
 20
70.009375
 40
24.750000
 41
0.647059
  1
  TEL ０４９２－９７－７２７１
  7
KANJI
 50
0.000000
 51
0.000000
  0
TEXT
  8
1
 62
7
  6
CONTINUOUS
 10
1495.798950
 20
82.384375
 40
12.375000
 41
0.388235
  1

  7
KANJI
 50
0.000000
 51
0.000000
  0
TEXT
  8
1
 62
7
  6
CONTINUOUS
 10
1495.798950
 20
70.009375
 40
12.375000
 41
0.388235
  1

  7
KANJI
 50
0.000000
 51
0.000000
  0
TEXT
  8
1
 62
7
  6
CONTINUOUS
 10
1235.923950
 20
45.259375
 40
24.750000
 41
0.647059
  1
  FAX ０４９２－９７－７２７３
  7
KANJI
 50
0.000000
 51
0.000000
  0
TEXT
  8
1
 62
7
  6
CONTINUOUS
 10
1495.798950
 20
57.634375
 40
12.375000
 41
0.388235
  1

  7
KANJI
 50
0.000000
 51
0.000000
  0
TEXT
  8
1
 62
7
  6
CONTINUOUS
 10
1495.798950
 20
45.259375
 40
12.375000
 41
0.388235
  1

  7
KANJI
 50
0.000000
 51
0.000000
  0
TEXT
  8
1
 62
7
  6
CONTINUOUS
 10
1235.923950
 20
117.653125
 40
34.650000
 41
1.285714
  1
㈱三井ＰＣＯ
  7
KANJI
 50
0.000000
 51
0.000000
  0
TEXT
  8
1
 62
7
  6
CONTINUOUS
 10
1468.573950
 20
134.978125
 40
17.325000
 41
0.642857
  1

  7
KANJI
 50
0.000000
 51
0.000000
  0
TEXT
  8
1
 62
7
  6
CONTINUOUS
 10
1468.573950
 20
117.653125
 40
17.325000
 41
0.642857
  1

  7
KANJI
 50
0.000000
 51
0.000000
  0
LINE
  8
1
 62
7
  6
CONTINUOUS
 10
429.073950
 20
188.500000
 11
578.420400
 21
188.500000
  0
LINE
  8
1
 62
7
  6
CONTINUOUS
 10
578.420400
 20
188.500000
 11
722.960400
 21
188.500000
  0
LINE
  8
1
 62
7
  6
CONTINUOUS
 10
722.960400
 20
188.500000
 11
872.851350
 21
188.500000
  0
LINE
  8
1
 62
7
  6
CONTINUOUS
 10
872.851350
 20
40.000000
 11
429.073950
 21
40.000000
  0
LINE
  8
1
 62
7
  6
CONTINUOUS
 10
429.073950
 20
139.000000
 11
872.851350
 21
139.000000
  0
LINE
  8
1
 62
7
  6
CONTINUOUS
 10
872.851350
 20
89.500000
 11
429.073950
 21
89.500000
  0
LINE
  8
1
 62
7
  6
CONTINUOUS
 10
578.420400
 20
188.500000
 11
578.420400
 21
89.500000
  0
LINE
  8
1
 62
7
  6
CONTINUOUS
 10
906.348000
 20
139.000000
 11
872.851350
 21
139.000000
  0
LINE
  8
1
 62
7
  6
CONTINUOUS
 10
872.851350
 20
139.000000
 11
906.348000
 21
139.000000
  0
LINE
  8
1
 62
7
  6
CONTINUOUS
 10
906.348000
 20
89.500000
 11
872.851350
 21
89.500000
  0
LINE
  8
1
 62
7
  6
CONTINUOUS
 10
872.851350
 20
89.500000
 11
906.348000
 21
89.500000
  0
LINE
  8
1
 62
7
  6
CONTINUOUS
 10
578.420400
 20
89.500000
 11
578.420400
 21
40.000000
  0
LINE
  8
1
 62
7
  6
CONTINUOUS
 10
872.851350
 20
188.500000
 11
906.348000
 21
188.500000
  0
LINE
  8
1
 62
7
  6
CONTINUOUS
 10
906.348000
 20
40.000000
 11
872.851350
 21
40.000000
  0
LINE
  8
1
 62
7
  6
CONTINUOUS
 10
1129.098000
 20
188.500000
 11
1129.098000
 21
40.000000
  0
LINE
  8
1
 62
7
  6
CONTINUOUS
 10
1129.098000
 20
40.000000
 11
1615.489950
 21
40.000000
  0
LINE
  8
1
 62
7
  6
CONTINUOUS
 10
1615.489950
 20
188.500000
 11
1129.098000
 21
188.500000
  0
LINE
  8
1
 62
7
  6
CONTINUOUS
 10
906.348000
 20
188.500000
 11
1121.673000
 21
188.500000
  0
LINE
  8
1
 62
7
  6
CONTINUOUS
 10
1121.673000
 20
188.500000
 11
1121.673000
 21
40.000000
  0
LINE
  8
1
 62
7
  6
CONTINUOUS
 10
1121.673000
 20
40.000000
 11
906.348000
 21
40.000000
  0
LINE
  8
1
 62
7
  6
CONTINUOUS
 10
906.348000
 20
139.000000
 11
1121.673000
 21
139.000000
  0
LINE
  8
1
 62
7
  6
CONTINUOUS
 10
1121.673000
 20
89.500000
 11
906.348000
 21
89.500000
  0
TEXT
  8
1
 62
7
  6
CONTINUOUS
 10
931.360845
 20
164.987500
 40
19.800000
 41
1.000000
  1
モンタナシリーズ
  7
KANJI
 50
0.000000
 51
0.000000
  0
TEXT
  8
1
 62
7
  6
CONTINUOUS
 10
1089.760845
 20
174.887500
 40
9.900000
 41
0.500000
  1

  7
KANJI
 50
0.000000
 51
0.000000
  0
TEXT
  8
1
 62
7
  6
CONTINUOUS
 10
1089.760845
 20
164.987500
 40
9.900000
 41
0.500000
  1

  7
KANJI
 50
0.000000
 51
0.000000
  0
TEXT
  8
1
 62
7
  6
CONTINUOUS
 10
755.473485
 20
164.987500
 40
19.800000
 41
1.000000
  1
シエラシリーズ
  7
KANJI
 50
0.000000
 51
0.000000
  0
TEXT
  8
1
 62
7
  6
CONTINUOUS
 10
894.073485
 20
174.887500
 40
9.900000
 41
0.500000
  1

  7
KANJI
 50
0.000000
 51
0.000000
  0
TEXT
  8
1
 62
7
  6
CONTINUOUS
 10
894.073485
 20
164.987500
 40
9.900000
 41
0.500000
  1

  7
KANJI
 50
0.000000
 51
0.000000
  0
LINE
  8
1
 62
7
  6
CONTINUOUS
 10
919.192260
 20
188.500000
 11
919.192260
 21
40.000000
  0
TEXT
  8
1
 62
7
  6
CONTINUOUS
 10
588.320400
 20
161.275000
 40
19.800000
 41
1.000000
  1
ベナーロシリーズ
  7
KANJI
 50
0.000000
 51
0.000000
  0
TEXT
  8
1
 62
7
  6
CONTINUOUS
 10
746.720400
 20
171.175000
 40
9.900000
 41
0.500000
  1

  7
KANJI
 50
0.000000
 51
0.000000
  0
TEXT
  8
1
 62
7
  6
CONTINUOUS
 10
746.720400
 20
161.275000
 40
9.900000
 41
0.500000
  1

  7
KANJI
 50
0.000000
 51
0.000000
  0
LINE
  8
1
 62
7
  6
CONTINUOUS
 10
749.190450
 20
188.500000
 11
749.190450
 21
40.000000
  0
TEXT
  8
1
 62
7
  6
CONTINUOUS
 10
429.073950
 20
48.380350
 40
24.750000
 41
0.800000
  1
シーム剤  本
  7
KANJI
 50
0.000000
 51
0.000000
  0
TEXT
  8
1
 62
7
  6
CONTINUOUS
 10
557.773950
 20
60.755350
 40
12.375000
 41
0.466667
  1

  7
KANJI
 50
0.000000
 51
0.000000
  0
TEXT
  8
1
 62
7
  6
CONTINUOUS
 10
557.773950
 20
48.380350
 40
12.375000
 41
0.466667
  1

  7
KANJI
 50
0.000000
 51
0.000000
  0
TEXT
  8
1
 62
7
  6
CONTINUOUS
 10
924.142260
 20
52.589335
 40
24.750000
 41
1.000000
  1
梱包個数　　梱
  7
KANJI
 50
0.000000
 51
0.000000
  0
TEXT
  8
1
 62
7
  6
CONTINUOUS
 10
1097.392260
 20
64.964335
 40
12.375000
 41
0.500000
  1

  7
KANJI
 50
0.000000
 51
0.000000
  0
TEXT
  8
1
 62
7
  6
CONTINUOUS
 10
1097.392260
 20
52.589335
 40
12.375000
 41
0.500000
  1

  7
KANJI
 50
0.000000
 51
0.000000
  0
TEXT
  8
1
 62
7
  6
CONTINUOUS
 10
735.879900
 20
52.271050
 40
24.750000
 41
0.746667
  1
 断熱テープ   本
  7
KANJI
 50
0.000000
 51
0.000000
  0
TEXT
  8
1
 62
7
  6
CONTINUOUS
 10
900.467400
 20
64.646050
 40
12.375000
 41
0.466667
  1

  7
KANJI
 50
0.000000
 51
0.000000
  0
TEXT
  8
1
 62
7
  6
CONTINUOUS
 10
900.467400
 20
52.271050
 40
12.375000
 41
0.466667
  1

  7
KANJI
 50
0.000000
 51
0.000000
  0
TEXT
  8
1
 62
7
  6
CONTINUOUS
 10
583.370400
 20
47.910595
 40
24.750000
 41
0.656250
  1
瞬間接着剤 　本
  7
KANJI
 50
0.000000
 51
0.000000
  0
TEXT
  8
1
 62
7
  6
CONTINUOUS
 10
713.307900
 20
60.285595
 40
12.375000
 41
0.350000
  1

  7
KANJI
 50
0.000000
 51
0.000000
  0
TEXT
  8
1
 62
7
  6
CONTINUOUS
 10
713.307900
 20
47.910595
 40
12.375000
 41
0.350000
  1

  7
KANJI
 50
0.000000
 51
0.000000
  0
TEXT
  8
1
 62
7
  6
CONTINUOUS
 10
438.973950
 20
97.234375
 40
24.750000
 41
1.041667
  1
   ㎜
  7
KANJI
 50
0.000000
 51
0.000000
  0
TEXT
  8
1
 62
7
  6
CONTINUOUS
 10
525.598950
 20
109.609375
 40
12.375000
 41
0.833333
  1

  7
KANJI
 50
0.000000
 51
0.000000
  0
TEXT
  8
1
 62
7
  6
CONTINUOUS
 10
525.598950
 20
97.234375
 40
12.375000
 41
0.833333
  1

  7
KANJI
 50
0.000000
 51
0.000000
  0
TEXT
  8
1
 62
7
  6
CONTINUOUS
 10
588.320400
 20
97.234375
 40
24.750000
 41
1.041667
  1
   ㎜
  7
KANJI
 50
0.000000
 51
0.000000
  0
TEXT
  8
1
 62
7
  6
CONTINUOUS
 10
674.945400
 20
109.609375
 40
12.375000
 41
0.833333
  1

  7
KANJI
 50
0.000000
 51
0.000000
  0
TEXT
  8
1
 62
7
  6
CONTINUOUS
 10
674.945400
 20
97.234375
 40
12.375000
 41
0.833333
  1

  7
KANJI
 50
0.000000
 51
0.000000
  0
TEXT
  8
1
 62
7
  6
CONTINUOUS
 10
755.473485
 20
97.234375
 40
24.750000
 41
1.041667
  1
   ㎜
  7
KANJI
 50
0.000000
 51
0.000000
  0
TEXT
  8
1
 62
7
  6
CONTINUOUS
 10
842.098485
 20
109.609375
 40
12.375000
 41
0.833333
  1

  7
KANJI
 50
0.000000
 51
0.000000
  0
TEXT
  8
1
 62
7
  6
CONTINUOUS
 10
842.098485
 20
97.234375
 40
12.375000
 41
0.833333
  1

  7
KANJI
 50
0.000000
 51
0.000000
  0
TEXT
  8
1
 62
7
  6
CONTINUOUS
 10
924.142260
 20
97.234375
 40
24.750000
 41
1.050000
  1
    ㎜
  7
KANJI
 50
0.000000
 51
0.000000
  0
TEXT
  8
1
 62
7
  6
CONTINUOUS
 10
1035.517260
 20
109.609375
 40
12.375000
 41
0.875000
  1

  7
KANJI
 50
0.000000
 51
0.000000
  0
TEXT
  8
1
 62
7
  6
CONTINUOUS
 10
1035.517260
 20
97.234375
 40
12.375000
 41
0.875000
  1

  7
KANJI
 50
0.000000
 51
0.000000
  0
TEXT
  8
1
 62
7
  6
CONTINUOUS
 10
1138.998000
 20
159.109375
 40
24.750000
 41
0.800000
  1
デュポンコーリアン認定加工／施工工場　　Ｍｐｃｏ　
  7
KANJI
 50
0.000000
 51
0.000000
  0
TEXT
  8
1
 62
7
  6
CONTINUOUS
 10
1633.998000
 20
171.484375
 40
12.375000
 41
0.400000
  1

  7
KANJI
 50
0.000000
 51
0.000000
  0
TEXT
  8
1
 62
7
  6
CONTINUOUS
 10
1633.998000
 20
159.109375
 40
12.375000
 41
0.400000
  1

  7
KANJI
 50
0.000000
 51
0.000000
  0
LINE
  8
1
 62
7
  6
CONTINUOUS
 10
1622.914950
 20
40.000000
 11
1734.473100
 21
40.000000
  0
TEXT
  8
1
 62
7
  6
CONTINUOUS
 10
1627.864950
 20
95.378125
 40
34.650000
 41
0.714286
  1
図面番号
  7
KANJI
 50
0.000000
 51
0.000000
  0
TEXT
  8
1
 62
7
  6
CONTINUOUS
 10
1726.864950
 20
112.703125
 40
17.325000
 41
0.357143
  1

  7
KANJI
 50
0.000000
 51
0.000000
  0
TEXT
  8
1
 62
7
  6
CONTINUOUS
 10
1726.864950
 20
95.378125
 40
17.325000
 41
0.357143
  1

  7
KANJI
 50
0.000000
 51
0.000000
  0
LINE
  8
1
 62
7
  6
CONTINUOUS
 10
1622.914950
 20
139.000000
 11
1622.914950
 21
40.000000
  0
LINE
  8
1
 62
7
  6
CONTINUOUS
 10
1622.914950
 20
40.000000
 11
1734.473100
 21
40.000000
  0
LINE
  8
1
 62
7
  6
CONTINUOUS
 10
1734.473100
 20
40.000000
 11
1734.473100
 21
139.000000
  0
LINE
  8
1
 62
7
  6
CONTINUOUS
 10
1734.473100
 20
139.000000
 11
1622.914950
 21
139.000000
  0
LINE
  8
1
 62
7
  6
CONTINUOUS
 10
1622.914950
 20
139.000000
 11
1622.914950
 21
188.500000
  0
LINE
  8
1
 62
7
  6
CONTINUOUS
 10
1622.914950
 20
188.500000
 11
1734.473100
 21
188.500000
  0
LINE
  8
1
 62
7
  6
CONTINUOUS
 10
1734.473100
 20
188.500000
 11
1734.473100
 21
139.000000
  0
TEXT
  8
1
 62
7
  6
CONTINUOUS
 10
1627.864950
 20
161.275000
 40
19.800000
 41
0.875000
  1
CAD-NO
  7
KANJI
 50
0.000000
 51
0.000000
  0
TEXT
  8
1
 62
7
  6
CONTINUOUS
 10
1723.152450
 20
171.175000
 40
9.900000
 41
0.875000
  1

  7
KANJI
 50
0.000000
 51
0.000000
  0
TEXT
  8
1
 62
7
  6
CONTINUOUS
 10
1723.152450
 20
161.275000
 40
9.900000
 41
0.875000
  1

  7
KANJI
 50
0.000000
 51
0.000000
  0
DIMENSION
  8
1
 62
7
  6
CONTINUOUS
  2
*D1
 10
1478.332533
 20
1188.250729
 11
1593.332533
 21
1188.250729
 70
     0
  1
230
 13
1478.332533
 23
1124.886667
 14
1708.332533
 24
1124.886667
 50
0.000000
  0
CIRCLE
  8
1
 62
7
  6
DOT
 10
903.480220
 20
946.886667
 40
80.000000
  0
CIRCLE
  8
1
 62
7
  6
CONTINUOUS
 10
903.480219
 20
946.886667
 40
80.000000
  0
CIRCLE
  8
1
 62
7
  6
CONTINUOUS
 10
903.480219
 20
946.886667
 40
90.000000
  0
LINE
  8
1
 62
7
  6
CONTINUOUS
 10
1070.480218
 20
618.886667
 11
736.480218
 21
618.886667
  0
ARC
  8
1
 62
7
  6
CONTINUOUS
 10
656.480218
 20
1048.886667
 40
53.000000
 50
90.000000
 51
180.000000
  0
LINE
  8
1
 62
7
  6
CONTINUOUS
 10
1150.480218
 20
1101.886667
 11
656.480218
 21
1101.886667
  0
ARC
  8
1
 62
7
  6
CONTINUOUS
 10
1150.480218
 20
1048.886667
 40
53.000000
 50
0.000000
 51
90.000000
  0
LINE
  8
1
 62
7
  6
CONTINUOUS
 10
1203.480218
 20
648.886667
 11
1203.480218
 21
1048.886667
  0
ARC
  8
1
 62
7
  6
CONTINUOUS
 10
1150.480218
 20
648.886667
 40
53.000000
 50
-90.000000
 51
0.000000
  0
LINE
  8
1
 62
7
  6
CONTINUOUS
 10
603.480218
 20
1048.886667
 11
603.480218
 21
648.886667
  0
LINE
  8
1
 62
7
  6
CONTINUOUS
 10
656.480218
 20
595.886667
 11
1150.480218
 21
595.886667
  0
ARC
  8
1
 62
7
  6
CONTINUOUS
 10
656.480218
 20
648.886667
 40
53.000000
 50
180.000000
 51
-90.000000
  0
LINE
  8
1
 62
7
  6
CONTINUOUS
 10
736.480218
 20
633.886667
 11
1070.480218
 21
633.886667
  0
ARC
  8
1
 62
7
  6
CONTINUOUS
 10
841.480218
 20
863.886667
 40
200.000000
 50
90.000000
 51
180.000000
  0
LINE
  8
1
 62
7
  6
CONTINUOUS
 10
965.480218
 20
1063.886667
 11
841.480218
 21
1063.886667
  0
ARC
  8
1
 62
7
  6
CONTINUOUS
 10
965.480218
 20
863.886667
 40
200.000000
 50
0.000000
 51
90.000000
  0
DIMENSION
  8
1
 62
7
  6
CONTINUOUS
  2
*D2
 10
813.480219
 20
946.886667
 11
903.480219
 21
946.886667
 70
     0
  1
180φ
 13
813.480219
 23
946.886667
 14
993.480220
 24
946.886667
 50
0.000000
  0
DIMENSION
  8
1
 62
7
  6
CONTINUOUS
  2
*D3
 10
603.480218
 20
1209.886667
 11
903.480218
 21
1209.886667
 70
     0
  1
600
 13
603.480218
 23
1111.886667
 14
1203.480218
 24
1111.886668
 50
0.000000
  0
DIMENSION
  8
1
 62
7
  6
CONTINUOUS
  2
*D4
 10
603.480218
 20
1189.886667
 11
614.980218
 21
1189.886667
 70
     0
  1
23
 13
603.480218
 23
1111.886667
 14
626.480218
 24
1111.886667
 50
0.000000
  0
DIMENSION
  8
1
 62
7
  6
CONTINUOUS
  2
*D5
 10
626.480218
 20
1189.886667
 11
903.480218
 21
1189.886667
 70
     0
  1
554
 13
626.480218
 23
1189.886667
 14
1180.480218
 24
1111.886667
 50
0.000000
  0
DIMENSION
  8
1
 62
7
  6
CONTINUOUS
  2
*D6
 10
1180.480218
 20
1189.886667
 11
1191.980218
 21
1189.886667
 70
     0
  1
23
 13
1180.480218
 23
1189.886667
 14
1203.480218
 24
1111.886667
 50
0.000000
  0
DIMENSION
  8
1
 62
7
  6
CONTINUOUS
  2
*D7
 10
626.480218
 20
1168.928874
 11
633.980218
 21
1168.928874
 70
     0
  1
15
 13
626.480218
 23
1111.886667
 14
641.480218
 24
1111.886667
 50
0.000000
  0
DIMENSION
  8
1
 62
7
  6
CONTINUOUS
  2
*D8
 10
641.480218
 20
1168.928874
 11
903.480218
 21
1168.928874
 70
     0
  1
524
 13
641.480218
 23
1168.928874
 14
1165.480218
 24
1111.886667
 50
0.000000
  0
DIMENSION
  8
1
 62
7
  6
CONTINUOUS
  2
*D9
 10
1165.480218
 20
1168.928874
 11
1172.980218
 21
1168.928874
 70
     0
  1
15
 13
1165.480218
 23
1168.928874
 14
1180.480218
 24
1111.886667
 50
0.000000
  0
DIMENSION
  8
1
 62
7
  6
CONTINUOUS
  2
*D10
 10
490.798611
 20
1101.886667
 11
490.798611
 21
848.886667
 70
     0
  1
506
 13
593.480218
 23
1101.886667
 14
593.480218
 24
595.886667
 50
-90.000000
  0
DIMENSION
  8
1
 62
7
  6
CONTINUOUS
  2
*D11
 10
515.588004
 20
1101.886667
 11
515.588004
 21
1090.386667
 70
     0
  1
23
 13
593.480218
 23
1101.886667
 14
593.480218
 24
1078.886667
 50
-90.000000
  0
DIMENSION
  8
1
 62
7
  6
CONTINUOUS
  2
*D12
 10
515.588004
 20
1078.886667
 11
515.588004
 21
848.886667
 70
     0
  1
460
 13
515.588004
 23
1078.886667
 14
593.480218
 24
618.886667
 50
-90.000000
  0
DIMENSION
  8
1
 62
7
  6
CONTINUOUS
  2
*D13
 10
515.588004
 20
618.886667
 11
515.588004
 21
607.386667
 70
     0
  1
23
 13
515.588004
 23
618.886667
 14
593.480218
 24
595.886667
 50
-90.000000
  0
DIMENSION
  8
1
 62
7
  6
CONTINUOUS
  2
*D14
 10
542.337455
 20
1078.886667
 11
542.337455
 21
1071.386667
 70
     0
  1
15
 13
593.480218
 23
1078.886667
 14
593.480218
 24
1063.886667
 50
-90.000000
  0
DIMENSION
  8
1
 62
7
  6
CONTINUOUS
  2
*D15
 10
542.337455
 20
1063.886667
 11
542.337455
 21
848.886667
 70
     0
  1
430
 13
542.337455
 23
1063.886667
 14
593.480218
 24
633.886667
 50
-90.000000
  0
DIMENSION
  8
1
 62
7
  6
CONTINUOUS
  2
*D16
 10
542.337455
 20
633.886667
 11
542.337455
 21
626.386667
 70
     0
  1
15
 13
542.337455
 23
633.886667
 14
593.480218
 24
618.886667
 50
-90.000000
  0
LINE
  8
1
 62
7
  6
CONTINUOUS
 10
1187.956877
 20
611.410007
 11
1224.495402
 21
574.871483
  0
LINE
  8
1
 62
7
  6
CONTINUOUS
 10
1224.495402
 20
574.871483
 11
1264.181768
 21
574.871483
  0
TEXT
  8
1
 62
7
  6
CONTINUOUS
 10
1226.681768
 20
574.871483
 40
20.000000
 41
0.375000
  1
53R*4
  7
KANJI
 50
0.000000
 51
30.000000
  0
LINE
  8
1
 62
7
  6
CONTINUOUS
 10
1187.956877
 20
611.410007
 11
1205.277385
 21
601.410007
  0
LINE
  8
1
 62
7
  6
CONTINUOUS
 10
1187.956877
 20
611.410007
 11
1197.956877
 21
594.089499
  0
LINE
  8
1
 62
7
  6
CONTINUOUS
 10
1205.277385
 20
601.410007
 11
1197.956877
 21
594.089499
  0
LINE
  8
1
 62
7
  6
CONTINUOUS
 10
1191.371941
 20
607.994944
 11
1200.032195
 21
602.994944
  0
LINE
  8
1
 62
7
  6
CONTINUOUS
 10
1191.371941
 20
607.994944
 11
1196.371941
 21
599.334690
  0
LINE
  8
1
 62
7
  6
CONTINUOUS
 10
1200.032195
 20
602.994944
 11
1196.371941
 21
599.334690
  0
LINE
  8
1
 62
7
  6
CONTINUOUS
 10
1187.956876
 20
1086.363327
 11
1230.229465
 21
1128.635916
  0
LINE
  8
1
 62
7
  6
CONTINUOUS
 10
1230.229465
 20
1128.635916
 11
1271.711955
 21
1128.635916
  0
TEXT
  8
1
 62
7
  6
CONTINUOUS
 10
1234.211955
 20
1128.635916
 40
20.000000
 41
0.375000
  1
53R*4
  7
KANJI
 50
0.000000
 51
30.000000
  0
LINE
  8
1
 62
7
  6
CONTINUOUS
 10
1187.956876
 20
1086.363327
 11
1197.956876
 21
1103.683835
  0
LINE
  8
1
 62
7
  6
CONTINUOUS
 10
1187.956876
 20
1086.363327
 11
1205.277384
 21
1096.363327
  0
LINE
  8
1
 62
7
  6
CONTINUOUS
 10
1197.956876
 20
1103.683835
 11
1205.277384
 21
1096.363327
  0
LINE
  8
1
 62
7
  6
CONTINUOUS
 10
1191.371940
 20
1089.778390
 11
1196.371940
 21
1098.438644
  0
LINE
  8
1
 62
7
  6
CONTINUOUS
 10
1191.371940
 20
1089.778390
 11
1200.032194
 21
1094.778390
  0
LINE
  8
1
 62
7
  6
CONTINUOUS
 10
1196.371940
 20
1098.438644
 11
1200.032194
 21
1094.778390
  0
TEXT
  8
1
 62
7
  6
CONTINUOUS
 10
54.560220
 20
1166.500000
 40
50.000000
 41
0.625000
  1
AR600 ｼﾝｸ詳細図
  7
KANJI
 50
0.000000
 51
0.000000
  0
TEXT
  8
1
 62
7
  6
CONTINUOUS
 10
429.560220
 20
1191.500000
 40
25.000000
 41
0.500000
  1

  7
KANJI
 50
0.000000
 51
0.000000
  0
TEXT
  8
1
 62
7
  6
CONTINUOUS
 10
429.560220
 20
1166.500000
 40
25.000000
 41
0.500000
  1

  7
KANJI
 50
0.000000
 51
0.000000
  0
LINE
  8
1
 62
7
  6
CONTINUOUS
 10
813.480218
 20
256.160000
 11
823.480218
 21
256.160000
  0
LINE
  8
1
 62
7
  6
CONTINUOUS
 10
993.480218
 20
256.160000
 11
983.480218
 21
256.160000
  0
LINE
  8
1
 62
7
  6
CONTINUOUS
 10
823.480218
 20
256.160000
 11
823.480218
 21
248.160000
  0
LINE
  8
1
 62
7
  6
CONTINUOUS
 10
823.480218
 20
256.160000
 11
983.480218
 21
256.160000
  0
LINE
  8
1
 62
7
  6
CONTINUOUS
 10
983.480218
 20
256.160000
 11
983.480218
 21
248.160000
  0
LINE
  8
1
 62
7
  6
CONTINUOUS
 10
993.480218
 20
248.160000
 11
998.480218
 21
248.160000
  0
LINE
  8
1
 62
7
  6
CONTINUOUS
 10
1003.480218
 20
253.160000
 11
1003.480218
 21
253.541557
  0
ARC
  8
1
 62
7
  6
CONTINUOUS
 10
998.480218
 20
253.160000
 40
5.000000
 50
-90.000000
 51
0.000000
  0
LINE
  8
1
 62
7
  6
CONTINUOUS
 10
802.480218
 20
253.575851
 11
802.480218
 21
253.160000
  0
LINE
  8
1
 62
7
  6
CONTINUOUS
 10
807.480218
 20
248.160000
 11
993.480218
 21
248.160000
  0
ARC
  8
1
 62
7
  6
CONTINUOUS
 10
807.480218
 20
253.160000
 40
5.000000
 50
180.000000
 51
-90.000000
  0
LINE
  8
1
 62
7
  6
CONTINUOUS
 10
813.480218
 20
261.236894
 11
813.480218
 21
256.160000
  0
ARC
  8
1
 62
7
  6
CONTINUOUS
 10
811.480218
 20
261.236894
 40
2.000000
 50
0.000000
 51
87.754257
  0
LINE
  8
1
 62
7
  6
CONTINUOUS
 10
993.480218
 20
261.236894
 11
993.480218
 21
256.160000
  0
ARC
  8
1
 62
7
  6
CONTINUOUS
 10
995.480218
 20
261.236894
 40
2.000000
 50
92.245743
 51
180.000000
  0
DIMENSION
  8
1
 62
7
  6
CONTINUOUS
  2
*D17
 10
813.480218
 20
286.869406
 11
903.480218
 21
286.869406
 70
     0
  1
180φ
 13
813.480218
 23
283.160000
 14
993.480218
 24
283.160000
 50
0.000000
  0
DIMENSION
  8
1
 62
7
  6
CONTINUOUS
  2
*D18
 10
1337.923228
 20
483.160000
 11
1337.923228
 21
373.160000
 70
     0
  1
210
 13
1303.480219
 23
483.160000
 14
1303.480219
 24
263.160000
 50
-90.000000
  0
DIMENSION
  8
1
 62
7
  6
CONTINUOUS
  2
*D19
 10
1367.245085
 20
483.160000
 11
1367.245085
 21
365.660000
 70
     0
  1
230
 13
1303.480219
 23
483.160000
 14
1303.480219
 24
248.160000
 50
-90.000000
  0
LINE
  8
1
 62
7
  6
DOT
 10
603.480218
 20
483.160000
 11
603.480218
 21
463.160000
  0
LINE
  8
1
 62
7
  6
CONTINUOUS
 10
603.480218
 20
483.160000
 11
626.480218
 21
483.160000
  0
LINE
  8
1
 62
7
  6
CONTINUOUS
 10
1180.480218
 20
483.160000
 11
1203.480218
 21
483.160000
  0
LINE
  8
1
 62
7
  6
CONTINUOUS
 10
772.600332
 20
264.763133
 11
811.558589
 21
263.235358
  0
LINE
  8
1
 62
7
  6
CONTINUOUS
 10
763.258794
 20
255.058604
 11
802.480218
 21
253.575851
  0
LINE
  8
1
 62
7
  6
CONTINUOUS
 10
1267.782541
 20
483.160000
 11
1268.480219
 21
483.160000
  0
ARC
  8
1
 62
7
  6
CONTINUOUS
 10
1124.569427
 20
297.284488
 40
25.000000
 50
-87.754257
 51
-5.440332
  0
ARC
  8
1
 62
7
  6
CONTINUOUS
 10
1122.530124
 20
296.966825
 40
35.000000
 50
-87.814898
 51
-5.440332
  0
ARC
  8
1
 62
7
  6
CONTINUOUS
 10
682.391008
 20
297.284488
 40
25.000000
 50
-174.559668
 51
-92.245743
  0
ARC
  8
1
 62
7
  6
CONTINUOUS
 10
681.995433
 20
296.977610
 40
35.000000
 50
-174.559668
 51
-92.165016
  0
LINE
  8
1
 62
7
  6
CONTINUOUS
 10
665.379926
 20
278.964470
 11
691.958777
 21
305.543322
  0
LINE
  8
1
 62
7
  6
CONTINUOUS
 10
691.958777
 20
305.543322
 11
714.458777
 21
305.543322
  0
TEXT
  8
1
 62
7
  6
CONTINUOUS
 10
691.958777
 20
305.543322
 40
20.000000
 41
0.375000
  1
25R
  7
KANJI
 50
0.000000
 51
30.000000
  0
LINE
  8
1
 62
7
  6
CONTINUOUS
 10
665.379926
 20
278.964470
 11
675.379926
 21
296.284978
  0
LINE
  8
1
 62
7
  6
CONTINUOUS
 10
665.379926
 20
278.964470
 11
682.700434
 21
288.964470
  0
LINE
  8
1
 62
7
  6
CONTINUOUS
 10
675.379926
 20
296.284978
 11
682.700434
 21
288.964470
  0
LINE
  8
1
 62
7
  6
CONTINUOUS
 10
668.794989
 20
282.379533
 11
673.794989
 21
291.039787
  0
LINE
  8
1
 62
7
  6
CONTINUOUS
 10
668.794989
 20
282.379533
 11
677.455243
 21
287.379533
  0
LINE
  8
1
 62
7
  6
CONTINUOUS
 10
673.794989
 20
291.039787
 11
677.455243
 21
287.379533
  0
LINE
  8
1
 62
7
  6
CONTINUOUS
 10
681.411369
 20
272.303690
 11
686.572720
 21
272.101284
  0
LINE
  8
1
 62
7
  6
CONTINUOUS
 10
680.673215
 20
262.002594
 11
685.983699
 21
261.801833
  0
LINE
  8
1
 62
7
  6
CONTINUOUS
 10
764.437472
 20
264.763133
 11
681.411369
 21
272.303690
  0
LINE
  8
1
 62
7
  6
CONTINUOUS
 10
685.983699
 20
261.801833
 11
755.095933
 21
255.058604
  0
LINE
  8
1
 62
7
  6
CONTINUOUS
 10
626.480218
 20
483.160000
 11
626.480218
 21
468.160000
  0
ARC
  8
1
 62
7
  6
CONTINUOUS
 10
631.480218
 20
468.160000
 40
5.000000
 50
180.000000
 51
-90.000000
  0
LINE
  8
1
 62
7
  6
CONTINUOUS
 10
632.393592
 20
448.634045
 11
647.153092
 21
293.659292
  0
ARC
  8
1
 62
7
  6
CONTINUOUS
 10
627.416114
 20
448.160000
 40
5.000000
 50
5.440332
 51
90.000000
  0
LINE
  8
1
 62
7
  6
CONTINUOUS
 10
1180.480218
 20
483.160000
 11
1180.480218
 21
468.160000
  0
ARC
  8
1
 62
7
  6
CONTINUOUS
 10
1175.480218
 20
468.160000
 40
5.000000
 50
-90.000000
 51
0.000000
  0
LINE
  8
1
 62
7
  6
CONTINUOUS
 10
1157.372465
 20
293.648507
 11
1172.132993
 21
448.634045
  0
ARC
  8
1
 62
7
  6
CONTINUOUS
 10
1177.110470
 20
448.160000
 40
5.000000
 50
90.000000
 51
174.559668
  0
ARC
  8
1
 62
7
  6
CONTINUOUS
 10
1194.480218
 20
460.160000
 40
3.000000
 50
90.000000
 51
180.000000
  0
LINE
  8
1
 62
7
  6
CONTINUOUS
 10
1191.480218
 20
460.160000
 11
1191.480218
 21
456.160000
  0
LINE
  8
1
 62
7
  6
CONTINUOUS
 10
1188.480218
 20
453.160000
 11
1177.110470
 21
453.160000
  0
ARC
  8
1
 62
7
  6
CONTINUOUS
 10
1188.480218
 20
456.160000
 40
3.000000
 50
-90.000000
 51
0.000000
  0
LINE
  8
1
 62
7
  6
CONTINUOUS
 10
1165.221592
 20
460.444427
 11
1149.456814
 21
294.914261
  0
LINE
  8
1
 62
7
  6
CONTINUOUS
 10
1175.480218
 20
463.160000
 11
1168.208078
 21
463.160000
  0
ARC
  8
1
 62
7
  6
CONTINUOUS
 10
1168.208078
 20
460.160000
 40
3.000000
 50
90.000000
 51
174.559668
  0
ARC
  8
1
 62
7
  6
CONTINUOUS
 10
612.480218
 20
460.160000
 40
3.000000
 50
0.000000
 51
90.000000
  0
LINE
  8
1
 62
7
  6
CONTINUOUS
 10
615.480218
 20
460.160000
 11
615.480218
 21
456.160000
  0
LINE
  8
1
 62
7
  6
CONTINUOUS
 10
618.480218
 20
453.160000
 11
627.416114
 21
453.160000
  0
ARC
  8
1
 62
7
  6
CONTINUOUS
 10
618.480218
 20
456.160000
 40
3.000000
 50
180.000000
 51
-90.000000
  0
LINE
  8
1
 62
7
  6
CONTINUOUS
 10
603.480218
 20
483.160000
 11
603.480218
 21
465.160000
  0
LINE
  8
1
 62
7
  6
CONTINUOUS
 10
605.480218
 20
463.160000
 11
612.480218
 21
463.160000
  0
ARC
  8
1
 62
7
  6
CONTINUOUS
 10
605.480218
 20
465.160000
 40
2.000000
 50
180.000000
 51
-90.000000
  0
LINE
  8
1
 62
7
  6
CONTINUOUS
 10
1201.480218
 20
463.160000
 11
1194.480218
 21
463.160000
  0
LINE
  8
1
 62
7
  6
CONTINUOUS
 10
1203.480218
 20
483.160000
 11
1203.480218
 21
465.160000
  0
ARC
  8
1
 62
7
  6
CONTINUOUS
 10
1201.480218
 20
465.160000
 40
2.000000
 50
-90.000000
 51
0.000000
  0
LINE
  8
1
 62
7
  6
CONTINUOUS
 10
780.346199
 20
264.459373
 11
759.432060
 21
265.217732
  0
LINE
  8
1
 62
7
  6
CONTINUOUS
 10
763.258794
 20
255.058604
 11
755.095933
 21
255.058604
  0
DIMENSION
  8
1
 62
7
  6
CONTINUOUS
  2
*D20
 10
546.296583
 20
483.160000
 11
546.296583
 21
473.160000
 70
     0
  1
20
 13
593.480218
 23
483.160000
 14
593.480218
 24
463.160000
 50
-90.000000
  0
DIMENSION
  8
1
 62
7
  6
CONTINUOUS
  2
*D21
 10
1306.972686
 20
483.160000
 11
1306.972686
 21
473.160000
 70
     0
  1
20
 13
1213.480218
 23
483.160000
 14
1213.480218
 24
463.160000
 50
-90.000000
  0
DIMENSION
  8
1
 62
7
  6
CONTINUOUS
  2
*D22
 10
641.375716
 20
354.321735
 11
669.259459
 21
354.321735
 70
     0
  1
10
 13
641.375716
 23
354.321735
 14
651.845767
 24
354.321735
 50
0.000000
  0
DIMENSION
  8
1
 62
7
  6
CONTINUOUS
  2
*D23
 10
603.480218
 20
522.896476
 11
903.480218
 21
522.896476
 70
     0
  1
600
 13
603.480218
 23
493.160000
 14
1203.480218
 24
493.160000
 50
0.000000
  0
DIMENSION
  8
1
 62
7
  6
CONTINUOUS
  2
*D24
 10
603.480218
 20
501.149643
 11
614.980218
 21
501.149643
 70
     0
  1
23
 13
603.480218
 23
493.160000
 14
626.480218
 24
493.160000
 50
0.000000
  0
DIMENSION
  8
1
 62
7
  6
CONTINUOUS
  2
*D25
 10
626.480218
 20
501.149643
 11
633.980218
 21
501.149643
 70
     0
  1
15
 13
626.480218
 23
493.160000
 14
641.480218
 24
493.160000
 50
0.000000
  0
LINE
  8
1
 62
7
  6
CONTINUOUS
 10
626.480218
 20
483.160000
 11
1180.480218
 21
483.160000
  0
LINE
  8
1
 62
7
  6
CONTINUOUS
 10
605.480218
 20
463.160000
 11
622.578916
 21
483.160000
  0
LINE
  8
1
 62
7
  6
CONTINUOUS
 10
618.480218
 20
453.160000
 11
626.480218
 21
463.160000
  0
LINE
  8
1
 62
7
  6
CONTINUOUS
 10
633.080199
 20
441.424670
 11
642.432599
 21
453.160000
  0
LINE
  8
1
 62
7
  6
CONTINUOUS
 10
634.689673
 20
424.525186
 11
641.480218
 21
434.761502
  0
LINE
  8
1
 62
7
  6
CONTINUOUS
 10
636.177036
 20
408.907876
 11
645.708200
 21
418.766188
  0
LINE
  8
1
 62
7
  6
CONTINUOUS
 10
637.584326
 20
394.131337
 11
647.229594
 21
402.791551
  0
LINE
  8
1
 62
7
  6
CONTINUOUS
 10
639.059677
 20
378.640143
 11
648.716956
 21
387.174242
  0
LINE
  8
1
 62
7
  6
CONTINUOUS
 10
640.420925
 20
364.347047
 11
649.643078
 21
371.068142
  0
LINE
  8
1
 62
7
  6
CONTINUOUS
 10
642.076442
 20
346.964120
 11
651.703553
 21
355.814979
  0
LINE
  8
1
 62
7
  6
CONTINUOUS
 10
643.341601
 20
333.679948
 11
653.133003
 21
340.805756
  0
LINE
  8
1
 62
7
  6
CONTINUOUS
 10
644.530690
 20
321.194508
 11
654.222001
 21
329.371279
  0
LINE
  8
1
 62
7
  6
CONTINUOUS
 10
645.647714
 20
309.465762
 11
655.621283
 21
314.678817
  0
LINE
  8
1
 62
7
  6
CONTINUOUS
 10
647.153093
 20
293.659285
 11
656.944495
 21
300.785087
  0
LINE
  8
1
 62
7
  6
CONTINUOUS
 10
649.643078
 20
283.623769
 11
658.544384
 21
289.778590
  0
LINE
  8
1
 62
7
  6
CONTINUOUS
 10
654.781871
 20
274.968020
 11
665.379926
 21
278.964470
  0
LINE
  8
1
 62
7
  6
CONTINUOUS
 10
663.654120
 20
267.168279
 11
671.173498
 21
274.942432
  0
LINE
  8
1
 62
7
  6
CONTINUOUS
 10
672.470093
 20
263.298716
 11
681.411369
 21
272.303690
  0
LINE
  8
1
 62
7
  6
CONTINUOUS
 10
685.983699
 20
261.801833
 11
695.760749
 21
271.000457
  0
LINE
  8
1
 62
7
  6
CONTINUOUS
 10
701.827317
 20
260.255983
 11
710.017568
 21
269.705631
  0
LINE
  8
1
 62
7
  6
CONTINUOUS
 10
717.527884
 20
258.724090
 11
728.852516
 21
267.995013
  0
LINE
  8
1
 62
7
  6
CONTINUOUS
 10
733.454418
 20
257.170150
 11
744.314263
 21
266.590753
  0
LINE
  8
1
 62
7
  6
CONTINUOUS
 10
748.939743
 20
255.659259
 11
755.920497
 21
265.536657
  0
LINE
  8
1
 62
7
  6
CONTINUOUS
 10
763.258794
 20
255.058604
 11
775.435443
 21
264.637440
  0
LINE
  8
1
 62
7
  6
CONTINUOUS
 10
780.683040
 20
254.399886
 11
789.194216
 21
264.112392
  0
LINE
  8
1
 62
7
  6
CONTINUOUS
 10
791.819165
 20
253.978889
 11
801.219209
 21
263.640824
  0
LINE
  8
1
 62
7
  6
CONTINUOUS
 10
807.480218
 20
248.160000
 11
813.480218
 21
261.236894
  0
LINE
  8
1
 62
7
  6
CONTINUOUS
 10
1180.480218
 20
473.512007
 11
1191.480218
 21
483.160000
  0
LINE
  8
1
 62
7
  6
CONTINUOUS
 10
1180.480218
 20
453.160000
 11
1191.480218
 21
460.160000
  0
LINE
  8
1
 62
7
  6
CONTINUOUS
 10
1165.480218
 20
453.160000
 11
1175.480218
 21
463.160000
  0
LINE
  8
1
 62
7
  6
CONTINUOUS
 10
1163.541049
 20
442.798726
 11
1172.132994
 21
448.634060
  0
LINE
  8
1
 62
7
  6
CONTINUOUS
 10
1180.480218
 20
463.160000
 11
1203.480218
 21
483.160000
  0
LINE
  8
1
 62
7
  6
CONTINUOUS
 10
1194.480218
 20
463.160000
 11
1203.480218
 21
472.175783
  0
LINE
  8
1
 62
7
  6
CONTINUOUS
 10
1162.137763
 20
428.064225
 11
1170.644224
 21
433.001972
  0
LINE
  8
1
 62
7
  6
CONTINUOUS
 10
1160.562319
 20
411.522068
 11
1169.160865
 21
417.426701
  0
LINE
  8
1
 62
7
  6
CONTINUOUS
 10
1159.040925
 20
395.547432
 11
1167.543383
 21
400.443139
  0
LINE
  8
1
 62
7
  6
CONTINUOUS
 10
1157.561570
 20
380.014199
 11
1165.480218
 21
386.212018
  0
LINE
  8
1
 62
7
  6
CONTINUOUS
 10
1156.078211
 20
364.438928
 11
1165.480218
 21
369.731918
  0
LINE
  8
1
 62
7
  6
CONTINUOUS
 10
1153.872189
 20
341.275705
 11
1162.488751
 21
347.369510
  0
LINE
  8
1
 62
7
  6
CONTINUOUS
 10
1152.086553
 20
322.526526
 11
1160.643060
 21
327.989754
  0
LINE
  8
1
 62
7
  6
CONTINUOUS
 10
1116.083559
 20
261.695383
 11
1123.864603
 21
261.992275
  0
LINE
  8
1
 62
7
  6
CONTINUOUS
 10
995.401846
 20
263.235358
 11
1003.854451
 21
263.566833
  0
LINE
  8
1
 62
7
  6
CONTINUOUS
 10
1003.480218
 20
253.541557
 11
1010.961561
 21
253.827013
  0
LINE
  8
1
 62
7
  6
CONTINUOUS
 10
1121.045362
 20
272.127074
 11
1125.549066
 21
272.303690
  0
LINE
  8
1
 62
7
  6
CONTINUOUS
 10
1003.854451
 20
263.566833
 11
1121.045362
 21
272.127074
  0
LINE
  8
1
 62
7
  6
CONTINUOUS
 10
1010.961561
 20
253.827013
 11
1116.083559
 21
261.695383
  0
LINE
  8
1
 62
7
  6
CONTINUOUS
 10
989.149789
 20
248.160000
 11
1003.854451
 21
263.566833
  0
LINE
  8
1
 62
7
  6
CONTINUOUS
 10
1010.961561
 20
253.827013
 11
1022.402898
 21
264.921709
  0
LINE
  8
1
 62
7
  6
CONTINUOUS
 10
1029.651290
 20
255.225938
 11
1040.318840
 21
266.230384
  0
LINE
  8
1
 62
7
  6
CONTINUOUS
 10
1047.943893
 20
256.595137
 11
1059.023783
 21
267.596691
  0
LINE
  8
1
 62
7
  6
CONTINUOUS
 10
1067.122349
 20
258.030642
 11
1075.070461
 21
268.768825
  0
LINE
  8
1
 62
7
  6
CONTINUOUS
 10
1086.677426
 20
259.494337
 11
1094.218448
 21
270.167495
  0
LINE
  8
1
 62
7
  6
CONTINUOUS
 10
1105.379803
 20
260.894208
 11
1112.004940
 21
271.466714
  0
LINE
  8
1
 62
7
  6
CONTINUOUS
 10
1123.864603
 20
261.992275
 11
1132.673436
 21
273.634435
  0
LINE
  8
1
 62
7
  6
CONTINUOUS
 10
1150.014655
 20
300.771592
 11
1159.017571
 21
310.922115
  0
LINE
  8
1
 62
7
  6
CONTINUOUS
 10
1146.584926
 20
285.438906
 11
1157.372464
 21
293.648495
  0
LINE
  8
1
 62
7
  6
CONTINUOUS
 10
1134.258384
 20
263.990350
 11
1154.466295
 21
282.646177
  0
LINE
  8
1
 62
7
  6
CONTINUOUS
 10
626.480218
 20
463.160000
 11
627.801592
 21
464.773598
  0
LINE
  8
1
 62
7
  6
DOT
 10
626.480218
 20
483.160000
 11
626.480218
 21
467.151458
  0
LINE
  8
1
 62
7
  6
CONTINUOUS
 10
629.753003
 20
452.580288
 11
638.120087
 21
463.160000
  0
LINE
  8
1
 62
7
  6
CONTINUOUS
 10
631.480218
 20
463.160000
 11
638.752357
 21
463.160000
  0
LINE
  8
1
 62
7
  6
CONTINUOUS
 10
641.738844
 20
460.444427
 11
657.503621
 21
294.914261
  0
ARC
  8
1
 62
7
  6
CONTINUOUS
 10
638.752357
 20
460.160000
 40
3.000000
 50
5.440332
 51
90.000000
  0
DIMENSION
  8
1
 62
7
  6
CONTINUOUS
  2
*D26
 10
697.595012
 20
463.160000
 11
697.595012
 21
473.160000
 70
     0
  1
20
 13
659.643078
 23
463.160000
 14
659.643078
 24
483.160000
 50
90.000000
  0
LINE
  8
1
 62
7
  6
CONTINUOUS
 10
1694.984457
 20
1057.531471
 11
1701.332533
 21
1023.886667
  0
ARC
  8
1
 62
7
  6
CONTINUOUS
 10
1670.417916
 20
1052.896274
 40
25.000000
 50
10.684912
 51
87.151812
  0
LINE
  8
1
 62
7
  6
CONTINUOUS
 10
1701.332533
 20
843.886667
 11
1708.332533
 21
843.886667
  0
LINE
  8
1
 62
7
  6
CONTINUOUS
 10
1708.332533
 20
843.886667
 11
1708.332533
 21
1023.886667
  0
LINE
  8
1
 62
7
  6
CONTINUOUS
 10
1708.332533
 20
1023.886667
 11
1701.332533
 21
1023.886667
  0
LINE
  8
1
 62
7
  6
CONTINUOUS
 10
1701.332533
 20
975.886667
 11
1701.332533
 21
843.886667
  0
LINE
  8
1
 62
7
  6
CONTINUOUS
 10
1701.332533
 20
975.886667
 11
1701.332533
 21
1023.886667
  0
LINE
  8
1
 62
7
  6
CONTINUOUS
 10
1478.332533
 20
1101.886667
 11
1478.332533
 21
775.431690
  0
LINE
  8
1
 62
7
  6
CONTINUOUS
 10
1698.435090
 20
778.114702
 11
1701.332533
 21
843.886667
  0
LINE
  8
1
 62
7
  6
CONTINUOUS
 10
1516.747665
 20
1085.572481
 11
1671.660160
 21
1077.865392
  0
LINE
  8
1
 62
7
  6
CONTINUOUS
 10
1478.332533
 20
595.886667
 11
1478.332533
 21
620.886667
  0
ARC
  8
1
 62
7
  6
CONTINUOUS
 10
1667.358427
 20
644.724846
 40
25.000000
 50
-87.151812
 51
-2.522412
  0
LINE
  8
1
 62
7
  6
CONTINUOUS
 10
1684.368710
 20
626.404085
 11
1644.743784
 21
666.029011
  0
LINE
  8
1
 62
7
  6
CONTINUOUS
 10
1644.743784
 20
666.029011
 11
1622.243784
 21
666.029011
  0
TEXT
  8
1
 62
7
  6
CONTINUOUS
 10
1622.243784
 20
666.029011
 40
20.000000
 41
0.375000
  1
25R
  7
KANJI
 50
0.000000
 51
30.000000
  0
LINE
  8
1
 62
7
  6
CONTINUOUS
 10
1684.368710
 20
626.404085
 11
1667.048202
 21
636.404085
  0
LINE
  8
1
 62
7
  6
CONTINUOUS
 10
1684.368710
 20
626.404085
 11
1674.368710
 21
643.724593
  0
LINE
  8
1
 62
7
  6
CONTINUOUS
 10
1667.048202
 20
636.404085
 11
1674.368710
 21
643.724593
  0
LINE
  8
1
 62
7
  6
CONTINUOUS
 10
1680.953646
 20
629.819149
 11
1672.293392
 21
634.819149
  0
LINE
  8
1
 62
7
  6
CONTINUOUS
 10
1680.953646
 20
629.819149
 11
1675.953646
 21
638.479403
  0
LINE
  8
1
 62
7
  6
CONTINUOUS
 10
1672.293392
 20
634.819149
 11
1675.953646
 21
638.479403
  0
LINE
  8
1
 62
7
  6
CONTINUOUS
 10
1478.332533
 20
735.152190
 11
1478.332533
 21
620.886667
  0
LINE
  8
1
 62
7
  6
CONTINUOUS
 10
1692.334204
 20
643.624591
 11
1696.480878
 21
737.754093
  0
LINE
  8
1
 62
7
  6
CONTINUOUS
 10
1550.155872
 20
613.862952
 11
1668.600672
 21
619.755728
  0
LINE
  8
1
 62
7
  6
CONTINUOUS
 10
1478.332533
 20
595.886667
 11
1498.332533
 21
595.886667
  0
LINE
  8
1
 62
7
  6
CONTINUOUS
 10
1478.332533
 20
1101.886667
 11
1498.332533
 21
1101.886667
  0
DIMENSION
  8
1
 62
7
  6
CONTINUOUS
  2
*D27
 10
1478.332533
 20
1154.698885
 11
1488.332533
 21
1154.698885
 70
     0
  1
20
 13
1478.332533
 23
1111.886667
 14
1498.332533
 24
1111.886667
 50
0.000000
  0
LINE
  8
1
 62
7
  6
CONTINUOUS
 10
1680.149545
 20
946.886667
 11
1738.684015
 21
946.886667
  0
LINE
  8
1
 62
7
  6
CONTINUOUS
 10
1498.332533
 20
1101.886667
 11
1498.332533
 21
1091.717097
  0
LINE
  8
1
 62
7
  6
CONTINUOUS
 10
1516.747665
 20
1085.572481
 11
1504.262843
 21
1085.717502
  0
ARC
  8
1
 62
7
  6
CONTINUOUS
 10
1504.332533
 20
1091.717097
 40
6.000000
 50
180.000000
 51
-90.665504
  0
LINE
  8
1
 62
7
  6
CONTINUOUS
 10
1498.332533
 20
605.575763
 11
1498.332533
 21
595.886667
  0
LINE
  8
1
 62
7
  6
CONTINUOUS
 10
1504.034395
 20
611.568351
 11
1527.475334
 21
612.734567
  0
ARC
  8
1
 62
7
  6
CONTINUOUS
 10
1504.332533
 20
605.575763
 40
6.000000
 50
92.848188
 51
180.000000
  0
LINE
  8
1
 62
7
  6
CONTINUOUS
 10
1498.332533
 20
1101.886667
 11
1498.332533
 21
605.575763
  0
LINE
  8
1
 62
7
  6
CONTINUOUS
 10
1527.475334
 20
612.734567
 11
1550.155872
 21
613.862952
  0
LINE
  8
1
 62
7
  6
CONTINUOUS
 10
1698.435090
 20
778.114702
 11
1696.480878
 21
737.754093
  0
DIMENSION
  8
1
 62
7
  6
CONTINUOUS
  2
*D28
 10
1048.480216
 20
1101.886667
 11
1048.480216
 21
1025.136667
 70
     0
  1
155
 13
1003.480219
 23
1101.886667
 14
1003.480219
 24
948.386667
 50
-90.000000
  0
LINE
  8
1
 62
7
  6
CONTINUOUS
 10
649.643078
 20
463.160000
 11
1157.874288
 21
463.160000
  0
LINE
  8
1
 62
7
  6
CONTINUOUS
 10
649.643078
 20
463.160000
 11
643.527554
 21
463.160000
  0
LINE
  8
1
 62
7
  6
CONTINUOUS
 10
1162.530968
 20
463.160000
 11
1157.874288
 21
463.160000
  0
TEXT
  8
1
 62
7
  6
CONTINUOUS
 10
56.734780
 20
1078.886667
 40
25.000000
 41
0.750000
  1
設計価格：￥55,000
  7
KANJI
 50
0.000000
 51
0.000000
  0
TEXT
  8
1
 62
7
  6
CONTINUOUS
 10
281.734780
 20
1091.386667
 40
12.500000
 41
0.500000
  1

  7
KANJI
 50
0.000000
 51
0.000000
  0
TEXT
  8
1
 62
7
  6
CONTINUOUS
 10
281.734780
 20
1078.886667
 40
12.500000
 41
0.500000
  1

  7
KANJI
 50
0.000000
 51
0.000000
  0
TEXT
  8
1
 62
7
  6
CONTINUOUS
 10
54.560220
 20
1042.640675
 40
25.000000
 41
1.000000
  1
専用排水金具は別売
  7
KANJI
 50
0.000000
 51
0.000000
  0
TEXT
  8
1
 62
7
  6
CONTINUOUS
 10
279.560220
 20
1055.140675
 40
12.500000
 41
0.500000
  1

  7
KANJI
 50
0.000000
 51
0.000000
  0
TEXT
  8
1
 62
7
  6
CONTINUOUS
 10
279.560220
 20
1042.640675
 40
12.500000
 41
0.500000
  1

  7
KANJI
 50
0.000000
 51
0.000000
  0
TEXT
  8
1
 62
7
  6
CONTINUOUS
 10
52.385659
 20
1112.872691
 40
35.000000
 41
0.676471
  1
ｱｸﾘﾙ変性ﾎﾟﾘｴｽﾃﾙ系シンク
  7
KANJI
 50
0.000000
 51
0.000000
  0
TEXT
  8
1
 62
7
  6
CONTINUOUS
 10
454.885659
 20
1130.372691
 40
17.500000
 41
0.500000
  1

  7
KANJI
 50
0.000000
 51
0.000000
  0
TEXT
  8
1
 62
7
  6
CONTINUOUS
 10
454.885659
 20
1112.872691
 40
17.500000
 41
0.500000
  1

  7
KANJI
 50
0.000000
 51
0.000000
  0
LINE
  8
1
 62
7
  6
CONTINUOUS
 10
1096.341039
 20
618.886667
 11
1060.327003
 21
618.886667
  0
ARC
  8
1
 62
7
  6
CONTINUOUS
 10
-1619.519782
 20
848.886667
 40
2800.000000
 50
-3.161297
 51
-0.000000
  0
ARC
  8
1
 62
7
  6
CONTINUOUS
 10
1096.341039
 20
698.886667
 40
80.000000
 50
-90.000000
 51
-3.161297
  0
ARC
  8
1
 62
7
  6
CONTINUOUS
 10
-1619.519782
 20
848.886667
 40
2800.000000
 50
-0.000000
 51
3.752952
  0
LINE
  8
1
 62
7
  6
CONTINUOUS
 10
1124.582985
 20
1078.886667
 11
1126.109515
 21
1078.886667
  0
ARC
  8
1
 62
7
  6
CONTINUOUS
 10
1124.582985
 20
1028.886667
 40
50.000000
 50
3.752952
 51
90.000000
  0
LINE
  8
1
 62
7
  6
CONTINUOUS
 10
682.377450
 20
1078.886667
 11
674.489948
 21
1078.886667
  0
ARC
  8
1
 62
7
  6
CONTINUOUS
 10
682.377450
 20
1028.886667
 40
50.000000
 50
90.000000
 51
176.247048
  0
ARC
  8
1
 62
7
  6
CONTINUOUS
 10
3426.480218
 20
848.886667
 40
2800.000000
 50
176.247048
 51
-176.838703
  0
ARC
  8
1
 62
7
  6
CONTINUOUS
 10
710.619396
 20
698.886667
 40
80.000000
 50
-176.838703
 51
-90.000000
  0
LINE
  8
1
 62
7
  6
CONTINUOUS
 10
710.619396
 20
618.886667
 11
701.925536
 21
618.886667
  0
LINE
  8
1
 62
7
  6
CONTINUOUS
 10
745.292849
 20
618.886667
 11
706.266130
 21
618.886667
  0
LINE
  8
1
 62
7
  6
CONTINUOUS
 10
735.480216
 20
633.886667
 11
706.480218
 21
633.886667
  0
LINE
  8
1
 62
7
  6
CONTINUOUS
 10
1071.480218
 20
633.886667
 11
1100.480218
 21
633.886667
  0
LINE
  8
1
 62
7
  6
CONTINUOUS
 10
674.489948
 20
1078.886667
 11
1136.396037
 21
1078.886667
  0
CIRCLE
  8
1
 62
7
  6
DOT
 10
1135.761962
 20
1034.168412
 40
18.000000
  0
LINE
  8
1
 62
7
  6
CONTINUOUS
 10
1135.761962
 20
1034.168412
 11
1044.829993
 21
1125.100381
  0
LINE
  8
1
 62
7
  6
CONTINUOUS
 10
1044.829993
 20
1125.100381
 11
975.596447
 21
1125.100381
  0
TEXT
  8
1
 62
7
  6
CONTINUOUS
 10
975.596447
 20
1125.100381
 40
20.000000
 41
0.750000
  1
給水栓穴φ
  7
KANJI
 50
0.000000
 51
30.000000
  0
LINE
  8
1
 62
7
  6
CONTINUOUS
 10
1135.761962
 20
1034.168412
 11
1118.441453
 21
1044.168412
  0
LINE
  8
1
 62
7
  6
CONTINUOUS
 10
1135.761962
 20
1034.168412
 11
1125.761962
 21
1051.488920
  0
LINE
  8
1
 62
7
  6
CONTINUOUS
 10
1118.441453
 20
1044.168412
 11
1125.761962
 21
1051.488920
  0
LINE
  8
1
 62
7
  6
CONTINUOUS
 10
1132.346898
 20
1037.583476
 11
1123.686644
 21
1042.583476
  0
LINE
  8
1
 62
7
  6
CONTINUOUS
 10
1132.346898
 20
1037.583476
 11
1127.346898
 21
1046.243730
  0
LINE
  8
1
 62
7
  6
CONTINUOUS
 10
1123.686644
 20
1042.583476
 11
1127.346898
 21
1046.243730
  0
CIRCLE
  8
1
 62
7
  6
DOT
 10
671.198471
 20
1034.168413
 40
18.000000
  0
LINE
  8
1
 62
7
  6
CONTINUOUS
 10
671.198471
 20
1034.168413
 11
762.130440
 21
1125.100381
  0
LINE
  8
1
 62
7
  6
CONTINUOUS
 10
762.130440
 20
1125.100381
 11
837.130440
 21
1125.100381
  0
TEXT
  8
1
 62
7
  6
CONTINUOUS
 10
762.130440
 20
1125.100381
 40
20.000000
 41
0.750000
  1
給水栓穴φ
  7
KANJI
 50
0.000000
 51
30.000000
  0
LINE
  8
1
 62
7
  6
CONTINUOUS
 10
671.198471
 20
1034.168413
 11
681.198471
 21
1051.488921
  0
LINE
  8
1
 62
7
  6
CONTINUOUS
 10
671.198471
 20
1034.168413
 11
688.518979
 21
1044.168413
  0
LINE
  8
1
 62
7
  6
CONTINUOUS
 10
681.198471
 20
1051.488921
 11
688.518979
 21
1044.168413
  0
LINE
  8
1
 62
7
  6
CONTINUOUS
 10
674.613535
 20
1037.583476
 11
679.613535
 21
1046.243731
  0
LINE
  8
1
 62
7
  6
CONTINUOUS
 10
674.613535
 20
1037.583476
 11
683.273789
 21
1042.583476
  0
LINE
  8
1
 62
7
  6
CONTINUOUS
 10
679.613535
 20
1046.243731
 11
683.273789
 21
1042.583476
  0
LINE
  8
1
 62
7
  6
CONTINUOUS
 10
641.480218
 20
1057.651513
 11
649.643078
 21
990.937563
  0
LINE
  8
1
 62
7
  6
CONTINUOUS
 10
649.643078
 20
990.937563
 11
687.143078
 21
990.937563
  0
TEXT
  8
1
 62
7
  6
CONTINUOUS
 10
649.643078
 20
990.937563
 40
20.000000
 41
0.375000
  1
50R*2
  7
KANJI
 50
0.000000
 51
30.000000
  0
LINE
  8
1
 62
7
  6
CONTINUOUS
 10
641.480218
 20
1057.651513
 11
648.964522
 21
1039.104675
  0
LINE
  8
1
 62
7
  6
CONTINUOUS
 10
641.480218
 20
1057.651513
 11
638.688396
 21
1037.847328
  0
LINE
  8
1
 62
7
  6
CONTINUOUS
 10
648.964522
 20
1039.104675
 11
638.688396
 21
1037.847328
  0
LINE
  8
1
 62
7
  6
CONTINUOUS
 10
642.066778
 20
1052.857635
 11
645.808930
 21
1043.584216
  0
LINE
  8
1
 62
7
  6
CONTINUOUS
 10
642.066778
 20
1052.857635
 11
640.670867
 21
1042.955543
  0
LINE
  8
1
 62
7
  6
CONTINUOUS
 10
645.808930
 20
1043.584216
 11
640.670867
 21
1042.955543
  0
LINE
  8
1
 62
7
  6
CONTINUOUS
 10
1165.480218
 20
1057.651513
 11
1156.364992
 21
990.937563
  0
LINE
  8
1
 62
7
  6
CONTINUOUS
 10
1156.364992
 20
990.937563
 11
1115.830677
 21
990.937563
  0
TEXT
  8
1
 62
7
  6
CONTINUOUS
 10
1115.830677
 20
990.937563
 40
20.000000
 41
0.375000
  1
50R*2
  7
KANJI
 50
0.000000
 51
30.000000
  0
LINE
  8
1
 62
7
  6
CONTINUOUS
 10
1165.480218
 20
1057.651513
 11
1167.993728
 21
1037.810085
  0
LINE
  8
1
 62
7
  6
CONTINUOUS
 10
1165.480218
 20
1057.651513
 11
1157.736268
 21
1039.211577
  0
LINE
  8
1
 62
7
  6
CONTINUOUS
 10
1167.993728
 20
1037.810085
 11
1157.736268
 21
1039.211577
  0
LINE
  8
1
 62
7
  6
CONTINUOUS
 10
1164.826413
 20
1052.866343
 11
1166.083168
 21
1042.945629
  0
LINE
  8
1
 62
7
  6
CONTINUOUS
 10
1164.826413
 20
1052.866343
 11
1160.954438
 21
1043.646375
  0
LINE
  8
1
 62
7
  6
CONTINUOUS
 10
1166.083168
 20
1042.945629
 11
1160.954438
 21
1043.646375
  0
LINE
  8
1
 62
7
  6
CONTINUOUS
 10
626.553510
 20
869.145828
 11
685.496563
 21
848.886667
  0
LINE
  8
1
 62
7
  6
CONTINUOUS
 10
685.496563
 20
848.886667
 11
721.168308
 21
848.886667
  0
TEXT
  8
1
 62
7
  6
CONTINUOUS
 10
683.668308
 20
848.886667
 40
20.000000
 41
0.375000
  1
2800R
  7
KANJI
 50
0.000000
 51
30.000000
  0
LINE
  8
1
 62
7
  6
CONTINUOUS
 10
626.553510
 20
869.145828
 11
646.505562
 21
867.761764
  0
LINE
  8
1
 62
7
  6
CONTINUOUS
 10
626.553510
 20
869.145828
 11
643.140462
 21
857.971168
  0
LINE
  8
1
 62
7
  6
CONTINUOUS
 10
646.505562
 20
867.761764
 11
643.140462
 21
857.971168
  0
LINE
  8
1
 62
7
  6
CONTINUOUS
 10
631.120886
 20
867.575988
 11
641.096912
 21
866.883956
  0
LINE
  8
1
 62
7
  6
CONTINUOUS
 10
631.120886
 20
867.575988
 11
639.414361
 21
861.988657
  0
LINE
  8
1
 62
7
  6
CONTINUOUS
 10
641.096912
 20
866.883956
 11
639.414361
 21
861.988657
  0
LINE
  8
1
 62
7
  6
CONTINUOUS
 10
1180.344197
 20
821.287779
 11
1127.795961
 21
848.886667
  0
LINE
  8
1
 62
7
  6
CONTINUOUS
 10
1127.795961
 20
848.886667
 11
1079.870539
 21
848.886667
  0
TEXT
  8
1
 62
7
  6
CONTINUOUS
 10
1079.870539
 20
848.886667
 40
20.000000
 41
0.375000
  1
2800R
  7
KANJI
 50
0.000000
 51
30.000000
  0
LINE
  8
1
 62
7
  6
CONTINUOUS
 10
1180.344197
 20
821.287779
 11
1160.834191
 21
825.687744
  0
LINE
  8
1
 62
7
  6
CONTINUOUS
 10
1180.344197
 20
821.287779
 11
1165.648019
 21
834.853263
  0
LINE
  8
1
 62
7
  6
CONTINUOUS
 10
1160.834191
 20
825.687744
 11
1165.648019
 21
834.853263
  0
LINE
  8
1
 62
7
  6
CONTINUOUS
 10
1176.068424
 20
823.533460
 11
1166.313421
 21
825.733442
  0
LINE
  8
1
 62
7
  6
CONTINUOUS
 10
1176.068424
 20
823.533460
 11
1168.720335
 21
830.316202
  0
LINE
  8
1
 62
7
  6
CONTINUOUS
 10
1166.313421
 20
825.733442
 11
1168.720335
 21
830.316202
  0
LINE
  8
1
 62
7
  6
CONTINUOUS
 10
649.643078
 20
647.099713
 11
690.164631
 21
713.409958
  0
LINE
  8
1
 62
7
  6
CONTINUOUS
 10
690.164631
 20
713.409958
 11
721.253918
 21
713.409958
  0
TEXT
  8
1
 62
7
  6
CONTINUOUS
 10
698.753918
 20
713.409958
 40
20.000000
 41
0.375000
  1
80R
  7
KANJI
 50
0.000000
 51
30.000000
  0
LINE
  8
1
 62
7
  6
CONTINUOUS
 10
649.643078
 20
647.099713
 11
655.299517
 21
666.283162
  0
LINE
  8
1
 62
7
  6
CONTINUOUS
 10
649.643078
 20
647.099713
 11
664.133422
 21
660.884847
  0
LINE
  8
1
 62
7
  6
CONTINUOUS
 10
655.299517
 20
666.283162
 11
664.133422
 21
660.884847
  0
LINE
  8
1
 62
7
  6
CONTINUOUS
 10
652.161426
 20
651.220786
 11
654.989645
 21
660.812510
  0
LINE
  8
1
 62
7
  6
CONTINUOUS
 10
652.161426
 20
651.220786
 11
659.406598
 21
658.113353
  0
LINE
  8
1
 62
7
  6
CONTINUOUS
 10
654.989645
 20
660.812510
 11
659.406598
 21
658.113353
  0
LINE
  8
1
 62
7
  6
CONTINUOUS
 10
1154.941300
 20
644.425585
 11
1085.956927
 21
713.409958
  0
LINE
  8
1
 62
7
  6
CONTINUOUS
 10
1085.956927
 20
713.409958
 11
1058.195117
 21
713.409958
  0
TEXT
  8
1
 62
7
  6
CONTINUOUS
 10
1058.195117
 20
713.409958
 40
20.000000
 41
0.375000
  1
80R
  7
KANJI
 50
0.000000
 51
30.000000
  0
LINE
  8
1
 62
7
  6
CONTINUOUS
 10
1154.941300
 20
644.425585
 11
1137.620792
 21
654.425585
  0
LINE
  8
1
 62
7
  6
CONTINUOUS
 10
1154.941300
 20
644.425585
 11
1144.941300
 21
661.746093
  0
LINE
  8
1
 62
7
  6
CONTINUOUS
 10
1137.620792
 20
654.425585
 11
1144.941300
 21
661.746093
  0
LINE
  8
1
 62
7
  6
CONTINUOUS
 10
1151.526236
 20
647.840648
 11
1142.865982
 21
652.840648
  0
LINE
  8
1
 62
7
  6
CONTINUOUS
 10
1151.526236
 20
647.840648
 11
1146.526236
 21
656.500902
  0
LINE
  8
1
 62
7
  6
CONTINUOUS
 10
1142.865982
 20
652.840648
 11
1146.526236
 21
656.500902
  0
LINE
  8
1
 62
7
  6
DOT
 10
1106.595155
 20
618.886667
 11
1070.480218
 21
618.886667
  0
LINE
  8
1
 62
7
  6
CONTINUOUS
 10
1478.332533
 20
735.152190
 11
1478.332533
 21
775.431690
  0
LINE
  8
1
 62
7
  6
CONTINUOUS
 10
641.480217
 20
818.280908
 11
641.480217
 21
848.886667
  0
LINE
  8
1
 62
7
  6
CONTINUOUS
 10
708.347313
 20
633.886667
 11
706.480218
 21
633.886667
  0
LINE
  8
1
 62
7
  6
CONTINUOUS
 10
710.629107
 20
633.886666
 11
708.347313
 21
633.886667
  0
ARC
  8
1
 62
7
  6
CONTINUOUS
 10
3567.747543
 20
857.794083
 40
2926.534085
 50
-179.226386
 51
-176.816599
  0
ARC
  8
1
 62
7
  6
CONTINUOUS
 10
710.629107
 20
698.886666
 40
65.000000
 50
-176.816599
 51
-90.000000
  0
LINE
  8
1
 62
7
  6
CONTINUOUS
 10
1165.480217
 20
848.886667
 11
1165.480217
 21
815.992318
  0
LINE
  8
1
 62
7
  6
CONTINUOUS
 10
1096.320898
 20
633.886667
 11
1100.480218
 21
633.886667
  0
ARC
  8
1
 62
7
  6
CONTINUOUS
 10
-1810.267556
 20
860.563322
 40
2976.081548
 50
-3.183751
 51
-0.858117
  0
ARC
  8
1
 62
7
  6
CONTINUOUS
 10
1096.320898
 20
698.886667
 40
65.000000
 50
-90.000000
 51
-3.183751
  0
LINE
  8
1
 62
7
  6
CONTINUOUS
 10
1165.480218
 20
810.766888
 11
1165.480218
 21
863.886667
  0
LINE
  8
1
 62
7
  6
CONTINUOUS
 10
1180.480218
 20
873.330448
 11
1180.480218
 21
812.093426
  0
LINE
  8
1
 62
7
  6
CONTINUOUS
 10
641.480218
 20
848.886667
 11
641.480218
 21
859.089677
  0
ENDSEC
  0
EOF
